#TITLE:robin;
#SUBTITLE:;
#ARTIST:S-C-U;
#TITLETRANSLIT:;
#SUBTITLETRANSLIT:;
#ARTISTTRANSLIT:;
#CREDIT:;
#BANNER:robin-bn.png;
#BACKGROUND:robin-bg.png;
#LYRICSPATH:;
#CDTITLE:;
#MUSIC:robin.mp3;
#OFFSET:-0.083;
#SAMPLESTART:30.310;
#SAMPLELENGTH:12.000;
#SELECTABLE:YES;
#BPMS:0.000=190.000;
#STOPS:;
#BGCHANGES:;

//---------------dance-single - ----------------
#NOTES:
     dance-single:
     :
     Easy:
     5:
     0.315,0.431,0.068,0.029,0.000:
0000
0000
0000
0000
,
0000
0000
0000
0000
,
0000
0000
0000
0000
,
0000
0000
0000
0000
,
0000
0000
0000
0000
,
0000
0000
0000
0000
,
0000
0000
0000
0000
,
0000
0000
0000
0000
,
1000
1000
1000
0001
,
1000
0001
0001
0010
,
0001
0000
0000
0000
,
0000
0000
0000
0000
,
0100
0001
0100
0100
,
0010
1000
0100
0100
,
1000
0001
1000
0010
,
0100
0000
0000
0000
,
0101
0000
0011
0000
0000
0000
0000
1100
,
0000
0001
1000
0000
0001
0000
1000
0000
,
0010
0010
1000
0100
,
1000
1000
0001
0100
,
0011
0000
0011
0000
0000
0000
0000
1001
,
0000
0001
1000
0000
0000
0000
0000
0000
,
0001
0010
0001
0100
,
0100
0001
1000
0100
,
1000
1000
0010
0100
,
0100
0001
0010
0100
,
1000
0001
1000
0000
,
0000
0000
0000
0000
,
0001
0100
0100
0001
,
0010
0100
0100
1000
,
0001
0000
0000
0000
,
0000
0000
0000
0000
,
1000
0001
1000
0100
,
1000
0010
1000
0100
,
0010
0001
0100
0001
,
0010
0001
0100
0100
,
0010
1000
0100
0001
,
0100
1000
0010
0100
,
0001
0000
0000
1000
0000
0000
0001
0000
,
0000
1000
0000
0000
0001
0000
1000
0000
,
0100
0100
1000
0010
,
0100
0100
0001
0010
,
0001
0001
0100
0010
,
1000
0100
0010
0001
,
1000
0100
1000
1000
,
0001
0100
0001
1000
,
0200
0000
0000
0000
,
0000
0000
0000
0000
,
0300
0000
0000
0000
,
0010
0001
1000
0001
,
1000
0100
1000
0010
,
0100
0100
0001
0010
,
0001
0001
1000
0100
,
0000
0100
1000
0001
,
0000
0100
0001
1000
,
0100
0100
0010
0001
,
1000
1000
0100
1000
,
0001
0000
0001
0000
,
1000
0000
1000
0000
,
0010
0010
0100
0100
,
0001
1000
0100
0010
,
0001
0000
1001
0000
,
1000
0000
1000
0000
,
0100
1000
0010
0000
,
0100
0001
1000
0000
,
0200
0000
0000
0000
,
0000
0000
0300
0000
,
2000
0000
0000
0000
,
0000
3000
0000
0000
,
0001
0000
0000
0000
,
1000
0000
1000
0000
,
0000
0000
0001
0000
,
0001
0000
0001
0000
,
0100
0100
0100
0001
,
1000
1000
1000
0100
,
1000
0010
0100
0100
,
0001
0010
0100
1000
,
0001
0100
1000
0100
,
0001
0100
1000
0100
,
0001
0010
0100
1000
,
0001
0001
0001
0000
0000
0000
0000
0000
;

//---------------dance-single - ----------------
#NOTES:
     dance-single:
     :
     Medium:
     6:
     0.431,0.548,0.039,0.039,0.000:
0000
0000
0000
0000
,
0000
0000
0000
0000
,
0000
0000
0000
0000
,
0000
0000
0000
0000
,
0000
0000
0000
0000
,
0000
0000
0000
0000
,
0000
0000
0000
0000
,
0000
0000
0000
0000
,
1000
0000
0010
1000
0000
0000
0100
0000
,
0010
0000
0001
1000
0000
0000
0100
0000
,
1000
0100
1000
0100
0000
0000
0000
1000
,
0001
1000
0001
0000
0000
0000
0000
0000
,
0001
0000
0010
0001
0000
0000
0001
0000
,
0100
0000
0010
1000
0000
0000
1000
0000
,
0100
1000
0001
1000
0001
0000
0000
0100
,
0001
0010
0001
0010
0000
0000
0000
0000
,
0011
0000
0101
0000
0001
0000
1000
0100
,
0000
0100
1000
0000
1010
0000
0110
0000
,
0010
1000
0001
1000
,
0100
1000
0100
0000
1000
0000
0001
0000
,
0100
0000
0010
0000
1000
0000
0100
1000
,
0000
1000
0001
0000
0010
0000
0001
0000
,
0100
0000
0010
0000
1000
0100
1000
0000
,
0100
0000
1000
0000
0001
1000
0001
0000
,
0100
0000
0001
0000
0100
0000
0001
0010
,
0000
0010
0001
0000
0100
0000
0001
0000
,
0100
0010
1000
0100
,
1000
0100
1000
0001
,
0010
0000
1000
0000
0010
0000
0001
0100
,
0000
0100
0001
0000
0010
0000
1000
0000
,
0010
0000
0000
0001
0000
0000
0100
0000
,
0000
0001
0000
0000
0100
0000
0001
0000
,
0100
0000
0010
1000
0000
1000
0010
0000
,
0100
0001
1000
0100
,
1000
0000
0100
1000
0000
1000
0100
0000
,
1000
0010
0100
0010
,
0001
0000
0010
1000
0000
1000
0100
0000
,
1000
0001
0010
0001
,
0100
0000
0001
0100
0000
0001
0100
0000
,
0001
1000
0000
1000
0000
0000
0100
1000
,
0000
0010
0100
0001
,
0100
0000
0001
1000
0000
1000
0100
0000
,
1000
0001
0100
0010
,
0100
0000
0001
0100
0000
0100
0001
0000
,
1000
0100
0001
0100
,
1000
0000
0010
0100
0000
0100
0010
0000
,
1000
1000
0000
0001
0001
0000
1000
1000
,
0000
0001
0001
0000
1000
0001
1000
0001
,
0000
0000
0000
0000
,
0001
1000
0100
1000
,
0010
0100
0010
1000
,
0100
0010
0001
1000
,
0100
1000
0100
1000
0100
0000
1000
0001
,
0000
0100
0001
0100
,
0010
1000
0100
0010
,
0001
0000
0001
0010
0000
0001
0000
0100
,
0000
0010
1000
0000
0100
0000
1000
0000
,
0001
1000
0010
0100
,
0010
1000
0100
0010
,
0001
0100
0001
1000
,
0100
1000
0001
1000
0001
0000
1000
0001
,
0000
0100
0001
0010
,
1000
0010
0001
0100
,
0010
1000
0010
0100
,
0010
1000
0100
1000
,
0002
0000
0000
0000
,
2003
0000
0000
0000
,
3200
0000
0000
0000
,
2300
0000
0000
0000
,
3010
0100
0001
0000
,
0001
0100
0010
0000
,
1000
0100
1000
0000
,
0001
0100
0001
0000
,
1000
0100
1000
0100
,
0010
0001
0010
0001
,
1000
0100
1000
0001
,
0100
0001
1000
0100
,
1000
0010
1000
0000
0010
0100
0010
0000
,
0100
0001
0100
0000
0001
1000
0001
0000
,
1000
0100
1000
0000
0001
1000
0001
1000
,
0001
1000
0001
0000
0000
0000
0000
0000
;

//---------------dance-single - Copied from Copied f----------------
#NOTES:
     dance-single:
     Copied from Copied f:
     Hard:
     7:
     0.513,0.666,0.117,0.020,0.010: // measure 1
0000
0000
0000
0000
,  // measure 2
0000
0000
0000
0000
,  // measure 3
0000
0000
0000
0000
,  // measure 4
0000
0000
0000
0000
,  // measure 5
0000
0000
0000
0000
,  // measure 6
0000
0000
0000
0000
,  // measure 7
0000
0000
0000
0000
,  // measure 8
0000
0000
0000
0000
,  // measure 9
0001
0000
1000
0001
0000
0001
1000
0000
,  // measure 10
0100
0010
0000
0001
0000
0100
0000
0010
,  // measure 11
0000
1000
0001
1000
0100
0000
0000
0010
,  // measure 12
0001
0100
0001
0000
0000
0000
1000
0000
,  // measure 13
0010
0000
0100
0001
0000
0001
0100
0000
,  // measure 14
0010
1000
0000
0100
0000
0010
0000
0001
,  // measure 15
0000
0010
0001
0010
0100
0000
0000
1000
,  // measure 16
0010
1000
0100
0000
0000
0000
0000
0000
,  // measure 17
1010
0000
1001
0000
1000
0000
0001
0101
,  // measure 18
0000
1000
1100
0000
1000
0000
0001
0000
,  // measure 19
0100
0000
0001
0000
0010
0000
0000
0100
,  // measure 20
1000
0010
0100
0001
0000
0100
0000
0010
,  // measure 21
1010
0000
0101
0000
0001
0000
1000
1010
,  // measure 22
0000
0001
0011
0000
0010
0000
0100
0000
,  // measure 23
1000
0000
0010
0000
1000
0100
0010
0000
,  // measure 24
0001
0000
0100
0000
0001
0010
0100
0000
,  // measure 25
1000
0000
0001
0000
0010
0000
0001
1000
,  // measure 26
0000
1000
0001
0000
1000
0000
0100
0000
,  // measure 27
1000
0000
0010
0000
0100
0000
0000
0100
,  // measure 28
0001
1000
0100
0010
0000
0001
0000
1000
,  // measure 29
0010
0000
1000
0000
0001
0000
0010
0001
,  // measure 30
0000
0001
0100
0000
0010
0000
1000
0000
,  // measure 31
0100
0000
0000
1000
0000
0000
0001
0000
,  // measure 32
0000
0100
0000
0000
0010
0000
1000
0000
,  // measure 33
1001
0000
0001
0100
0000
0001
0000
0010
,  // measure 34
0100
0000
1000
0010
0000
1000
0000
0100
,  // measure 35
1000
0000
0010
0100
0000
0010
0000
0100
,  // measure 36
0001
0000
1000
0001
0000
0100
0000
0010
,  // measure 37
1000
0000
0100
1000
0000
0001
0000
0010
,  // measure 38
0001
0000
0100
0010
0000
1000
0010
0100
,  // measure 39
0001
0000
1000
0100
0000
0100
0010
0000
,  // measure 40
0010
0001
0000
0010
0000
0001
0100
0010
,  // measure 41
1000
0000
0001
0010
0000
0001
0000
1000
,  // measure 42
0001
0000
0100
0010
0000
1000
0000
0001
,  // measure 43
0100
0000
0001
0010
0000
0001
0000
1000
,  // measure 44
0100
0000
1000
0010
0000
0010
0000
0100
,  // measure 45
0001
0000
0010
0001
0000
0100
0000
0001
,  // measure 46
1000
0000
0100
1000
0000
0001
1000
0100
,  // measure 47
0010
0010
0000
0001
0001
0000
1000
1000
,  // measure 48
0000
0010
0010
0000
1000
0001
1000
1001
,  // measure 49
0000
0000
0000
0000
,  // measure 50
0001
0000
1000
0100
0000
0001
0000
0100
,  // measure 51
0000
1000
0010
0100
0000
0001
0000
1000
,  // measure 52
0001
0100
0000
0001
0000
0010
0100
1000
,  // measure 53
0000
0100
0010
0001
1000
0000
0001
0100
,  // measure 54
0000
0000
0010
0000
1000
0010
0001
0010
,  // measure 55
0000
1000
0000
0001
0010
0100
0010
0000
,  // measure 56
0100
0000
1000
0100
0000
1000
0000
0001
,  // measure 57
0000
0100
0010
1000
0000
0001
1000
0000
,  // measure 58
0100
0000
1000
0010
0000
0100
0000
0001
,  // measure 59
0000
1000
0001
0010
0000
0001
0000
0100
,  // measure 60
0010
1000
0000
0010
0000
0100
0001
1000
,  // measure 61
0000
0001
0100
1000
0100
0000
0001
0010
,  // measure 62
0000
0000
0100
0000
0010
0001
1000
0100
,  // measure 63
0000
1000
0000
0001
0100
0010
0100
0000
,  // measure 64
0010
0000
1000
0100
0000
1000
0000
0001
,  // measure 65
0000
1000
0100
0001
0100
0000
1000
0000
,  // measure 66
0020
0100
0000
0100
,  // measure 67
0000
0100
0000
0130
,  // measure 68
0002
1000
0000
1000
,  // measure 69
0000
1000
0000
1003
,  // measure 70
0001
0000
0100
0000
0001
0010
0000
0000
,  // measure 71
0100
0000
0000
0100
0000
0000
0100
0000
1000
0000
0010
0000
0000
0000
0000
0000
,  // measure 72
0010
0000
0100
0000
0001
1000
0000
0000
,  // measure 73
0010
0000
0000
0010
0000
0000
0010
0000
0100
0000
0001
0000
1000
0000
0000
0000
,  // measure 74
0001
0000
0100
0010
0000
0010
1000
0000
,  // measure 75
0100
0010
0000
0001
0000
1000
0000
0001
,  // measure 76
0000
1000
0100
0010
0001
0000
0000
0001
,  // measure 77
0010
0100
1000
0000
0001
0000
1001
0000
,  // measure 78
0001
0010
0001
0010
0001
0010
0001
0010
,  // measure 79
0100
1000
0100
1000
0100
1000
0100
1000
,  // measure 80
0001
0100
1000
0100
0001
1000
0100
0010
,  // measure 81
0001
1000
1001
0000
0000
0000
0000
0000
;

//---------------dance-single - Copied from----------------
#NOTES:
     dance-single:
     Copied from:
     Beginner:
     3:
     0.206,0.274,0.000,0.020,0.000:
0000
0000
0000
0000
,
0000
0000
0000
0000
,
0000
0000
0000
0000
,
0000
0000
0000
0000
,
0000
0000
0000
0000
,
0000
0000
0000
0000
,
0000
0000
0000
0000
,
0000
0000
0000
0000
,
0001
0000
0000
0000
,
0001
0000
0000
0000
,
1000
0000
0000
1000
,
0000
0000
0010
0000
,
0010
0000
0000
0010
,
0000
0000
0100
0000
,
0100
0000
0000
0001
,
0000
0000
0000
0000
,
1000
1000
0000
0000
,
0001
0001
0000
0000
,
0100
0100
0000
0000
,
0010
0010
0000
0000
,
0100
0100
0100
0000
,
0001
0001
0001
0000
,
1000
0000
0100
0000
,
1000
0000
0010
0000
,
0100
0100
0001
0000
,
0010
0010
0100
0000
,
1000
0000
0001
0000
,
1000
1000
1000
0000
,
0001
0000
0010
0000
,
0100
0100
0010
0000
,
0001
0000
0000
0000
,
0000
0000
0000
0000
,
1000
1000
1000
1000
,
0000
0001
0000
0001
,
0100
0100
0100
0100
,
0000
0010
0000
0010
,
0100
0100
0100
0000
,
0001
0000
1000
0000
,
0100
0000
0100
0000
,
0010
0000
0010
0000
,
0001
0001
0001
0000
,
0100
0000
0100
0000
,
1000
0000
0100
0000
,
0001
0001
0001
0000
,
0010
0000
0100
0000
,
0010
0000
0001
0000
,
1000
0000
0000
0000
,
0000
0000
0000
0000
,
0000
0000
0000
0000
,
1000
1000
0000
0001
,
0000
0001
0000
0100
,
0100
0000
0001
0000
,
1000
0000
0100
0100
,
1000
0000
0001
0000
,
0100
0000
0001
0000
,
0010
0000
0100
0000
,
1000
0000
0001
0000
,
0100
0100
0100
0000
,
0001
0000
0010
0000
,
0001
0000
0100
0000
,
0001
0000
1000
1000
,
1000
0000
0010
0000
,
0100
0000
0001
0000
,
1000
0000
0100
0000
,
1000
0000
0001
0000
,
2000
0000
0000
0000
,
0000
0000
3000
0000
,
0002
0000
0000
0000
,
0000
0003
0000
0000
,
0100
0100
0000
0000
,
0001
0001
0000
0000
,
1000
1000
0000
0000
,
0010
0010
0000
0000
,
0100
0000
0100
0000
,
0001
0000
0001
0000
,
1000
0000
1000
0000
,
0001
0000
0001
0000
,
1000
1000
1000
0000
,
0001
0001
0001
0000
,
0100
0100
0100
0000
,
0010
0010
0000
0000
;
