#TITLE:Yamaoka Akira no 'Quiz! Kajitsugou!';
#SUBTITLE:;
#ARTIST:AKIRA YAMAOKA;
#TITLETRANSLIT:;
#SUBTITLETRANSLIT:;
#ARTISTTRANSLIT:;
#CREDIT:;
#BANNER:Yamaoka Akira no Quiz! Kajitsugou!.png;
#BACKGROUND:Yamaoka-BG.png;
#LYRICSPATH:;
#CDTITLE:;
#MUSIC:Yamaoka Akira no Quiz! Kajitsugou!.mp3;
#OFFSET:-0.080;
#SAMPLESTART:58.920;
#SAMPLELENGTH:11.760;
#SELECTABLE:YES;
#BPMS:0.000=148.000;
#STOPS:;
#BGCHANGES:0.000=Yamaoka Akira no Quiz! Kajitsugou!.avi=1.000=1=0=1,
99999=-nosongbg-=1.000=0=0=0 // don't automatically add -songbackground-
;

//---------------dance-single - ----------------
#NOTES:
     dance-single:
     :
     Hard:
     8:
     0.514,0.492,0.211,0.442,0.067:
0000
0000
0000
0000
,
0000
0000
0000
0000
,
0000
0000
0000
0000
,
0000
0000
0000
0000
,
0001
0010
0200
0000
0000
0300
1000
0001
,
0100
0001
1000
0100
0000
1001
0000
0000
,
1000
0100
0020
0000
0000
0030
0001
1000
,
0100
1000
0010
0100
0000
1001
0000
0000
,
0010
0001
2000
0000
0000
0000
3100
1000
,
0010
0100
0001
1000
0000
0101
0000
0000
,
1000
0100
0010
0000
0100
0000
0010
0001
,
1000
0010
0100
0001
0000
0101
0000
0000
,
1001
0000
0000
0000
0010
0000
0000
0100
0000
0000
0002
0000
0000
0000
0000
0000
,
1003
0000
1000
0010
0100
0001
1000
0010
,
0100
0000
0001
0000
1000
0000
0000
0010
0000
0000
2000
0000
0000
0000
0000
0000
,
3001
0000
0001
0100
0010
1000
0001
0100
,
0010
0000
1000
0000
0001
0000
0000
0100
0000
0000
0020
0000
0000
0000
0000
0000
,
1030
0000
0001
0010
0100
1000
0001
0010
,
0100
0000
1000
0000
0001
0000
0000
1000
0000
0000
0200
0000
0000
0000
0000
0000
,
1300
0000
1000
0100
0010
0001
1000
0100
,
0010
0000
0001
0000
1000
0000
0000
0100
0000
0000
0002
0000
0000
0000
0000
0000
,
0103
0000
1000
0010
0001
0010
1000
0010
,
0001
0000
0010
0000
1000
0000
0000
0001
0000
0000
0200
0000
0000
0000
0000
0000
,
0301
0000
0001
0100
1000
0100
0001
0100
,
1000
0000
0100
0000
0001
0000
0000
1000
0000
0000
0020
0000
0000
0000
0000
0000
,
0130
0000
0001
0010
1000
0010
0001
0100
,
1000
0000
0100
0000
0001
0000
0000
0010
0000
0000
2000
0000
0000
0000
0000
0000
,
3010
0000
0001
0010
0100
1000
0001
0010
,
0100
0000
1000
0000
0002
0000
0000
0010
0003
0000
0001
0000
0200
0000
0000
1000
,
0300
0000
0100
0000
0010
0000
0000
1000
0000
0000
0001
0000
2000
0000
0000
0000
,
3001
0000
0001
0000
0020
0000
0000
0100
0030
0000
1000
0000
0020
0000
0000
0001
,
0030
0000
0010
0000
1000
0000
0000
0001
0000
0000
0100
0000
0002
0000
0000
0000
,
0013
0010
0100
0000
1001
0000
0002
0000
,
0013
0100
1000
0000
0010
0000
0200
0000
,
0310
1000
0001
0000
1010
0000
0100
0010
,
0100
0010
0100
0000
0010
0000
2002
0000
,
3003
0000
2000
0000
3100
0100
0020
0000
,
0031
0001
0100
0010
1000
0001
0100
0000
,
0101
0000
0200
0000
0301
0001
0200
0000
,
0310
1000
0100
0000
1001
0000
0001
0100
,
1000
0100
0002
0000
0013
0010
0200
0000
,
1300
0010
0100
0000
2000
0000
3200
0000
,
0302
0023
0100
0100
,
0130
0210
0020
0330
,
0000
0000
0002
0000
1003
0100
0020
0000
,
0031
0001
0010
0001
0100
0000
0001
0100
,
0010
0000
2000
0000
3100
0100
0020
0000
,
0130
0010
0001
1000
0100
0000
1000
0010
,
0001
0010
2000
0000
0100
0000
3020
0000
,
0130
1100
2000
3002
,
0023
0000
0230
0000
0010
0010
0310
0000
,
0110
1001
0000
0101
,
1010
0000
2001
0000
0000
0000
3100
0010
,
0001
0100
0010
1000
0000
0110
0000
0000
,
1000
0010
0200
0000
0000
0000
0301
0100
,
1000
0100
0001
0010
0000
1001
0000
0000
,
0010
1000
0002
0000
0000
0000
1003
0100
,
0001
0100
1000
0001
0000
0101
0000
0000
,
0010
1000
1010
0000
1001
0000
1000
0010
,
0001
0010
1000
0100
0010
0001
0010
0100
,
1000
0010
0100
0000
0000
0000
0000
0000
;

//---------------dance-single - ----------------
#NOTES:
     dance-single:
     :
     Medium:
     6:
     0.379,0.434,0.230,0.307,0.019:
0000
0000
0000
0000
,
0000
0000
0000
0000
,
0000
0000
0000
0000
,
0000
0000
0000
0000
,
1000
0100
0020
0000
0000
0000
0031
0000
,
0010
0000
0100
1000
0000
0001
0000
0000
,
0100
0010
2000
0000
0000
0000
3100
0000
,
0010
0000
0001
1000
0000
1000
0000
0000
,
0001
0100
0002
0000
0000
0000
1003
0000
,
0100
0000
0010
0100
0000
0100
0000
0000
,
0001
1000
0100
1000
,
0001
0000
0100
0100
0000
0120
0000
0000
,
1030
0000
0001
0100
0001
0000
1000
0000
,
1000
0000
1000
0000
0001
0000
0000
1000
,
1100
0000
1000
0100
1000
0000
1000
0000
,
0001
0000
1000
0000
0001
0000
0000
0001
,
0101
0000
0010
1000
0001
0000
1000
0000
,
1000
0000
0001
0000
0001
0000
0000
0010
,
0110
0000
0010
0001
1000
0000
0100
0000
,
0010
0000
0001
0000
1000
0000
0000
0100
,
0010
0010
2000
0000
3100
0000
0020
0000
,
0031
0000
1000
0100
1000
0000
0000
0001
,
0101
0020
1030
0002
,
0013
0100
0010
0000
0001
0000
0000
1000
,
1001
0000
0010
0001
0100
0000
0002
0000
,
0103
0001
0100
0000
0010
0000
0000
0100
,
0110
0020
0130
0200
,
0310
0010
0010
0000
0010
1000
0100
0010
,
0001
1000
0002
0000
0000
0000
2003
0000
,
0000
0000
0000
0000
3100
0000
0000
0100
0000
0000
0100
0000
0010
0000
0000
0000
,
0000
0020
0000
0230
,
0000
0000
0000
0000
0310
0000
0000
0010
0000
0000
0010
0000
0100
0000
0000
0000
,
0000
0000
0000
0000
0001
0000
0000
0100
0000
0000
1000
0000
0000
0000
0000
0000
,
0000
0000
0000
0000
1000
0000
0000
0100
0000
0000
0001
0000
0000
0000
0000
0000
,
0000
1000
2002
0000
0000
0000
3003
0000
,
0000
0000
0000
0000
,
0000
2000
0000
3200
,
0000
0310
0010
0100
,
1000
0200
0000
0000
,
0310
0000
0110
0000
1000
0000
1000
0001
,
1000
0001
2000
0000
3010
0000
0020
0000
,
0130
0000
1001
0110
,
1001
0110
0010
0010
,
1000
2002
3003
0000
,
0000
0002
0000
0023
,
0000
0130
0100
1000
,
0010
0200
0000
0000
,
0310
0000
0110
0000
0000
0000
0010
0100
,
0010
0100
0020
0000
1030
0000
2000
0000
,
3001
0000
0101
1010
,
0101
1010
0000
0000
,
0002
0023
0130
0100
,
0100
0200
0000
0310
,
0000
0000
1000
0100
1000
0000
0001
0100
,
0100
0000
0010
0000
0100
0000
0010
1000
,
0001
0000
1000
0000
0100
0000
0000
0010
,
0100
0100
0010
0000
1010
0000
0001
0000
,
0101
0000
1000
0100
1000
0000
0000
1000
,
1100
0001
0011
1000
,
1100
0000
1000
0000
0001
0000
1000
0001
,
1000
0001
1000
0000
0000
0000
0000
0000
;

//---------------dance-single - ----------------
#NOTES:
     dance-single:
     :
     Easy:
     3:
     0.229,0.231,0.029,0.077,0.000: // measure 1
0000
0000
0000
0000
,  // measure 2
0000
0000
0000
0000
,  // measure 3
0000
0000
0000
0000
,  // measure 4
0000
0000
0000
0000
,  // measure 5
0001
0001
0000
0100
,  // measure 6
0000
0010
0000
1000
,  // measure 7
0001
0001
0000
0010
,  // measure 8
0000
0100
0000
1000
,  // measure 9
0010
0010
0000
0100
,  // measure 10
0000
0001
0000
0010
,  // measure 11
0000
0100
0000
0010
,  // measure 12
0000
0001
0000
1000
,  // measure 13
0000
0001
0001
0001
,  // measure 14
0000
1000
0100
1000
,  // measure 15
0100
1000
1000
1000
,  // measure 16
0000
0001
0100
0001
,  // measure 17
0100
0010
0010
0010
,  // measure 18
0000
1000
0100
0001
,  // measure 19
0100
1000
1000
0000
,  // measure 20
0010
0100
0100
0001
,  // measure 21
0001
1000
1000
0000
,  // measure 22
0010
0000
0100
0000
,  // measure 23
0001
0010
0010
0100
,  // measure 24
0000
1000
0000
0001
,  // measure 25
0000
0010
0010
0100
,  // measure 26
0000
1000
0000
0001
,  // measure 27
0000
0010
0100
0010
,  // measure 28
0000
0001
0000
1000
,  // measure 29
0000
0020
0000
0230
,  // measure 30
0000
0320
0000
2030
,  // measure 31
0000
3002
0000
0023
,  // measure 32
0000
0230
0000
0320
,  // measure 33
0000
0130
1001
0000
,  // measure 34
1000
0000
1000
0000
,  // measure 35
0001
0000
0001
0000
,  // measure 36
0010
0110
0000
0000
,  // measure 37
0000
1000
1000
0100
,  // measure 38
0100
1000
1000
0001
,  // measure 39
0001
1000
0000
0100
,  // measure 40
0000
0010
0000
0001
,  // measure 41
0001
0010
0000
0100
,  // measure 42
0000
1000
0000
0100
,  // measure 43
1000
0100
1000
0100
,  // measure 44
1000
0001
0000
0000
,  // measure 45
0000
0001
0010
0001
,  // measure 46
0010
0100
0000
1000
,  // measure 47
0000
0010
1000
0010
,  // measure 48
1000
0010
0000
0100
,  // measure 49
0000
0001
0100
0000
,  // measure 50
0001
0100
0001
0000
,  // measure 51
1000
0100
1000
0000
,  // measure 52
0100
1000
0000
0001
,  // measure 53
0001
0001
0000
0010
,  // measure 54
0100
0010
0000
0100
,  // measure 55
0000
1000
0100
1000
,  // measure 56
0001
0100
0000
0010
,  // measure 57
0000
1000
0100
1000
,  // measure 58
0001
1000
0000
0010
,  // measure 59
0000
0100
0100
0010
,  // measure 60
0010
0100
0100
0010
,  // measure 61
0010
0110
0000
0000
;

//---------------dance-single - Copied from----------------
#NOTES:
     dance-single:
     Copied from:
     Beginner:
     2:
     0.188,0.174,0.019,0.000,0.000:
0000
0000
0000
0000
,
0000
0000
0000
0000
,
0000
0000
0000
0000
,
0000
0000
0000
0000
,
0000
0010
0000
0010
,
0000
0010
0010
0010
,
0000
1000
0000
1000
,
0000
1000
1000
1000
,
0000
0001
0000
0001
,
0000
0001
0001
0001
,
0000
0100
0000
0100
,
0000
0100
0100
0100
,
0000
0010
0000
0010
,
0000
1000
0000
1000
,
0000
1000
0000
0001
,
0000
0001
0001
0001
,
0000
0100
0000
0001
,
0000
0100
0100
0100
,
0000
0001
0000
1000
,
0000
0100
0100
0100
,
0000
1000
0000
0001
,
0000
1000
1000
1000
,
0000
0010
0000
1000
,
0000
0010
0010
0010
,
0000
0100
0000
0010
,
0000
0100
0100
0100
,
0000
0001
0000
1000
,
0000
0001
0001
0001
,
0000
0010
0000
0010
,
0000
0001
0000
0001
,
0000
0100
0000
0100
,
0000
0010
0000
0010
,
0000
1000
1000
1000
,
0000
0001
0001
0001
,
0000
1001
0000
0000
,
0000
1000
0000
0000
,
0000
0001
0001
0001
,
0000
0100
0000
0100
,
0000
0001
0001
0001
,
0000
1000
0000
0100
,
0100
0100
0000
1000
,
0000
0010
0000
0100
,
0100
0100
0000
0001
,
0000
1000
0000
0100
,
0100
1000
0000
0100
,
0000
1000
1000
1000
,
0000
0010
0000
0100
,
0000
0001
0001
0001
,
0000
0010
0000
1000
,
0000
0010
0010
0001
,
0000
1000
0000
0001
,
0000
0100
0100
0100
,
0000
0001
0000
1000
,
0000
0100
0000
1000
,
0000
0010
0000
0100
,
0000
0001
0001
0100
,
0000
0001
0000
0100
,
0000
0010
0010
1000
,
0000
0100
0000
1000
,
0000
0001
0000
1000
,
0000
1001
0000
0000
;
