#TITLE:What You Waiting For;
#SUBTITLE:;
#ARTIST:Gwen Stefani;
#TITLETRANSLIT:;
#SUBTITLETRANSLIT:;
#ARTISTTRANSLIT:;
#CREDIT:;
#BANNER:[DDR Artists] What You Waiting For.png;
#BACKGROUND:[DDR Artists] What You Waiting For-bg.png;
#LYRICSPATH:;
#CDTITLE:;
#MUSIC:[DDR Artists] What You Waiting For.mp3;
#OFFSET:0.374;
#SAMPLESTART:35.500;
#SAMPLELENGTH:12.000;
#SELECTABLE:YES;
#BPMS:0.000=136.040;
#STOPS:;
#BGCHANGES:0.000=What You Waiting For.avi=1.000=1=0=1,
249.000=[DDR Artists] What You Waiting For-bg.png=1.000=1=0=1,
99999=-nosongbg-=1.000=0=0=0 // don't automatically add -songbackground-
;

//---------------dance-single - ----------------
#NOTES:
     dance-single:
     :
     Hard:
     8:
     0.500,0.483,0.569,0.129,0.000: // measure 1
0000
0000
0000
0000
,  // measure 2
0000
0000
0000
0000
,  // measure 3
0000
0000
0000
0000
,  // measure 4
0000
0000
0000
0000
,  // measure 5
0000
0000
0000
0000
,  // measure 6
0000
0000
0000
0000
,  // measure 7
0000
0000
1000
0100
0010
0001
0100
0010
,  // measure 8
1000
0001
1000
0100
0000
2000
0000
0000
,  // measure 9
3010
1000
1000
0100
1000
0001
0100
0010
,  // measure 10
1000
0100
0001
0100
1000
0010
0200
0000
,  // measure 11
0301
0101
1010
1100
,  // measure 12
0011
0101
0011
1100
,  // measure 13
1001
0000
0001
0100
0010
1000
0100
1000
,  // measure 14
0010
0100
0001
0010
0100
2000
0000
3001
,  // measure 15
0001
0100
0010
1000
0100
0001
0100
1000
,  // measure 16
0001
0010
0100
1000
0010
0001
0010
0000
,  // measure 17
1010
1100
1001
0101
,  // measure 18
0011
1100
1010
0110
,  // measure 19
1001
0000
0001
0001
0100
0000
0010
0000
,  // measure 20
1010
0000
1000
1000
0100
0000
0010
0000
,  // measure 21
0011
0000
0001
1000
0100
1000
0001
0001
,  // measure 22
0100
0010
1000
1000
0100
0010
0001
0001
,  // measure 23
0100
0010
1000
1000
0010
0100
0001
0001
,  // measure 24
0000
2002
0000
0000
0000
0000
3003
0000
,  // measure 25
1001
0000
1000
0100
0010
0001
0100
0100
,  // measure 26
0010
1000
0100
0100
0010
0001
0010
0010
,  // measure 27
0001
1000
0010
0010
1000
0001
0010
0010
,  // measure 28
0000
2002
0000
0000
0000
0000
3003
0000
,  // measure 29
1001
0001
1000
0001
,  // measure 30
1000
0001
1000
0001
,  // measure 31
1000
0011
0101
1010
,  // measure 32
1100
1001
0110
2002
,  // measure 33
3003
0000
1000
0100
0001
0100
0010
0001
,  // measure 34
0100
0010
1000
0001
1000
0002
0000
0000
,  // measure 35
0103
0001
0001
0010
0100
1000
0010
0100
,  // measure 36
0001
0010
1000
0010
0001
1000
0010
0000
,  // measure 37
0110
1010
0101
1100
,  // measure 38
0011
0101
1010
1100
,  // measure 39
1001
0000
0001
0001
0100
0010
1000
0001
,  // measure 40
1000
0001
0100
0001
1000
2000
0000
0000
,  // measure 41
3001
0100
0100
0010
1000
0100
0010
0001
,  // measure 42
0001
1000
0001
0100
1000
0100
0001
0000
,  // measure 43
1001
0011
0101
1001
,  // measure 44
1010
1100
1001
0110
,  // measure 45
1001
0000
0100
0100
0010
0000
1010
0000
,  // measure 46
1001
0000
0001
0001
0100
0000
0101
0000
,  // measure 47
1001
0000
1000
0010
0001
0010
1000
0010
,  // measure 48
0001
0010
1000
0100
0001
0100
1000
0100
,  // measure 49
0001
0100
1000
0000
1100
0000
0001
0000
,  // measure 50
0101
1000
1100
1001
,  // measure 51
1001
0000
0001
0010
1000
0010
0001
0010
,  // measure 52
1000
0010
0001
0100
1000
0100
0001
0100
,  // measure 53
1000
0100
0001
0000
0101
0000
1000
0000
,  // measure 54
1010
0001
0011
1001
,  // measure 55
1001
0000
1000
0010
0100
0001
0010
0010
,  // measure 56
0001
1000
0010
0010
1000
0001
0010
0010
,  // measure 57
0001
1000
0100
0100
1000
0001
0100
0100
,  // measure 58
0000
2002
0000
0000
0000
0000
3003
0000
,  // measure 59
1001
0000
0001
0010
0100
1000
0001
0001
,  // measure 60
0100
0010
1000
1000
0010
0100
0001
0001
,  // measure 61
0010
0100
1000
1000
0100
0010
0001
0001
,  // measure 62
0000
2002
0000
0000
0000
0000
3003
0000
,  // measure 63
1001
0001
1000
0000
0000
0000
0000
0000
;

//---------------dance-solo - ----------------
#NOTES:
     dance-solo:
     :
     Beginner:
     3:
     0.217,0.268,0.034,0.000,0.000:
000000
000000
000000
000000
,
000000
000000
000000
000000
,
000000
000000
000000
000000
,
000000
000000
000000
000000
,
001000
000000
001000
000000
,
000010
000000
010000
000000
,
001000
000000
001000
000000
,
010000
000000
000010
000000
,
010000
000010
010000
000010
,
010000
000010
010000
000010
,
001000
000010
001000
000010
,
010010
010010
001000
000010
,
010000
000010
010000
000010
,
010000
000010
010000
000010
,
010000
001000
001000
001000
,
010010
010010
001000
000010
,
010000
000000
001000
000000
,
001000
000000
010000
000000
,
000010
010000
000010
010000
,
001000
001000
001000
001000
,
010000
000000
000010
000000
,
001000
001000
001000
001000
,
000010
000000
010000
000000
,
001000
001000
001000
001000
,
001000
000000
001000
000000
,
010000
000010
010000
000010
,
001000
000000
001000
000000
,
000010
010000
000010
010000
,
001000
001000
010000
001000
,
010000
000010
010000
000010
,
001000
001000
000010
010000
,
000010
001000
000010
010000
,
001000
010000
000010
001000
,
001000
000010
001000
000010
,
001000
000010
010000
000010
,
001000
001000
000010
000010
,
010000
000000
001000
000000
,
010000
000000
000010
000000
,
001000
000000
000010
000000
,
010000
000000
000010
000000
,
010000
000010
001000
000010
,
010000
001000
010000
000010
,
010000
000010
010000
000010
,
001000
000010
010000
000010
,
001000
000000
001000
000000
,
000010
001000
000010
000010
,
010000
000000
001000
000000
,
010000
001000
010000
010000
,
000010
000000
010000
000000
,
000010
010000
000010
010000
,
001000
000000
001000
000000
,
010000
000010
010000
000010
,
001000
000010
010000
001000
,
001000
010000
000010
001000
,
001000
001000
000010
010000
,
001000
000000
001000
000000
,
001000
000000
001000
000000
;

//---------------dance-single - ----------------
#NOTES:
     dance-single:
     :
     Medium:
     5:
     0.363,0.456,0.207,0.103,0.000:
0000
0000
0000
0000
,
0000
0000
0000
0000
,
0000
0000
0000
0000
,
0000
0000
0000
0000
,
0000
0000
0000
0000
,
0000
0000
0000
0000
,
0000
0000
1000
0010
0100
0000
0001
0000
,
0101
0000
0001
0100
0010
0000
1000
0000
,
1010
0000
1000
0001
1000
0001
1000
0000
,
0001
0000
0100
0010
0100
0010
0100
0000
,
0110
1000
0100
0001
,
0100
1000
0010
0001
,
0010
0000
1000
0100
0010
0000
0001
0000
,
0101
0000
0001
0010
0100
0000
1000
0000
,
1100
0000
0001
0100
0001
0100
0001
0000
,
1000
0000
0010
1000
0010
1000
0010
0000
,
1001
0001
0100
0010
,
1000
0100
0010
0001
,
1000
0010
0100
0010
,
0100
0010
0100
0010
,
0100
0000
0010
0000
1000
0000
0100
0100
,
0010
0001
0100
0010
,
1000
0000
0100
0100
0010
0000
0001
0000
,
0100
0002
1000
0100
,
1003
0000
0100
0000
0001
0000
0010
0010
,
0001
0000
0100
0000
0010
0000
1000
1000
,
0100
0000
0010
0000
0001
0000
0100
0100
,
0010
2000
0100
0001
,
3100
1000
1000
1000
,
1000
0001
0001
0001
,
0001
0011
0011
0011
,
1100
1100
1100
2002
,
3003
0000
0001
0100
1000
0000
0100
0000
,
0001
0010
0001
0000
0100
0000
0010
0000
,
1000
0100
0001
0000
0100
0000
1000
0000
,
0010
0100
0001
0000
0100
0000
0010
0000
,
1000
0001
0101
0001
,
0101
1000
1100
1000
,
1100
0000
1000
0010
0001
0000
0010
0000
,
1000
0100
0010
0000
0001
0000
0100
0000
,
0001
0100
0010
0000
1000
0000
0100
0000
,
0010
0001
0100
0000
0010
0000
1000
0000
,
0001
1001
1000
1001
,
0001
1001
1000
2002
,
3003
1000
0100
1000
,
0100
0010
0001
0010
,
0001
2000
0001
0001
,
3001
0002
1000
1000
,
1003
0000
1000
0000
0001
0000
0100
0010
,
1000
0100
0010
0001
1000
0000
1001
0000
,
1001
0200
0010
0010
,
0310
0020
0100
0100
,
0130
0000
0001
0000
1000
0000
0100
0010
,
0001
1000
0100
0000
1000
0001
1000
0000
,
1001
0000
0001
0000
0100
0000
1000
1000
,
0100
0000
0001
0000
0010
0000
1000
1000
,
0010
0001
1000
0100
,
1000
0002
0100
0100
,
0103
0000
1000
0000
0100
0000
0001
0001
,
0100
0000
1000
0000
0010
0000
0001
0001
,
0010
1000
0100
0010
,
0001
2000
0001
0001
,
3001
0100
0010
0000
0000
0000
0000
0000
;

//---------------dance-single - ----------------
#NOTES:
     dance-single:
     :
     Easy:
     3:
     0.250,0.268,0.043,0.112,0.000:
0000
0000
0000
0000
,
0000
0000
0000
0000
,
0000
0000
0000
0000
,
0000
0000
0000
0000
,
0000
0000
0000
0000
,
0000
0000
0000
0000
,
0000
1000
1000
1000
,
0001
1000
0001
0002
,
0103
0010
0010
0010
,
0100
0010
0100
0100
,
0001
1000
0001
0000
,
1000
0000
0010
0000
,
0100
0001
0001
0001
,
0010
0100
0010
0002
,
1003
0100
1000
0010
,
0100
0001
0100
0020
,
1030
0001
1000
0000
,
0010
0000
0100
0000
,
0001
1000
0100
0000
,
0010
0001
0100
0000
,
0010
1000
1000
1000
,
1000
0001
0001
0001
,
0001
1000
1000
1000
,
1000
0002
0010
0010
,
0013
0001
0001
0001
,
0001
1000
1000
1000
,
1000
0001
0001
0001
,
0001
0200
0010
0010
,
0310
0000
1001
0000
,
1001
0000
1001
0000
,
1001
1000
0100
0010
,
0001
1000
0100
0010
,
0001
0100
0100
0100
,
0010
0100
0100
0002
,
1003
0100
0100
0100
,
1000
0010
0010
0100
,
0002
1003
0100
0000
,
0010
0000
0001
0000
,
0100
0010
0010
0010
,
1000
0100
0100
1000
,
0001
0010
0010
0010
,
0001
1000
1000
0100
,
1000
0010
0100
0000
,
0001
0000
0100
0000
,
0001
1000
0100
0000
,
0010
0001
0100
0000
,
0010
2000
0000
0000
,
0000
3002
0000
0000
,
0000
1003
0000
1000
,
0000
0001
0000
0001
,
0000
0200
0000
0000
,
0000
0320
0000
0000
,
0030
0100
0000
0100
,
0000
0001
0000
0001
,
0000
1000
1000
1000
,
1000
0001
0001
0001
,
0001
0010
0010
0010
,
0010
0200
0010
0010
,
0310
0001
0001
0001
,
0001
1000
1000
1000
,
1000
0100
0100
0100
,
0100
0020
0001
0001
,
0031
1001
0000
0000
;

//---------------dance-double - Copied from----------------
#NOTES:
     dance-double:
     Copied from:
     Hard:
     8:
     0.498,0.483,0.405,0.233,0.000:
00000000
00000000
00000000
00000000
,
00000000
00000000
00000000
00000000
,
00000000
00000000
00000000
00000000
,
00000000
00000000
00000000
00000000
,
00000000
00000000
00000000
00000000
,
00000000
00000000
00000000
00000000
,
00000000
00000000
10000000
01000000
00100000
00010000
10000000
00010000
,
01000000
00001000
00010000
00000100
00000000
00000020
00000000
00000000
,
00000031
00000100
00001000
00000100
00000001
00000010
00000100
00001000
,
00000100
00010000
00001000
01000000
00100000
10000000
00010000
00000000
,
10000000
11000000
00010000
01010000
,
00100000
00101000
00001000
00021000
,
00031000
00000000
00000100
00000010
00001000
00000001
00001000
00000100
,
00000001
00000100
00001000
00000100
00010000
00002000
00000000
01003000
,
01000000
00010000
00100000
01000000
10000000
00100000
01000000
00010000
,
01000000
00100000
10000000
01000000
00010000
00001000
00000200
00000000
,
00000310
00002000
02003000
23000000
,
30200000
00320000
00032000
00003200
,
00000301
00000000
00000001
00000001
00000100
00000000
00000010
00000000
,
00001010
00000000
00000100
00000100
00001000
00000000
00010000
00000000
,
00011000
00000000
01000000
00100000
01000000
00100000
00010000
01000000
,
00010000
01000000
00001000
00010000
00001000
00010000
00000100
00010000
,
00000100
00000010
00000002
00000000
00000100
00000000
00001000
00000000
,
00000103
00000101
00001010
00010100
,
00011000
00000000
00010000
00001000
00010000
00001000
00000100
00000010
,
00000100
00000010
00001000
00000001
00001000
00000001
00001000
00000100
,
00000010
00000001
00002000
00000000
00000001
00000000
00000100
00000000
,
00003001
00001100
00011000
01010000
,
10100000
10000000
01000000
00010000
,
00001000
00000100
00000001
00000100
,
00001000
10100000
10010000
01010000
,
00110000
10010000
01100000
20020000
,
30030000
00000000
10000000
00100000
01000000
00010000
01000000
00100000
,
10000000
01000000
00010000
00001000
00000100
00000020
00000000
00000000
,
00001030
00000001
00000100
00000010
00001000
00000100
00000010
00000001
,
00001000
00000100
00010000
00001000
00010000
01000000
00100000
00000000
,
10010000
00110000
01010000
00110000
,
01010000
00011000
00010100
00011000
,
00010100
00000000
00000100
00000010
00000001
00001000
00000100
00010000
,
00001000
01000000
00100000
10000000
00010000
20000000
00000000
30000000
,
01000000
10000000
00100000
01000000
00100000
10000000
01000000
00100000
,
00010000
01000000
00001000
00010000
00000100
00000010
00000001
00000000
,
00001001
00000002
00000023
00000230
,
00002300
00023000
00230000
02300000
,
23000000
00000000
30010000
00000000
11000000
00000000
00100000
00010000
,
01000000
00000000
00001000
00000000
00011000
00000000
00001000
00000100
,
00000010
00000000
00001000
00000100
00000010
00000001
00001000
00000100
,
00000010
00000001
00001000
00000100
00000001
00000100
00001000
00000100
,
00000001
00000100
00001000
00000000
00011000
00000000
00100000
00010000
,
01000000
00100000
10000000
01000000
00100000
00000000
11000000
00000000
,
10010000
00000000
00010000
00100000
01000000
10000000
00010000
00100000
,
01000000
10000000
00010000
01000000
10000000
01000000
00010000
01000000
,
10000000
01000000
00010000
00000000
00011000
00000000
00010000
00001000
,
00000100
00000010
00001000
00000001
00001000
00000100
00000010
00000000
,
00001001
00000000
00000001
00001000
00000100
00001000
00000001
00000100
,
00000001
00000010
00000100
00010000
00001000
00010000
01000000
00100000
,
00010000
10000000
00020000
00000000
01000000
00000000
10000000
00000000
,
01030000
01010000
00110000
01010000
,
10010000
00000000
10000000
01000000
00010000
01000000
10000000
00100000
,
00010000
00100000
10000000
01000000
00010000
00001000
00000100
00000010
,
00001000
00000001
00002000
00000000
00000001
00000000
00000100
00000000
,
00003001
00000101
00001010
00001100
,
00010100
00011000
00000000
00000000
;

//---------------dance-double - Copied from----------------
#NOTES:
     dance-double:
     Copied from:
     Medium:
     5:
     0.367,0.456,0.215,0.121,0.000:
00000000
00000000
00000000
00000000
,
00000000
00000000
00000000
00000000
,
00000000
00000000
00000000
00000000
,
00000000
00000000
00000000
00000000
,
00000000
00000000
00000000
00000000
,
00000000
00000000
00000000
00000000
,
00000000
00000000
10000000
00010000
01000000
00000000
00001000
00000000
,
00011000
00000000
00010000
00001000
00000100
00000000
00000010
00000000
,
00000110
00000000
00001000
00000100
00000010
00000001
00002000
00000000
,
00003100
00000000
00010000
00001000
00010000
00001000
00010000
00000000
,
00011000
10000000
01000000
00010000
,
01000000
10000000
00100000
01000000
,
00010000
00000000
10000000
00100000
01000000
00000000
01000000
00000000
,
01001000
00000000
00010000
00001000
00010000
00000000
00000100
00000000
,
00000110
00000000
00000001
00000100
00000010
00001000
00000002
00000000
,
00001003
00000000
00000100
00010000
00001000
00100000
00010000
00000000
,
10010000
00010000
01000000
00100000
,
10000000
01000000
00100000
00010000
,
10000000
00100000
01000000
00100000
,
01000000
00001000
01000000
00001000
,
01000000
00000000
00100000
00000000
10000000
00000000
01000000
01000000
,
00100000
00010000
01000000
00001000
,
00010000
00000000
00001000
00001000
00000100
00000000
00000100
00000000
,
00000010
00002000
00000100
00000001
,
00003100
00000000
00000010
00000000
00000001
00000000
00001000
00001000
,
00000100
00000000
00010000
00000000
00001000
00000000
00100000
00100000
,
00010000
00000000
00100000
00000000
00010000
00000000
01000000
01000000
,
00100000
20000000
01000000
00010000
,
31000000
10000000
10000000
10000000
,
10000000
00010000
00010000
00010000
,
00010000
00011000
00011000
00011000
,
00001100
00001100
00001100
00002002
,
00003003
00000000
00000001
00000100
00001000
00000000
00001000
00000000
,
00010000
00001000
00010000
00000000
01000000
00000000
00100000
00000000
,
00010000
01000000
10000000
00000000
01000000
00000000
00100000
00000000
,
10000000
00100000
01000000
00000000
00010000
00000000
10000000
00000000
,
00010000
00010000
01010000
00001000
,
00011000
00000100
00001100
00001000
,
00001001
00000000
00000001
00000010
00001000
00000000
00000010
00000000
,
00000001
00001000
00000100
00000000
00010000
00000000
00001000
00000000
,
01000000
00100000
10000000
00000000
10000000
00000000
01000000
00000000
,
00100000
00010000
01000000
00000000
00001000
00000000
00010000
00000000
,
00001000
00011000
00010000
00010100
,
00001000
00011000
00001000
02002000
,
03003000
00100000
10000000
01000000
,
00100000
00010000
00001000
00000100
,
00000010
00000002
00001000
00001000
,
00001003
00002000
00000001
00000001
,
00003001
00000000
00001000
00000000
00001001
00000000
00000001
00000100
,
00000010
00001000
00000100
00010000
00001000
00000000
00011000
00000000
,
00011000
02000000
00100000
00100000
,
03100000
00200000
01000000
01000000
,
01300000
00000000
00010000
00000000
10000000
00000000
01000000
00100000
,
00010000
10000000
01000000
00000000
10000000
00010000
10000000
00000000
,
10010000
00000000
10000000
00000000
01000000
00000000
00010000
00010000
,
00001000
00000000
00010000
00000000
00000010
00000000
00000100
00000100
,
00000001
00001000
00000100
00000010
,
00000001
00002000
00000100
00000100
,
00003100
00000000
00010000
00000000
00001000
00000000
00010000
00010000
,
01000000
00000000
00100000
00000000
00010000
00000000
10000000
10000000
,
00100000
10000000
01000000
00100000
,
00010000
20000000
00010000
00010000
,
30010000
01000000
00001000
00000000
00000000
00000000
00000000
00000000
;

//---------------dance-double - Copied from----------------
#NOTES:
     dance-double:
     Copied from:
     Easy:
     3:
     0.250,0.268,0.009,0.121,0.000:
00000000
00000000
00000000
00000000
,
00000000
00000000
00000000
00000000
,
00000000
00000000
00000000
00000000
,
00000000
00000000
00000000
00000000
,
00000000
00000000
00000000
00000000
,
00000000
00000000
00000000
00000000
,
00000000
10000000
10000000
10000000
,
00010000
01000000
00001000
00002000
,
00013000
00000100
00000100
00000100
,
00000010
00000100
00000010
00000010
,
00000001
00000100
00001000
00000000
,
00010000
00000000
00001000
00000000
,
01000000
00010000
00010000
00010000
,
00100000
01000000
00100000
00002000
,
00013000
00000100
00000010
00000001
,
00001000
00000100
00000010
00000002
,
00001003
00000100
00010000
00000000
,
01000000
00000000
00100000
00000000
,
00010000
10000000
01000000
00000000
,
00100000
00001000
01000000
00000000
,
00100000
10000000
10000000
10000000
,
10000000
00010000
00010000
00010000
,
00010000
01000000
01000000
01000000
,
01000000
00002000
00100000
00100000
,
00103000
00010000
00010000
00010000
,
00010000
00000100
00000100
00000100
,
00000100
00000010
00000010
00000010
,
00000010
00000002
00000100
00000100
,
00000103
00000010
00010000
00000010
,
00010000
00000010
00010000
00000010
,
00010000
01000000
01000000
01000000
,
01000000
01000000
01000000
02000000
,
03000000
00100000
00100000
00100000
,
00010000
01000000
01000000
00020000
,
10030000
01000000
01000000
01000000
,
00010000
00001000
00001000
00000100
,
00000020
00001030
00000100
00000000
,
00000010
00000000
00000001
00000000
,
00000100
00001000
00001000
00001000
,
00010000
01000000
01000000
10000000
,
00010000
00100000
00100000
00100000
,
00010000
01000000
01000000
00001000
,
00010000
00001000
00001000
00000000
,
00010000
00000000
00001000
00000000
,
00010000
00000010
00000100
00000000
,
00000001
00000010
00000100
00000000
,
00001000
00000002
00000000
00000000
,
00000000
00002003
00000000
00000000
,
00000000
00003100
00000000
00000100
,
00000000
00010000
00000000
00010000
,
00000000
02000000
00000000
00000000
,
00000000
03200000
00000000
00000000
,
00000000
01300000
00000000
01000000
,
00000000
10000000
00000000
10000000
,
00000000
00010000
00010000
00010000
,
00010000
01000000
01000000
01000000
,
01000000
00001000
00001000
00001000
,
00001000
00020000
00001000
00001000
,
00031000
00000100
00000100
00000100
,
00000100
00000010
00000010
00000010
,
00000010
00001000
00001000
00001000
,
00001000
00000002
00001000
00001000
,
00001003
00001001
00000000
00000000
;

//---------------dance-single - Copied from----------------
#NOTES:
     dance-single:
     Copied from:
     Beginner:
     2:
     0.166,0.161,0.017,0.000,0.000:
0000
0000
0000
0000
,
0000
0000
0000
0000
,
0000
0000
0000
0000
,
0000
0000
0000
0000
,
0000
0000
0000
0000
,
0000
0000
0000
0000
,
0000
1000
0000
0001
,
0000
1000
1000
1000
,
0000
0001
0000
1000
,
0000
0001
0001
0001
,
0000
0100
0000
0001
,
0000
0100
0100
0010
,
0000
1000
0000
0010
,
0000
1000
1000
1000
,
0000
0100
0000
1000
,
0000
0001
0001
0001
,
0000
0100
0000
0001
,
0000
0100
0100
0100
,
0000
0010
0000
0010
,
0000
1000
0000
1000
,
0000
0001
0000
0001
,
0000
0001
0000
0001
,
0000
0001
0001
0001
,
0000
1000
0000
1000
,
0000
0010
0000
0010
,
0000
0010
0000
0010
,
0000
0010
0010
0010
,
0000
0010
0000
1000
,
0000
0100
0000
1000
,
0000
0001
0001
0010
,
0000
0001
0000
0001
,
0000
1000
0000
1000
,
0000
0010
0000
0010
,
0000
1000
1000
1000
,
0000
0100
0000
1000
,
0000
0001
0001
0001
,
0000
0100
0000
0001
,
0000
0010
0000
0100
,
0100
0100
0000
0010
,
0000
0001
0001
0001
,
0000
1000
0000
0100
,
0000
0001
0001
0001
,
0000
0100
0000
1000
,
0000
0010
0000
0100
,
0000
0001
0000
0001
,
0000
1000
0000
1000
,
0000
1000
1000
1000
,
0000
0001
0001
0001
,
0000
1000
1000
1000
,
0000
0001
0001
0001
,
0000
0100
0100
0100
,
0000
0010
0010
0010
,
0000
0100
0100
0100
,
0000
0010
0010
0010
,
0000
1000
0000
1000
,
0000
0001
0000
0001
,
0000
0010
0000
0010
,
0000
0110
0000
0000
,
0000
1000
0000
1000
,
0000
0001
0000
0001
,
0000
1000
0000
1000
,
0000
1001
0000
0000
,
0000
1000
0000
0000
;
