#TITLE:WE ARE;
#SUBTITLE:;
#ARTIST:TERRA;
#TITLETRANSLIT:;
#SUBTITLETRANSLIT:;
#ARTISTTRANSLIT:;
#CREDIT:;
#BANNER:WE ARE-BN.png;
#BACKGROUND:WE ARE-BG.png;
#LYRICSPATH:;
#CDTITLE:;
#MUSIC:21 WE ARE.mp3;
#OFFSET:-0.040;
#SAMPLESTART:43.450;
#SAMPLELENGTH:12.000;
#SELECTABLE:YES;
#BPMS:0.000=140.000;
#STOPS:;
#BGCHANGES:;

//---------------dance-single - ----------------
#NOTES:
     dance-single:
     :
     Easy:
     4:
     0.252,0.278,0.075,0.028,0.000:
0000
0000
0000
0000
,
0000
0000
0000
0000
,
0000
0000
0000
0000
,
0000
0000
0000
0000
,
0000
0000
1000
1000
,
1000
0000
0001
0001
,
0001
0000
0100
0001
,
0000
0100
0001
0100
,
0000
0001
1000
1000
,
1000
1000
1000
1000
,
0001
0010
0100
0010
,
0001
0100
0010
1000
,
0001
0100
0001
0001
,
0001
0001
0001
0001
,
0100
0010
1000
0100
,
1000
0001
1000
0001
,
0100
0001
1000
2100
,
0001
0100
1000
0100
,
0001
0100
1000
0010
,
0001
0010
1000
0100
,
1000
0001
0100
0001
,
2000
3100
1000
0010
,
0200
0301
1000
0100
,
1000
0010
0100
0001
,
1000
0100
1001
0000
,
0000
0000
0001
0001
,
0001
0001
1000
1000
,
1000
1000
0010
0100
,
0010
1000
0100
0010
,
0001
1001
1001
0000
,
0000
1000
0100
1000
,
0010
0100
0001
0001
,
1000
1000
1000
0001
,
1000
0001
0100
0000
,
0000
0000
0100
0000
,
0000
0000
0100
0000
,
0000
0000
0100
0000
,
0010
0000
1000
0000
,
0000
0000
1000
1000
,
1000
1000
0001
0001
,
0001
0001
0100
0100
,
0100
0100
1001
0000
,
0000
0000
0000
1000
,
0000
0000
0000
0001
,
0000
0000
0000
0010
,
0000
0000
0000
0100
,
0000
0000
0010
0010
,
0001
1000
0001
0100
,
0100
0100
0001
0010
,
0100
0010
0001
1000
,
0100
1000
0001
0100
,
0100
0100
0100
0001
,
0010
0100
1000
0001
,
1000
0001
0001
0100
,
0001
0100
0010
1010
,
1000
0100
1000
0001
,
0001
0100
0001
0100
,
0000
0010
0000
1000
,
0100
0010
0001
1001
,
0000
0000
0000
1001
;

//---------------dance-single - ----------------
#NOTES:
     dance-single:
     :
     Medium:
     6:
     0.324,0.390,0.112,0.205,0.014:
0000
0000
0000
0000
,
0000
0000
0000
0000
,
0000
0000
0000
0000
,
0000
0000
0000
0000
,
0000
0000
2000
0010
,
0010
3010
0002
0010
,
0010
0000
0010
0003
1000
0000
0100
0000
,
1000
0000
0001
0000
0100
0100
0100
0000
,
0001
1000
0100
1000
,
0100
0010
0001
1000
,
0001
1000
0100
1000
,
0010
0100
0001
1000
,
0001
1000
0001
1000
0001
0000
0100
0000
,
0001
0010
1000
0010
,
0001
0100
0010
1000
,
0100
0010
0002
1000
,
0100
0000
1003
0000
1000
0100
1000
0000
,
0001
0100
0001
0000
1000
0010
1000
0000
,
0001
0010
0001
0000
1000
0001
1000
0000
,
0100
0010
0100
0000
0010
1000
0010
0000
,
2010
0000
0000
3000
0010
0000
2000
0000
,
3100
0020
0031
0200
,
0301
0200
0310
2000
,
3100
2000
3001
1000
,
0001
1000
1001
0000
,
0000
0000
0000
0000
2000
0100
3100
0000
,
0010
0000
0001
0000
0200
0001
0301
0000
,
0100
0010
2000
3010
,
0200
0301
2000
3100
,
1000
1010
1001
0101
,
0001
0000
0000
0000
0100
0000
0000
0000
0010
0000
0000
0010
0000
0000
0010
0000
,
0100
0001
0100
0001
,
1000
0100
1000
0001
,
1000
0001
2000
0000
,
0000
0000
0000
0000
0000
0000
0000
0000
0020
3000
0000
0000
0000
0000
0000
0000
,
0000
0000
0230
0000
,
0000
0000
0000
0000
0301
0000
0001
0010
,
0000
0010
0100
0000
0020
0000
0000
0000
,
0000
0000
0000
0000
,
0031
1000
0200
1000
,
1000
1000
1000
1000
,
1000
1300
1100
0000
,
0000
0000
0000
0001
,
0000
0000
0000
1000
,
0000
0000
0000
0010
,
0000
0100
0000
0001
,
1000
0001
0101
0011
,
1100
0000
0000
0000
1000
0000
0000
0000
0001
0000
0000
0000
0100
0000
0000
0100
,
0000
0100
0001
0000
0010
0000
0100
0000
,
1000
0100
1000
0020
,
0130
0001
1000
0001
,
0010
0000
0001
0000
0100
0000
0020
1000
,
1030
0000
1000
0000
0100
0000
1000
0010
,
1000
0000
0001
0100
0001
0000
1000
0001
,
1000
0001
0010
0001
,
0011
0000
0000
0000
0001
0000
0000
0000
0100
0000
0000
0000
0001
0000
0000
0001
,
0000
0001
1000
0000
1000
0000
0100
0000
,
1000
0010
0100
0001
,
0010
0100
1000
1001
,
0000
0000
0000
1001
;

//---------------dance-single - Copied from Copied f----------------
#NOTES:
     dance-single:
     Copied from Copied f:
     Hard:
     8:
     0.435,0.473,0.177,0.149,0.079: // measure 1
0000
0000
0000
0000
,  // measure 2
0000
0000
0000
0000
,  // measure 3
0000
0000
0000
0000
,  // measure 4
0000
0000
0000
0000
,  // measure 5
0000
0000
0000
0000
0000
0000
0000
0000
1000
0000
0000
1000
0000
0000
0100
0000
,  // measure 6
2000
0000
0000
0000
0000
0000
0000
0000
3001
0000
0000
0001
0000
0000
0100
0000
,  // measure 7
0002
0000
0103
0100
,  // measure 8
0010
0000
0010
0000
1000
0010
0100
0001
,  // measure 9
1000
0010
1000
0000
0100
0000
1000
0000
,  // measure 10
0001
0010
0100
0000
1000
0000
0010
0000
,  // measure 11
0100
0010
1000
0000
0001
0000
0100
0000
,  // measure 12
0001
1000
0100
0000
1000
0000
0001
0000
,  // measure 13
1000
0100
0010
0001
1000
0000
0100
0000
,  // measure 14
0001
0100
1000
0000
0001
0000
0010
0000
,  // measure 15
0100
0010
0001
0000
1000
0000
0010
0000
,  // measure 16
0001
0010
1000
0000
0100
0010
0001
1000
,  // measure 17
0001
0100
0001
0000
1000
0100
1000
0100
1000
0000
0000
0001
0000
0000
1000
0000
,  // measure 18
0100
0000
0000
0010
0000
0000
0100
0000
1000
0000
0000
0001
0000
0000
0010
0000
,  // measure 19
0001
0000
0100
0000
1000
0000
0100
0000
0001
0000
0000
0010
0000
0000
0001
0000
,  // measure 20
0100
0000
0010
0000
1000
0000
0100
0000
0010
0000
0000
0001
0000
0000
0100
0000
,  // measure 21
0010
0000
1000
0000
0001
1000
0200
0000
,  // measure 22
1300
1000
0001
0000
1000
0001
2000
0000
,  // measure 23
3001
0001
0100
0000
0100
0010
1000
0000
,  // measure 24
0001
1000
0001
0000
0100
0010
1000
0100
,  // measure 25
0010
0001
1000
0000
2002
0000
0000
0000
,  // measure 26
0000
0000
3003
0000
1000
0010
0100
0001
,  // measure 27
0010
0001
1000
0001
0100
0000
1001
0000
,  // measure 28
1000
0100
0010
0000
0001
0100
0010
0000
,  // measure 29
1000
0001
0100
0000
0001
0010
0100
1000
,  // measure 30
0001
0011
1001
0101
,  // measure 31
0010
0000
1000
0000
0100
0000
0001
0000
0100
0000
0000
1000
0000
0000
0010
0000
,  // measure 32
0200
0000
0301
0000
0001
0100
0001
0000
,  // measure 33
1000
0100
1000
0000
0001
0010
0100
1000
,  // measure 34
0010
0100
0001
1000
0002
0000
0100
0000
,  // measure 35
0100
0100
0203
0010
,  // measure 36
0010
0010
0320
1000
,  // measure 37
1000
0000
1000
0000
1030
0000
1000
0001
,  // measure 38
0000
0001
1000
0000
0002
0000
0010
0000
,  // measure 39
0010
0010
0013
0001
,  // measure 40
1000
0001
0010
0001
0200
0000
0010
0000
,  // measure 41
0010
0010
0310
0010
,  // measure 42
1010
0101
2002
0000
,  // measure 43
0000
0000
3003
1010
,  // measure 44
0000
0000
0000
0101
,  // measure 45
0000
0000
0000
1100
,  // measure 46
0000
0011
0000
0001
,  // measure 47
0100
0010
1010
1001
,  // measure 48
0101
0000
0000
0000
1000
0000
0001
0000
0010
0000
0000
0000
0001
0000
0000
0100
,  // measure 49
0000
0010
2000
0000
3100
0000
1000
0100
,  // measure 50
1000
0000
0001
0010
0001
0000
1000
0100
,  // measure 51
0010
0001
0100
0010
1000
0000
0010
1000
,  // measure 52
0100
0001
0100
1000
0010
0100
0001
0000
,  // measure 53
0101
0000
0001
0100
0010
0000
1000
0100
,  // measure 54
0010
0000
0001
0010
0100
0000
1000
0010
,  // measure 55
0001
0010
1000
0000
1001
0000
1010
0000
,  // measure 56
0101
0000
0000
0000
0010
0000
0001
0000
1000
0000
0001
0000
0100
0000
0000
0001
,  // measure 57
0000
1000
0200
0000
1300
0000
0001
0010
,  // measure 58
0001
0000
1000
0100
1000
0000
0001
0100
,  // measure 59
1000
0000
0100
0000
0001
0000
0010
0000
0100
0000
0000
0000
1000
0000
0000
0100
,  // measure 60
0000
0000
0010
0000
0000
0001
0000
0000
1000
0001
1000
0001
1000
0000
0000
0000
;

//---------------dance-single - Copied from----------------
#NOTES:
     dance-single:
     Copied from:
     Beginner:
     1:
     0.129,0.195,0.009,0.000,0.000:
0000
0000
0000
0000
,
0000
0000
0000
0000
,
0000
0000
0000
0000
,
0000
0000
0000
0000
,
0000
0000
1000
0000
,
0000
0000
1000
0000
,
0000
0000
0001
0000
,
0000
0000
0001
0000
,
0000
0000
0100
0100
,
0000
0000
0100
0100
,
0000
0000
0100
0100
,
0000
0000
0100
0100
,
0000
0000
0001
0001
,
0000
0000
0001
0001
,
0000
0000
0001
0001
,
0000
0000
0001
0001
,
0000
0000
0100
0000
,
0100
0000
0010
0000
,
0010
0010
0010
0000
,
1000
0000
1000
1000
,
1000
0000
0001
0000
,
0000
0000
0001
0000
,
0000
0000
1000
0000
,
0000
0000
1000
0000
,
0000
0000
1001
0000
,
0000
0000
1000
1000
,
1000
0000
0010
0000
,
0010
0000
0001
0000
,
0001
0000
0010
0000
,
0010
0000
1000
0000
,
0100
0000
0010
0000
,
0001
0000
0100
0100
,
0100
0000
0001
0000
,
0100
0100
0100
0000
,
0000
0000
0100
0000
,
0000
0000
0100
0000
,
0000
0000
0001
0000
,
0000
0000
0001
0000
,
0000
0000
0000
0000
,
0000
0000
1000
0000
,
0000
0000
0000
0000
,
1000
1000
0000
0000
,
0000
0000
0000
0001
,
0000
0000
0000
0000
,
0000
0000
0000
1000
,
0000
0000
0000
0000
,
0000
0000
0010
0010
,
0000
0000
0100
0100
,
0100
0000
0001
0001
,
0001
0000
1000
1000
,
1000
0000
0000
0100
,
0100
0100
0000
1000
,
0000
1000
0000
0001
,
0000
0001
0000
0100
,
0000
0100
0000
0010
,
0010
0010
0000
1000
,
0000
1000
0000
0001
,
0000
0001
0000
0010
,
0000
0010
0000
0100
,
0000
1000
0000
0100
;
