#TITLE:VOICE;
#SUBTITLE:;
#ARTIST:Perfume;
#TITLETRANSLIT:;
#SUBTITLETRANSLIT:;
#ARTISTTRANSLIT:;
#CREDIT:;
#BANNER:VOICE-BN.png;
#BACKGROUND:;
#LYRICSPATH:;
#CDTITLE:;
#MUSIC:voice.mp3;
#OFFSET:0.525;
#SAMPLESTART:73.480;
#SAMPLELENGTH:12.000;
#SELECTABLE:YES;
#BPMS:0.000=132.000;
#STOPS:;
#BGCHANGES:1.000=voice.avi=1.000=0=0=1,
99999=-nosongbg-=1.000=0=0=0 // don't automatically add -songbackground-
;

//---------------dance-single - Copied from Copied f----------------
#NOTES:
     dance-single:
     Copied from Copied f:
     Hard:
     8:
     0.395,0.499,0.123,0.302,0.029: // measure 1
0000
0000
0000
0000
,  // measure 2
0000
0000
0000
0000
,  // measure 3
0000
0000
0000
0000
,  // measure 4
0000
0000
0000
0000
,  // measure 5
0000
0000
0000
0000
,  // measure 6
0000
0000
0000
0000
,  // measure 7
0000
0000
0000
0000
,  // measure 8
0000
0000
0000
0000
,  // measure 9
0000
0000
0010
0001
0010
0000
0001
0000
1000
0000
0010
0000
1000
0000
0000
0000
,  // measure 10
0010
0000
0000
0010
0100
0000
0001
0000
1000
0000
0100
0000
0000
0000
2000
0000
,  // measure 11
0000
0000
3000
0001
1000
0100
0010
0000
,  // measure 12
0100
0000
1000
0000
0001
0000
1000
0000
0100
0000
1000
0000
0000
0000
0001
1000
,  // measure 13
0002
0000
0003
1000
0010
0100
0001
1000
,  // measure 14
0100
0000
0000
0010
0100
0000
1000
0000
0010
0000
0100
0000
0000
0000
0001
0000
,  // measure 15
2000
0000
3000
0001
1000
0001
0100
0000
,  // measure 16
1010
0000
0000
0010
0100
0000
0001
0000
1000
0000
0100
0000
0000
0000
0010
0100
,  // measure 17
0020
0000
0031
1010
,  // measure 18
0010
0000
0100
0001
1000
0000
0100
0010
,  // measure 19
0001
0100
0010
1000
0001
0000
1000
0100
,  // measure 20
1000
0000
0001
0100
0001
0000
0010
0001
,  // measure 21
1000
0001
1000
0010
0100
0000
1001
0000
,  // measure 22
0001
0000
0010
0001
1000
0000
0001
0100
,  // measure 23
0010
1000
0100
1000
0010
0000
0100
0010
,  // measure 24
0100
0000
0001
1000
0001
0000
0001
1000
,  // measure 25
0100
0001
0100
1000
0010
0000
0101
0000
,  // measure 26
0010
0000
1000
0001
0100
0000
0010
1000
,  // measure 27
0001
1000
0010
0100
0001
0000
1000
0100
,  // measure 28
1000
0000
0001
0010
0001
0000
1000
0100
,  // measure 29
0010
0001
0001
0100
0010
0000
0101
0000
,  // measure 30
0010
0000
0010
1000
0100
0000
1000
0001
,  // measure 31
0100
1000
0100
0001
0010
0000
0001
1000
,  // measure 32
0001
0000
0010
0001
0010
0000
0001
1000
,  // measure 33
0010
0000
0100
0010
0100
0000
0001
0000
0010
0000
0100
0000
2000
0000
0000
0000
,  // measure 34
0000
0000
3100
0020
,  // measure 35
0000
0230
0000
0310
,  // measure 36
0001
1000
0010
0200
,  // measure 37
0000
0000
0300
0002
,  // measure 38
0000
0000
0103
0020
,  // measure 39
0000
1030
0000
1000
,  // measure 40
0100
0010
0001
2002
,  // measure 41
0000
0000
3003
2000
,  // measure 42
3010
0100
0002
0000
0103
0010
1000
0100
,  // measure 43
1000
0001
1000
0000
1001
0000
0001
0010
,  // measure 44
0001
1000
0200
0000
1300
0000
0010
0100
,  // measure 45
0001
0200
0000
0310
1000
0001
0100
0000
,  // measure 46
0001
0010
0200
0000
1300
0000
1000
0010
,  // measure 47
0001
0010
2000
0000
3100
0000
2010
0000
,  // measure 48
3010
0100
0102
0000
1003
0100
2100
0000
,  // measure 49
3001
0000
0010
0010
0010
0001
2000
0000
,  // measure 50
3100
1000
0020
0000
0130
0000
0001
0100
,  // measure 51
0010
1000
0100
0000
1001
0000
0001
1000
,  // measure 52
0100
1000
0002
0000
0013
0000
0001
1000
,  // measure 53
0001
0020
0000
0130
1000
0001
0100
0000
,  // measure 54
0010
1000
0002
0000
1003
0000
0001
0100
,  // measure 55
1000
0100
0001
0000
0010
0000
0201
0000
,  // measure 56
0310
1000
2010
0000
3100
0010
0012
0000
,  // measure 57
1003
0000
0001
1000
0001
0000
2000
0000
,  // measure 58
0000
0000
3100
0020
,  // measure 59
0000
0230
0000
0310
,  // measure 60
0001
1000
0100
2000
,  // measure 61
0000
0000
3000
0002
,  // measure 62
0000
0000
0103
0020
,  // measure 63
0000
1030
0000
0001
,  // measure 64
0010
0100
1000
2002
,  // measure 65
0000
3003
0000
0000
;

//---------------dance-single - ----------------
#NOTES:
     dance-single:
     :
     Medium:
     6:
     0.311,0.365,0.025,0.245,0.000:
0000
0000
0000
0000
,
0000
0000
0000
0000
,
0000
0000
0000
0000
,
0000
0000
0000
0000
,
0000
0000
0000
0000
,
0000
0000
0000
0000
,
0000
0000
0000
0000
,
0000
0000
0000
0000
,
0000
1000
0100
1000
,
0010
0000
0100
0100
0100
0000
0001
0000
,
0010
0000
0001
0001
0001
0000
2000
0000
,
3100
0000
1000
1000
1000
0000
0010
0000
,
0100
0000
0001
0000
1000
0100
0010
0001
,
2000
3100
1000
0010
,
0100
0000
0001
0000
1000
0100
2000
0000
,
3001
0000
0100
0000
0001
0000
0010
0010
,
0001
1000
0100
2000
,
0010
0000
0100
0000
0010
0000
3100
1000
,
0100
0000
1000
0001
1000
0000
0001
0000
,
0100
0000
0001
0000
0010
0000
0100
0010
,
0001
0000
0100
0001
0100
0000
0020
0000
,
1000
0000
0100
0000
1030
0000
1000
0100
,
1000
0000
0001
0010
0100
0000
0010
0000
,
0001
0000
0100
0000
0010
0000
1000
0100
,
1000
0000
0001
0100
0001
0000
0020
0000
,
0001
0000
0100
0000
0031
0000
0100
1000
,
0001
0000
0100
0001
0100
0000
0010
0000
,
1000
0000
0100
0000
1000
0000
0001
0010
,
0001
0000
0100
0001
0100
0000
0020
0000
,
1000
0000
0100
0000
1030
0000
0001
1000
,
0001
0000
1000
0100
0010
0000
0001
0000
,
0100
0001
0010
0100
,
1000
0000
0001
0010
0100
1000
0002
0000
,
0000
0000
1003
2000
,
0000
3010
0000
0010
,
0010
0010
1000
0002
,
0000
0000
0003
1000
,
0000
0000
0100
0020
,
0000
0031
0000
0001
,
0100
0010
1000
2002
,
0000
0000
3003
2000
,
3001
0100
0002
0000
1003
0100
2000
0000
,
3010
2020
0000
3030
,
1000
0000
0100
0000
1000
0000
0001
0100
,
0001
1000
0100
0010
,
0001
0010
0200
0000
0310
0000
0001
1000
,
0001
1000
0200
0000
1300
0000
0020
0000
,
0130
0002
1003
0200
,
1300
0000
0010
0010
0010
0000
0100
0000
,
0001
0100
0002
0000
1003
0000
0100
1000
,
0010
0100
0002
0000
0000
0000
0003
0000
,
1000
0000
0100
0000
1000
0000
0001
0100
,
0001
0100
0000
0100
0010
0000
1000
0000
,
0100
1000
0100
0000
0010
0000
0001
1000
,
0001
1000
0001
0000
1000
0000
0002
0000
,
0100
0203
0010
0320
,
1000
0000
1030
1000
1000
0000
0001
0000
,
0000
0000
0100
0001
,
0000
0020
0000
0130
,
1000
0100
1000
0002
,
0000
0000
0003
1000
,
0000
0000
1000
0010
,
0000
0010
0000
0010
,
0100
0001
1000
1001
;

//---------------dance-single - ----------------
#NOTES:
     dance-single:
     :
     Easy:
     3:
     0.218,0.261,0.041,0.155,0.000:
0000
0000
0000
0000
,
0000
0000
0000
0000
,
0000
0000
0000
0000
,
0000
0000
0000
0000
,
0000
0000
0000
0000
,
0000
0000
0000
0000
,
0000
0000
0000
0000
,
0000
0000
0000
0000
,
0000
0000
0000
1000
,
0010
1000
1000
1000
,
0001
0010
0001
0001
,
0001
0100
0001
0100
,
0010
1000
0100
0010
,
0001
1000
0100
1000
,
0002
0000
1003
0100
,
1000
0001
0100
0010
,
2000
0000
3000
0100
,
1000
0001
1000
0100
,
1000
0020
0000
0130
,
0001
0100
0001
1000
,
0100
0100
1000
0010
,
0100
0001
1000
0100
,
1000
0002
0000
1003
,
0100
1000
0010
0100
,
0100
0001
0010
0001
,
0100
1000
0100
0001
,
0010
0200
0000
0310
,
0001
1000
0100
1000
,
1000
0001
0100
0001
,
0010
1000
0010
0001
,
0100
0020
0000
1030
,
0100
1000
0001
0100
,
0010
1000
0100
2000
,
0000
0000
0000
3002
,
0000
0000
0000
0203
,
0000
0000
0000
0320
,
0000
0000
0000
2030
,
0000
0000
0000
3200
,
0000
0000
0000
0310
,
0010
0010
0010
0010
,
0000
0000
0000
0001
,
0100
0001
0001
1000
,
0100
1000
1001
0000
,
1000
1000
1000
0000
,
0001
0001
0001
0000
,
0001
0100
0010
1000
,
0100
1000
0100
1100
,
0000
0101
0000
1001
,
1000
0001
1000
0000
,
0001
0100
0001
0100
,
0010
1000
1010
0000
,
0010
0010
0010
0000
,
1000
1000
1000
0000
,
0001
0001
0001
0000
,
0100
0001
0100
0010
,
1000
0100
1000
0001
,
1000
0100
1000
0001
,
0002
0000
0000
0203
,
0000
0000
0000
0302
,
0000
0000
0000
0023
,
0000
0000
0000
2030
,
0000
0000
0000
3020
,
0000
0000
0000
0032
,
0000
0000
0000
1003
;

//---------------dance-single - Copied from----------------
#NOTES:
     dance-single:
     Copied from:
     Beginner:
     1:
     0.127,0.182,0.016,0.000,0.000:
0000
0000
0000
0000
,
0000
0000
0000
0000
,
0000
0000
0000
0000
,
0000
0000
0000
0000
,
0000
0000
0000
0000
,
0000
0000
0000
0000
,
0000
0000
0000
0000
,
0000
0000
0000
0000
,
0000
0000
0000
1000
,
0000
1000
0000
0010
,
0000
0010
0000
0001
,
0000
0001
0000
0010
,
0000
0010
0000
1000
,
1000
1000
0000
0100
,
0100
0100
0000
1000
,
0000
0001
0000
0100
,
0100
0100
0000
0001
,
0000
0001
0000
0010
,
0010
0010
0010
0001
,
0000
0001
0000
1000
,
1000
1000
0000
0100
,
0000
1000
0000
0010
,
0000
0100
0100
0100
,
0000
0001
0000
0010
,
0010
0010
0001
1000
,
0000
0100
0000
1000
,
0000
0010
0000
0001
,
0000
0010
0000
1000
,
1000
1000
0000
0001
,
0000
0100
0000
0001
,
0000
0010
0000
0001
,
0000
0100
0000
0010
,
0010
0010
0000
1000
,
0000
0000
0000
0000
,
0000
0000
0000
0001
,
0000
0000
0000
0000
,
0000
0000
0000
0001
,
0000
0000
0000
0000
,
0000
0000
0000
1000
,
0000
0000
0000
1001
,
0000
0000
0000
0001
,
0001
0001
0000
0010
,
0010
0010
0000
0001
,
0000
0001
0000
0010
,
0000
0010
0000
1000
,
0000
1000
0000
0010
,
0000
0010
0000
0001
,
0000
0100
0000
0010
,
0000
1000
0000
0000
,
0001
0001
1000
0000
,
1000
0000
0001
0000
,
0010
0000
0001
0000
,
0100
0000
0001
0000
,
1000
0000
0100
0000
,
1000
0000
0001
0000
,
0100
0000
0100
0000
,
0001
0000
0001
1000
,
0000
0000
0000
0001
,
0000
0000
0000
0010
,
0000
0000
0000
0001
,
0000
0000
0000
1000
,
0000
0000
0000
0100
,
0000
0000
0000
1000
,
0000
0000
0000
1001
;
