#TITLE:The Zoo Zone;
#SUBTITLE:;
#ARTIST:Mystic Moon;
#TITLETRANSLIT:;
#SUBTITLETRANSLIT:;
#ARTISTTRANSLIT:;
#CREDIT:;
#BANNER:THE ZOO ZONE-BN.png;
#BACKGROUND:the zoo zone-bg.png;
#LYRICSPATH:;
#CDTITLE:;
#MUSIC:04 - Mystic Moon - The Zoo Zone.mp3;
#OFFSET:0.085;
#SAMPLESTART:14.500;
#SAMPLELENGTH:12.000;
#SELECTABLE:YES;
#BPMS:0.000=160.000;
#STOPS:;
#BGCHANGES:;

//---------------dance-single - Copied from Copied f----------------
#NOTES:
     dance-single:
     Copied from Copied f:
     Hard:
     9:
     0.560,0.596,0.213,0.065,0.241:
0000
0000
0000
0000
,
0000
0000
0000
0000
,
0000
0000
0000
0000
,
0000
0000
0000
0000
,
0000
0000
0000
2000
,
0001
0010
3100
0100
,
1000
0000
0010
0000
0100
0000
0001
0010
,
1000
0010
0001
0100
1000
0100
0001
0010
,
0100
1000
0100
0010
0001
1000
0001
0000
,
0000
0000
0000
0000
0000
0000
0001
1000
,
0010
0100
0010
0000
0100
0000
0000
0001
0000
0000
1000
0000
0000
0000
0100
0000
,
1000
0001
0000
1000
0001
0000
0100
0000
0010
0000
1000
0000
0000
0000
0100
0000
,
1000
0100
0000
1000
0100
0000
1000
0000
0001
0000
0010
0000
0000
0000
0001
0000
,
0100
0001
0000
0100
0001
0000
0010
0100
0010
0100
0010
0000
0000
0000
0001
0000
,
1000
0100
1000
0000
0001
0000
0000
0100
0000
0000
0010
0000
0000
0000
1000
0000
,
0001
0100
0000
0001
0100
0000
0001
0000
0010
0000
1000
0000
0000
0000
0010
0000
,
0001
1000
0000
0001
1000
0000
0001
0000
0100
0000
0010
0000
0000
0000
1000
0000
,
0010
1000
0000
0010
1000
0000
0010
0000
0100
0000
0000
0000
0101
0000
0000
0000
,
1001
0000
0001
0100
1000
0100
0000
0010
,
1000
0100
0000
1000
0100
0000
1000
0000
0010
0000
0100
0000
0000
0000
0001
0000
,
0100
0010
0000
0100
0010
0000
1000
0000
0001
0000
0010
0000
0000
0000
0010
0000
,
0001
1000
0000
0001
1000
0000
0001
0000
0100
0000
0000
0000
1100
0000
0000
0000
,
1001
0000
0001
0010
1000
0010
0000
0001
,
1000
0100
0000
1000
0100
0000
0010
0000
0100
0000
1000
0000
0000
0000
0001
0000
,
0100
0001
0000
0100
0001
0000
1000
0000
0100
0000
0110
0000
0000
0000
1001
0000
,
0000
1010
0000
0101
0000
0001
0100
0010
,
1000
0100
0001
0100
1000
0010
0000
0100
,
0001
0100
0010
1000
0100
1000
0000
1000
,
0001
1000
0010
0100
0001
0100
0000
0100
,
0001
1000
0010
1000
0100
0010
0000
0001
,
0100
0001
1000
0010
0001
0010
0000
0010
,
1000
0100
0010
0001
1000
0100
0000
0100
,
1000
0001
0100
0010
1000
0010
0000
0010
,
0100
0001
1000
0100
0010
0001
2000
0000
,
0000
0000
0000
0000
,
3000
0000
0000
0000
,
0002
0000
0000
0003
,
0000
0000
0000
1001
,
0001
0100
0001
1000
,
0100
1000
0010
0100
,
0001
1000
0100
0010
,
0001
0000
2002
0000
0000
3003
0000
0000
,
1000
0000
0001
0000
1000
0000
0001
0000
0000
0010
0000
0000
0100
0000
0000
1000
0000
0000
0000
0000
0000
0001
0000
0000
,
0100
0000
0010
0000
0100
0000
0010
0000
0000
1000
0000
0000
0001
0000
0000
0100
0000
0000
0000
0000
0000
0001
0000
0000
,
0010
0000
0001
0000
0010
0000
0001
0000
0000
0100
0000
0000
0010
0000
0000
1000
0000
0000
0000
0000
0000
0001
0000
0000
,
1000
0000
0100
0000
1000
0000
0100
0000
0000
1000
0000
0000
0001
0000
0000
0100
0000
0000
0000
0000
0000
0001
0000
0000
,
0010
0000
0001
0100
0000
0100
1000
0000
,
1000
0010
0000
0010
0001
0100
0001
1000
,
0100
1000
0001
0100
1000
0100
0001
0010
,
1000
0010
0001
0100
0010
1000
2002
0000
,
0000
0000
0000
0000
,
0000
0000
0000
0000
3003
0000
0001
0100
0001
0100
0001
0000
1000
0000
0100
0000
,
1000
0001
1000
0000
0001
0000
0000
0100
0000
0000
0010
0000
0000
0000
1000
0000
,
0001
0000
0010
0000
0001
0000
0000
1001
0000
0000
0001
0000
1000
0000
0100
0000
,
0001
0100
1000
0010
0001
0010
1000
0001
,
1000
0000
0001
0000
0100
0000
0010
0100
0010
0100
0010
0000
0000
0000
1000
0000
,
0001
0010
0001
0000
1000
0000
0000
0001
0000
0000
0100
0000
0000
0000
0001
0000
,
1000
0000
0100
0000
0010
0000
0000
0011
0000
0000
0100
0000
0001
0000
0010
0000
,
1000
0010
0001
0100
1000
1100
0000
0101
,
0000
1001
0000
0001
1000
0000
1000
0001
,
0010
0000
0001
0000
1000
0000
0000
1001
0000
0000
0001
0000
0000
0000
0100
0000
,
0010
0000
1000
0000
0001
0000
0000
0011
0000
0000
0001
0000
0000
0000
1000
0000
,
0010
0000
0100
0000
0001
0000
0000
0101
0000
0000
0001
0000
0000
0000
1000
0000
,
0100
0001
0100
1000
0010
0100
0001
0010
,
1000
0000
0010
0000
0011
0000
0000
1001
0000
0000
0001
0000
0000
0000
1000
0000
,
0100
0000
1000
0000
0010
0000
0000
0110
0000
0000
0010
0000
0000
0000
1000
0000
,
0001
0000
0010
0000
0100
0000
0000
1010
0000
0000
0001
0000
1000
0000
0100
0000
,
0001
0100
1000
0010
0001
0010
1000
0000
;

//---------------dance-single - ----------------
#NOTES:
     dance-single:
     :
     Medium:
     7:
     0.409,0.471,0.158,0.009,0.093:
0000
0000
0000
0000
,
0000
0000
0000
0000
,
0000
0000
0000
0000
,
0000
0000
0000
0000
,
0000
0000
0000
0000
,
0000
0000
0000
0000
,
0000
0000
0000
0000
,
0000
0000
0000
0000
,
0000
0000
0000
0000
,
0000
0000
0000
1000
,
0100
0000
0000
0000
1000
0000
0000
1000
0000
0000
1000
0000
0000
0000
0000
0000
,
0110
0000
0100
0001
0100
0010
0000
0000
,
1010
0000
1000
0100
1000
0001
0000
0000
,
0101
0000
0001
0100
0001
0010
0000
0000
,
0001
0000
0000
0000
0100
0000
0000
0100
0000
0000
0100
0000
0000
0000
0000
0000
,
1010
0000
0010
1000
0100
1000
0000
0000
,
1001
0000
0001
1000
0001
0100
0000
0000
,
0110
0000
0010
1000
0010
0000
0110
0000
,
1010
0000
1000
0001
1000
0001
0000
0001
,
0100
0000
0010
1000
0100
1000
0000
1000
,
0001
0000
0001
0100
0010
0100
0000
0010
,
1000
0000
1000
0100
0010
0000
0011
0000
,
0101
0000
0001
1000
0001
1000
0000
1000
,
0100
0000
0100
1000
0010
0100
0000
0100
,
0001
0000
0001
0100
0010
1000
0000
1000
,
0000
1000
0000
1000
0001
0000
0100
0001
,
0100
1000
0010
0100
0001
0100
0000
0001
,
0100
0010
1000
0100
0001
0100
0000
0100
,
1000
0010
0100
0001
0010
1000
0000
0010
,
0001
0100
0100
0010
1000
0100
0000
0100
,
1000
0001
0100
0010
1000
0100
0000
0100
,
1000
0010
0100
0001
0010
1000
0000
1000
,
0010
0001
0100
0010
1000
0100
0000
0100
,
1000
0000
0001
1000
0001
1000
0001
0000
,
0000
0000
0000
0000
,
0000
0000
0000
0000
,
0000
0000
0000
0000
,
0000
0000
0000
1001
,
1000
0001
1000
0001
,
1000
0001
1000
0010
,
0100
0010
0100
0010
,
0100
1001
0000
0000
,
1000
0100
1000
0100
0000
0000
0000
0000
0000
0000
0000
0000
,
0001
0100
0001
0100
0000
0000
0000
0000
0000
0000
0000
0000
,
0010
0100
0010
0100
0000
0000
0000
0000
0000
0000
0000
0000
,
0001
0000
1000
0000
0001
0000
1000
0000
0000
0000
0000
0000
0001
0000
0000
0100
0000
0000
0000
0000
0000
0010
0000
0000
,
1000
0000
0100
0010
0000
0001
0100
0000
,
0010
1000
0000
0100
0010
0000
0001
0100
,
0010
1000
0100
0010
0001
1000
0001
0100
,
0010
1000
0100
0010
0001
1000
0002
0000
,
0000
0000
0000
0000
,
0000
0000
1003
0000
0000
0000
0001
0100
,
0010
0000
0000
0000
1000
0000
0000
0100
0000
0000
1000
0000
0000
0000
0001
0000
,
0100
0000
0010
0000
1000
0000
0000
1000
0000
0000
0100
0000
0010
0000
0000
0000
,
0001
0100
0010
1000
,
0100
0010
0001
0100
,
0010
0000
0000
0000
1000
0000
0000
0100
0000
0000
0010
0000
0000
0000
0001
0000
,
0100
0000
0010
0000
1000
0000
0000
0100
0000
0000
1000
0000
0001
0000
0000
0000
,
0001
0000
0100
0000
0010
1010
0000
1001
,
0000
1100
0000
1001
0000
0000
0001
0100
,
1000
0000
0100
0000
0001
0000
0000
0001
0000
0000
0010
0000
0000
0000
0010
0000
,
1000
0000
0010
0000
0001
0000
0000
0001
0000
0000
0100
0000
0000
0000
0010
0000
,
1000
0000
0100
0000
1000
0000
0000
1000
0000
0000
0001
0000
0000
0000
0001
0000
,
0100
0010
1000
0100
0010
0001
1000
0000
,
1000
0000
0000
0000
0001
0000
0000
0001
0000
0000
0001
0000
0000
0000
0001
0000
,
0100
0000
0010
0000
1000
0000
0000
1000
0000
0000
1000
0000
0000
0000
0100
0000
,
1000
0000
0001
0000
1000
0000
0000
0001
0000
0000
0100
0000
0000
0000
0001
0000
,
0100
0010
1000
0100
0010
0001
1001
0000
;

//---------------dance-single - ----------------
#NOTES:
     dance-single:
     :
     Easy:
     5:
     0.340,0.345,0.083,0.056,0.000:
0000
0000
0000
0000
,
0000
0000
0000
0000
,
0000
0000
0000
0000
,
0000
0000
0000
0000
,
0000
0000
0000
1000
,
1000
0001
0001
1000
,
1000
0001
0001
0100
,
0010
1000
0100
0010
,
0001
1000
0001
1001
,
0000
0000
0000
0001
,
0100
0010
1000
0100
,
0100
1000
0010
0100
,
0100
0001
0010
0100
,
1000
0001
0100
0010
,
1000
0100
0001
0100
,
1000
0010
0010
0100
,
0001
1000
1000
0100
,
0010
0001
0100
0110
,
0110
0010
1000
0100
,
0010
0001
1000
0001
,
0100
0010
1000
0100
,
0001
0100
1000
0110
,
0110
0001
0100
0010
,
1000
0100
1000
0001
,
0100
0000
0010
0000
1000
0100
0000
0100
,
0000
0100
0000
0100
0010
0000
0001
0000
,
0100
0000
0010
0000
1000
0100
0000
0000
,
0100
0000
1000
0000
0010
0100
0000
0000
,
0100
0000
0001
0000
0010
0100
0000
0000
,
0100
0000
1000
0000
0010
0100
0000
0100
,
0001
0000
0001
0000
1000
0100
0000
0100
,
1000
0000
0010
0000
0100
0001
0000
0001
,
1000
0100
0010
0001
,
0100
0010
1000
2002
,
0000
0000
0000
0000
,
3003
0000
0000
0000
,
0002
0003
0000
2000
,
3000
0000
0000
0001
,
0001
0001
0001
1000
,
1000
1000
1000
0100
,
0010
0001
0100
0010
,
1000
2002
0000
3003
,
0001
0000
0100
0000
0010
1000
0000
1000
,
0100
0000
0010
0000
0001
0100
0000
0100
,
0001
0000
0100
0000
0010
1000
0000
1000
,
0100
0000
0010
0000
0001
0100
0000
0100
,
0010
0000
0100
0001
0000
0001
0100
0000
,
0010
1000
0000
1000
0100
0000
0010
0000
,
0001
1000
0100
0010
,
0001
0000
1000
0001
1000
0000
1001
0000
,
0000
0000
0000
0000
,
0000
0000
0000
0001
,
0100
0001
0100
0010
,
0010
1000
0100
1000
,
1000
0001
0100
0010
,
1000
0100
0010
0001
,
0100
0010
1000
0100
,
0100
1000
0001
0100
,
0100
0000
0100
0000
0100
0001
0000
0001
,
0000
0001
0000
0001
1000
0000
0100
0000
,
1000
0001
0100
0010
,
1000
1000
0100
0010
,
0001
0001
0100
0010
,
1000
0000
0100
0000
0010
0001
1000
0000
,
1000
1000
0100
0010
,
0001
0100
0010
1000
,
0100
0010
0001
0100
,
0010
0000
1000
0100
0010
0000
1001
0000
;

//---------------dance-single - Copied from----------------
#NOTES:
     dance-single:
     Copied from:
     Beginner:
     2:
     0.171,0.251,0.028,0.000,0.000:
0000
0000
0000
0000
,
0000
0000
0000
0000
,
0000
0000
0000
0000
,
0000
0000
0000
0000
,
0000
0000
1000
0000
,
1000
0000
1000
0000
,
1000
0000
0001
0000
,
0001
0000
0001
0000
,
0001
0000
0000
0000
,
0000
0000
0000
0000
,
0001
0001
0001
0000
,
0100
0000
0100
0000
,
0100
0000
0100
0000
,
0010
0000
0010
0000
,
1000
1000
1000
0000
,
0100
0000
0100
0000
,
0100
0000
1000
0000
,
1000
0000
0001
0001
,
0001
0100
0010
0000
,
1000
1000
1000
0000
,
0100
0100
0100
0000
,
0010
0010
0010
0000
,
0001
0000
0001
0000
,
0100
0100
0100
0000
,
0010
0010
0010
0000
,
0000
0000
0000
1000
,
0100
1000
0000
0000
,
0001
0100
0001
0000
,
0100
0010
0100
0000
,
0001
1000
0001
0000
,
1000
0100
1000
0000
,
0001
0100
0001
0000
,
0100
0010
0100
0000
,
0001
1000
0001
1001
,
0000
0000
0000
0000
,
0000
0000
0000
0000
,
0000
0000
0000
0000
,
0000
0000
0000
0000
,
0000
0000
0000
0000
,
0000
0000
0000
0000
,
0000
0000
0000
0000
,
0000
1001
0000
0000
,
0000
0001
0001
0000
,
0000
1000
1000
0000
,
0000
0010
0010
0000
,
0100
0100
0000
0001
,
0000
1000
0000
0100
,
0000
0010
0000
0001
,
0001
0000
1000
1000
,
0000
0001
0001
1001
,
0000
0000
0000
0000
,
0000
0000
0000
0000
,
0001
0001
0001
0000
,
0100
0000
0100
0000
,
0010
0000
0010
0000
,
1000
0000
1000
0000
,
0001
0001
0001
0000
,
1000
0000
1000
0000
,
0100
0000
0100
0000
,
0000
0000
0000
0010
,
0010
0010
0000
0000
,
0000
0000
0000
0001
,
0001
0001
0000
0000
,
0000
0000
0000
0100
,
0100
0100
0000
0000
,
0010
0010
0010
0000
,
1000
0001
0000
0000
,
1000
0001
0100
0010
;
