#TITLE:The Smile of You;
#SUBTITLE:;
#ARTIST:Nekomata Master Feat. Jessy;
#TITLETRANSLIT:;
#SUBTITLETRANSLIT:;
#ARTISTTRANSLIT:;
#CREDIT:;
#BANNER:The Smile of You (English Version).png;
#BACKGROUND:The Smile of You (English Version)-bg.png;
#LYRICSPATH:The Smile of You.lrc;
#CDTITLE:;
#MUSIC:The Smile of You (English Version).mp3;
#OFFSET:-0.450;
#SAMPLESTART:98.937;
#SAMPLELENGTH:12.000;
#SELECTABLE:YES;
#BPMS:0.000=136.000;
#STOPS:;
#BGCHANGES:0.000=The Smile of You.avi=1.000=1=0=1,
99999=-nosongbg-=1.000=0=0=0 // don't automatically add -songbackground-
;

//---------------dance-single - Blank----------------
#NOTES:
     dance-single:
     Blank:
     Hard:
     6:
     0.404,0.472,0.211,0.313,0.004: // measure 1
0000
0000
0000
0000
,  // measure 2
0000
0000
0000
0000
,  // measure 3
0000
0000
0000
0000
,  // measure 4
0000
0000
0000
0000
,  // measure 5
0000
0000
0000
0000
,  // measure 6
0000
0000
0000
0000
,  // measure 7
0000
0000
0000
0000
,  // measure 8
0000
0000
0000
0000
,  // measure 9
1000
0010
0200
0000
,  // measure 10
0301
0010
0200
0000
,  // measure 11
1300
0001
0020
0000
,  // measure 12
0031
0100
0020
0000
,  // measure 13
1030
0000
0000
0000
0100
0000
0000
0000
2000
0000
0000
0000
0000
0000
3001
1000
,  // measure 14
0001
1000
0010
0100
0000
0001
2000
0000
,  // measure 15
0000
0000
0000
0000
0000
0000
3001
0010
,  // measure 16
0100
1000
0001
1000
0001
0000
1001
0000
,  // measure 17
1000
1000
0001
0001
,  // measure 18
0100
0100
0001
0001
,  // measure 19
0010
0010
0100
0100
,  // measure 20
1000
0100
0001
0100
2000
0000
3010
0000
,  // measure 21
0100
0001
1000
0001
,  // measure 22
2010
3010
0102
0103
,  // measure 23
1000
0100
1000
0000
0020
0000
0130
0000
,  // measure 24
0001
0100
0001
0000
2000
0000
3001
0000
,  // measure 25
0010
0100
0010
0000
0200
0000
1300
0010
,  // measure 26
1000
0001
1000
0010
0100
0001
0010
0100
,  // measure 27
2000
3010
0100
0001
,  // measure 28
0021
0031
2100
3100
,  // measure 29
1000
0001
0100
0000
0010
0000
1000
0000
,  // measure 30
0001
0010
0100
0000
1000
0000
0001
0000
,  // measure 31
0020
0000
0001
0000
0031
0000
1000
0010
,  // measure 32
0100
0001
1000
0010
,  // measure 33
1000
0100
1000
0100
1000
0000
0001
0000
,  // measure 34
0001
0100
0001
0100
0001
0000
1000
0000
,  // measure 35
0001
0000
0100
0000
0001
1000
0001
1000
,  // measure 36
0000
1000
0100
1000
0000
0001
0100
0001
,  // measure 37
0100
0010
0100
0010
2000
0000
3100
0000
,  // measure 38
1000
0100
1000
0100
0020
0000
0031
0000
,  // measure 39
1000
0000
0001
0000
0010
0001
0100
0000
,  // measure 40
0010
1000
0010
0100
0010
0000
1010
0000
,  // measure 41
1000
0100
1000
0002
0000
0000
0103
0000
,  // measure 42
0012
0013
2100
3100
,  // measure 43
1000
0010
0100
0001
2000
0000
3001
0000
,  // measure 44
0001
0010
0001
1000
0002
0000
0103
0000
,  // measure 45
0010
1000
0010
2000
0000
0000
3001
0010
,  // measure 46
0100
1000
0010
0100
0001
0010
0001
1000
,  // measure 47
0002
0100
0103
0010
,  // measure 48
2010
3100
0201
0301
,  // measure 49
1010
0100
0010
0000
,  // measure 50
1100
0100
0010
0001
,  // measure 51
1000
0010
0100
0020
0000
0030
0100
0010
,  // measure 52
1000
0101
1000
0010
,  // measure 53
0120
1000
0130
0001
,  // measure 54
0210
0000
0001
0000
0310
0000
0001
1000
,  // measure 55
0000
1000
0100
0010
0000
0001
0010
0100
,  // measure 56
0000
1000
0100
0010
0001
0010
0100
1000
,  // measure 57
0001
0000
1100
0000
2002
0000
3003
0001
,  // measure 58
1000
0100
1000
0010
0100
0001
0100
0000
,  // measure 59
0101
1001
0220
0330
,  // measure 60
1000
0100
0001
0100
1000
0000
0100
0000
,  // measure 61
2000
0100
0001
3100
,  // measure 62
0002
0010
1000
0013
,  // measure 63
0200
1000
0001
0310
,  // measure 64
0100
0100
1010
1001
,  // measure 65
0011
0000
1100
0000
2002
0000
3003
1000
,  // measure 66
0010
0100
0001
1000
0001
1000
0010
0000
,  // measure 67
1001
1100
2020
3030
,  // measure 68
0001
0100
1000
0100
0001
0000
1001
0000
,  // measure 69
2000
0010
0001
3010
,  // measure 70
0002
0100
1000
0103
,  // measure 71
0010
1000
0100
1000
0000
0001
0100
0001
,  // measure 72
0000
0001
0010
0100
1000
0100
0010
0001
,  // measure 73
0100
0000
0000
0000
;

//---------------dance-single - Blank----------------
#NOTES:
     dance-single:
     Blank:
     Medium:
     4:
     0.260,0.315,0.109,0.291,0.000:
0000
0000
0000
0000
,
0000
0000
0000
0000
,
0000
0000
0000
0000
,
0000
0000
0000
0000
,
0000
0000
0000
0000
,
0000
0000
0000
0000
,
0000
0000
0000
0000
,
0000
0000
0000
0000
,
0001
0010
1001
0000
,
1000
0100
0110
0000
,
0001
0100
0110
0000
,
1010
0000
1001
0000
,
1000
1000
1000
0000
,
0001
0000
0010
0000
,
0200
0000
0000
0000
,
0310
0010
0010
0010
,
2002
0000
0000
3003
,
1000
0001
0100
0000
,
0001
0010
0100
0000
,
2000
0000
3002
0000
,
0103
0100
0010
0010
,
0200
0000
0320
0000
,
1030
0100
0010
0001
,
0001
0010
0100
1000
,
2001
0000
3100
0000
,
0010
0000
0010
0000
0010
0000
0010
0010
,
0200
0000
0000
0310
,
2000
3100
0002
0103
,
0001
1000
0001
0000
0100
0000
0010
0000
,
1000
1000
0001
0001
,
0020
0000
0000
0000
0130
0000
0010
1000
,
0010
0100
0001
1000
,
0002
0000
0000
1003
,
0100
1000
0100
0001
,
0100
0000
0001
0000
0100
0010
0100
0020
,
0000
0000
0000
0030
,
1001
1000
1000
0001
,
0001
1000
1000
0001
,
0002
0000
0103
0000
,
0200
0000
0310
0000
,
1000
0100
0010
0001
,
2000
3100
0002
0103
,
2001
0000
3100
0010
,
0002
0000
1003
0100
,
0010
0100
0010
0000
1000
0000
0100
0000
,
0010
0000
0001
0000
0010
0000
1000
0100
,
0020
0030
0020
0031
,
0200
0310
0200
0310
,
0010
0100
0110
0000
,
1000
0001
1000
0001
,
2002
0000
3003
0100
,
0010
0001
0010
0100
,
2000
0000
0000
3001
,
0020
0000
0000
0000
0230
0000
0000
0320
,
0000
0000
0000
0000
,
0030
0000
0000
0000
,
0001
1000
0002
0000
,
0103
0100
0010
0010
,
0100
0001
0200
0000
,
1300
0100
0001
0010
,
0210
0000
0000
0000
,
0302
0000
2003
0000
,
3200
0000
0000
0310
,
0010
0010
0110
0110
,
1000
0100
0020
0000
,
0130
1000
0100
0010
,
0001
0010
0200
0000
,
0310
0001
0100
1000
,
2001
0000
0010
0000
,
0100
0000
0010
0000
,
3200
0000
0000
0000
,
0000
0000
0310
0000
0001
0100
1000
0100
,
0001
0000
0000
0000
;

//---------------dance-single - Blank----------------
#NOTES:
     dance-single:
     Blank:
     Easy:
     2:
     0.165,0.262,0.058,0.087,0.000:
0000
0000
0000
0000
,
0000
0000
0000
0000
,
0000
0000
0000
0000
,
0000
0000
0000
0000
,
0000
0000
0000
0000
,
0000
0000
0000
0000
,
0000
0000
0000
0000
,
0000
0000
0000
0000
,
0010
0010
0010
0000
,
0100
0100
0100
0000
,
1000
1000
1000
0000
,
0001
0000
1000
0000
,
0100
0100
0100
0000
,
0010
0000
0001
0000
,
0100
0000
0000
0000
,
0010
0010
0010
0010
,
0100
0000
0100
0000
,
0010
0000
0010
0000
,
0001
0000
0001
0000
,
2002
0000
0000
3003
,
0010
0000
1000
0000
,
0010
0000
0001
0000
,
0100
0000
0100
0000
,
1000
0000
0001
0000
,
0010
0000
0100
0000
,
0220
0000
0000
0330
,
1000
0000
0001
0000
,
1000
0000
0100
0000
,
0010
0000
0100
0000
,
0001
0000
0010
0010
,
0010
0000
0000
0000
,
1000
0000
0100
0000
,
0010
0000
0001
0000
,
0010
0000
0100
0000
,
0100
0000
0010
0000
,
0000
0000
0000
0000
,
1001
0000
0100
0000
,
0010
0000
0100
0000
,
0001
0000
0000
0000
,
2002
0000
0000
3003
,
1000
1000
0001
0001
,
0100
0000
0010
0000
,
0010
0001
0010
0000
,
1000
0100
1000
0000
,
0010
0010
0010
0000
,
0100
0001
0100
1000
,
0100
0000
0000
0000
,
0010
0000
0010
0000
,
0100
0100
0100
0000
,
0001
0000
1000
0000
,
0010
0000
0000
0000
,
0100
0000
0001
0000
,
2002
0000
0000
3003
,
0220
0000
0000
0000
0000
0000
0330
2020
,
0000
0000
0000
0000
,
3030
0000
0000
0000
,
1000
0001
1000
0000
,
0001
1000
0001
0000
,
0100
0010
0100
0000
,
0010
0100
0010
0000
,
1000
0000
0001
0000
,
1000
0000
0001
0000
,
0100
0000
0000
0010
,
0010
0010
0010
0010
,
0001
0100
1000
0000
,
1000
0100
0001
0000
,
0010
0010
0010
0000
,
1000
0000
0001
0000
,
0100
0000
0100
0000
,
0010
0000
0001
0000
,
0010
0000
1000
0000
,
0100
0000
0010
0100
,
0110
0000
0000
0000
;

//---------------dance-solo - ----------------
#NOTES:
     dance-solo:
     :
     Hard:
     7:
     0.511,0.524,0.459,0.335,0.051:
000000
000000
000000
000000
,
000000
000000
000000
000000
,
000000
000000
000000
000000
,
000000
000000
000000
000000
,
000010
000000
000000
000000
010000
000000
000000
000000
000010
000000
000000
000000
000000
000000
000100
001000
,
000100
100000
001000
000100
000000
000001
000200
000000
,
000000
000000
000000
000000
000000
000000
000000
000000
000000
000000
000000
000000
000300
000000
000000
000010
,
010000
000000
000000
010000
001000
000000
000000
001000
000100
000000
000000
000100
100000
000000
000000
000000
,
100100
000000
001100
000000
001001
000000
000001
000100
,
010010
000000
001100
000000
010010
000000
100000
001000
,
001010
010100
001010
000000
,
100000
000000
000000
100000
001000
000000
000000
001000
000100
000000
000000
000000
000100
000000
000000
000000
,
000001
000000
000010
000000
001000
000000
000000
000000
001000
000000
010000
000000
000100
000000
100000
000001
,
100000
000100
001000
000100
000000
020000
000020
000000
,
000000
000000
000000
000000
030030
000000
001100
100000
,
001000
000100
000001
010000
000020
000000
020030
000000
,
030001
001001
100000
101000
,
000001
001001
100000
101000
,
010000
001000
000100
000010
001000
000000
001100
000000
,
000010
000000
000000
000010
100000
000000
000000
100000
000001
000000
000000
000001
000100
000000
000000
000000
,
000012
000103
210000
300100
,
100000
001000
001100
000000
000001
001000
001100
000000
,
000001
000010
001000
100000
000200
000000
001300
000000
,
002100
003100
020010
030010
,
100000
001000
000001
001000
100000
000000
100001
000000
,
000010
000100
000010
000100
001000
010000
001000
010000
,
000200
100300
002000
003001
,
000001
001000
100000
001000
000001
000000
010010
000000
,
200000
000010
000001
000010
,
300002
010000
100000
010000
,
100003
001000
000100
010000
000100
001000
000100
000010
,
000200
001300
002000
003100
,
000001
100000
100010
000000
100000
000001
010001
000000
,
000001
001000
100000
001000
000001
000100
001000
000100
,
001000
000000
001000
000000
001000
000100
001000
000100
,
000000
000010
010000
010010
000000
000001
100000
100001
,
000001
100000
000010
100000
001000
100000
000010
100000
,
002000
023000
030002
000103
,
000100
000001
010000
000001
002000
000000
003100
000000
,
100000
000100
001000
000001
100001
000000
100001
000000
,
020010
030010
010020
010030
,
000010
000100
001000
010000
000100
000000
100001
000000
,
000010
000001
000010
000001
000010
000001
100001
000000
,
000100
010000
000100
010000
000100
010000
010010
000000
,
000001
001000
100000
000100
000000
000000
000000
000000
,
000001
001000
100000
001000
000001
000100
001000
000100
,
001000
020000
001000
031000
000000
000000
001100
000000
,
200010
001000
301000
000100
000001
000000
001001
000000
,
000110
000000
000000
000000
010100
000000
000000
000000
000110
000000
000000
000000
100001
000000
000001
001000
,
000100
100000
001000
000100
000001
001000
000100
100000
,
000100
020000
030020
020030
000000
030000
000001
000010
,
000010
000001
001000
000100
001000
010000
010000
001000
,
000200
001000
001300
000100
,
020010
000000
000100
000000
030100
000000
001000
001100
,
000000
000001
100000
000001
000000
000100
001000
000100
,
000000
000001
001000
000010
100000
000100
001000
000100
,
001100
010010
200002
300003
,
000001
100000
000100
001000
001100
100001
100001
000000
,
000011
101000
020002
030003
,
100000
000100
000010
000100
100000
000000
100001
000000
,
201000
010000
001000
310000
,
001002
000010
000100
000013
,
000001
000000
001000
000000
000001
000000
100000
000000
000001
000000
000100
000000
000001
000000
001000
000100
,
020000
032000
003020
002030
,
103000
000000
000000
000000
101000
000000
000000
000000
000001
000000
000000
000000
001001
000000
000100
001000
,
000100
100000
000001
001000
000100
100000
000020
000000
,
010030
100001
020020
030030
,
000100
000010
000100
000010
010000
000001
010000
000001
,
200001
000001
300001
000000
002100
000100
003100
000000
,
210000
010000
310000
000000
000012
000010
000013
000000
,
000000
000001
001000
100000
000000
100000
001000
000001
,
000000
000001
100000
000010
010000
000100
001000
000010
,
010000
000000
000000
000000
;

//---------------dance-double - ----------------
#NOTES:
     dance-double:
     :
     Easy:
     4:
     0.252,0.315,0.146,0.117,0.000:
00000000
00000000
00000000
00000000
,
00000000
00000000
00000000
00000000
,
00000000
00000000
00000000
00000000
,
00000000
00000000
00000000
00000000
,
00000000
00000000
00000000
00000000
,
00000000
00000000
00000000
00000000
,
00000000
00000000
00000000
00000000
,
00000000
00000000
00000000
00000000
,
10000000
01000000
10000000
00000000
,
00010000
01000000
00010000
00000000
,
10000000
00100000
00010000
00000000
,
00001000
00010000
00001000
00000000
,
00000100
00000100
00000000
00000000
,
00000010
00000010
00000000
00020000
,
00000000
00000000
00000000
00030000
,
00011000
00000000
00000000
00000000
,
00100000
10000000
00010000
00100000
,
01000000
01000000
01000000
01000000
,
00010000
00001000
00000100
00000010
,
00001000
00001000
00001000
00001000
,
00000001
00000100
00001000
00000100
,
00000010
00001010
00010000
00011000
,
01000000
01000000
01000000
01000000
,
10000000
00100000
00010000
00001000
,
00000100
00000100
00000100
00000100
,
00000001
00000010
00001000
00010000
,
01000000
01000000
01000000
01000000
,
00010000
00001000
01000000
00100000
,
10000000
01000000
00001000
00100000
,
10000000
01000000
00001000
00100000
,
01000000
01000000
01000000
01000000
,
00100000
00010000
00000010
00001000
,
00000001
00000100
00010000
00000010
,
00000001
00000100
00010000
00000010
,
00000001
00000000
00000100
00000000
00010000
00000000
00000010
00000001
,
00000000
00000000
00000000
00000000
,
00000001
00000001
00000001
00000001
,
00000100
00001000
00010000
00001000
,
01000000
01000000
01000000
01000000
,
00010000
00100000
10000000
01000000
,
00001000
00001000
00001000
00001000
,
01000000
00110000
00001000
01010000
,
00100000
10000000
01000000
00010000
,
00000010
00000010
00000010
00000010
,
00000100
00000001
00000010
00000100
,
00000001
00000010
00001000
00010000
,
01000000
01000000
01000000
01000000
,
00010000
01010000
10000000
11000000
,
00010000
00010000
00010000
00000000
,
01000000
01000000
01000000
00000000
,
00001000
00001000
00001000
00000000
,
00100000
00100000
00100000
00000000
,
00010000
00010000
00010000
00000000
,
00001000
00000000
00001000
00000000
00001000
00000000
00000000
00011000
,
00000000
00000000
00000000
00000000
,
00000000
00000000
00000000
00000000
,
00000101
00000101
00001010
00000000
,
00000100
00001000
00100000
00010000
,
11000000
11000000
00110000
00000000
,
01000000
00010000
00000010
00001000
,
00000002
00000000
00002003
00000000
,
00003020
00000000
00020030
00000000
,
00032000
00000000
00203000
00000000
,
02300000
00000000
13000000
00000000
,
10100000
10100000
01010000
00000000
,
00100000
00010000
00000100
00001000
,
00000011
00000011
00001100
00000000
,
00000010
00001000
01000000
00010000
,
20000000
00000000
30020000
00000000
,
02030000
00000000
03002000
00000000
,
00023000
00000000
00030200
00000000
,
00000320
00000000
00000032
00000000
,
00000003
00000000
00000000
00000000
;

//---------------dance-double - ----------------
#NOTES:
     dance-double:
     :
     Medium:
     5:
     0.307,0.446,0.095,0.342,0.000:
00000000
00000000
00000000
00000000
,
00000000
00000000
00000000
00000000
,
00000000
00000000
00000000
00000000
,
00000000
00000000
00000000
00000000
,
00000000
00000000
00000000
00000000
,
00000000
00000000
00000000
00000000
,
00000000
00000000
00000000
00000000
,
00000000
00000000
00000000
00000000
,
00000001
00000100
00000001
00001000
,
00100000
00010000
00001000
00100000
,
00001000
00000010
00001000
00010000
,
01000000
00100000
10000000
01000000
,
00010000
00010000
01000000
00001000
,
00100000
00100000
00001000
00020000
,
00000000
00000000
00000000
00000000
,
00030000
00000000
00000000
00000000
,
02000000
00000000
23000000
00000000
,
30200000
00000000
02300000
00000000
,
03010000
01000000
00100000
10000000
,
01000000
00010000
00001000
00000100
,
00000002
00000000
00000203
00000000
,
00000310
00001001
00000100
00001001
,
00000020
00000000
00000032
00000000
,
00000203
00000000
00000320
00000000
,
00020030
00000000
02030000
00000000
,
13000000
00100000
00010000
00001000
,
00000200
00000000
00000302
00000000
,
00001003
00000110
00000001
00000110
,
00000100
00100000
00010000
01000000
,
00000010
00001000
00000100
00010000
,
00200000
01000000
01000000
01300000
,
00010000
00000010
00001000
00000100
,
00000001
00001000
00100000
00010000
,
01000000
00000000
10000000
00000000
00020000
00000000
00000000
00031000
,
00000000
00000000
00000000
00000000
00000000
00000000
00000000
00011000
,
00000000
00000000
00000000
00000000
,
00000100
00001000
00000001
00001100
,
00100000
00010000
01000000
00100000
,
00010000
00001000
01000000
00010000
,
00000010
00000000
00000001
00001000
00000000
00000000
00100000
00000000
,
10000000
00010000
00100000
01000000
,
10000000
01100000
00010000
01010000
,
00100000
00001000
01000000
00011000
,
00000100
00001000
00000001
00000100
,
00000001
00000100
00001000
00010000
,
00100000
10000000
00100000
00000000
10000000
01000000
10000000
00000000
,
01000000
00010000
01000000
00000000
00010000
00001000
00010000
00000000
,
00001000
00000100
00001000
00000000
00000100
00000001
00000100
00000000
,
00000001
00001000
00010000
01100000
,
10000000
00010000
00001000
00000010
,
00000200
00001000
00001000
00001300
,
00100000
01000000
00010000
00001000
,
00000010
00000100
00100000
01000000
,
00010000
00000000
00001000
00000000
00020000
00000000
00000000
00031000
,
00000000
00000000
00000000
00000000
,
00000000
00000000
00000000
00000000
,
00000020
00000032
00000203
00002300
,
00003200
00000000
00000302
00000000
00002003
00000000
00003100
00000100
,
00020000
00032000
02003000
03020000
,
20030000
00000000
31000000
01000000
00020000
00000000
02030000
00000000
,
13000000
00010000
00001000
00010000
,
01000000
00001000
00010000
00000100
,
00001000
00000000
00000001
00000000
00001000
00000000
01000000
00010000
,
00100000
00100000
00100000
10000000
,
02000000
23000000
30200000
00320000
,
00230000
00000000
20300000
00000000
30020000
00000000
00130000
00100000
,
00002000
00023000
00030020
00002030
,
00003002
00000000
00000013
00000010
00002000
00000000
00003020
00000000
,
00000031
00001000
00010000
00001000
,
00000010
00010000
00001000
00100000
,
00000000
10000000
01000000
00100000
00000000
01010000
00000000
00011000
,
00000000
00000001
00000100
00000010
00001000
00000100
00000010
00001000
,
00011000
00000000
00000000
00000000
;

//---------------dance-double - Copied from Blank----------------
#NOTES:
     dance-double:
     Copied from Blank:
     Hard:
     7:
     0.454,0.472,0.473,0.320,0.004:
00000000
00000000
00000000
00000000
,
00000000
00000000
00000000
00000000
,
00000000
00000000
00000000
00000000
,
00000000
00000000
00000000
00000000
,
00000000
00000000
00000000
00000000
,
00000000
00000000
00000000
00000000
,
00000000
00000000
00000000
00000000
,
00000000
00000000
00000000
00000000
,
11000000
10100000
02020000
03030000
,
00110000
00101000
00022000
00033000
,
00010100
00001100
00000220
00000330
,
00000022
00000033
00002200
00003300
,
00000011
00000000
00000000
00000000
00000110
00000000
00000000
00000000
00002200
00000000
00000000
00000000
00003300
00000000
00010000
00001000
,
00010000
01000000
10000000
00100000
00000000
00100000
02000000
00000000
,
00000000
00000000
00000000
00000000
03000000
00000000
00000000
10000000
,
01000000
00010000
00001000
00000100
00000010
00000000
00001001
00000000
,
00000001
00000010
00001000
00010000
,
01000000
10000000
00010000
10000000
,
01000000
10000000
00010000
01000000
,
00100000
01000000
00010000
10000000
00010000
00000000
01010000
00000000
,
00010000
01000000
00100000
00000000
10000000
00000000
01000000
00000000
,
00210000
00310000
00012000
00013000
,
00000010
00000100
00000001
00001000
00000100
00000000
00001100
00000000
,
00000001
00000010
00000100
00000000
00000010
00000000
00000011
00000000
,
00000001
00000100
00001000
00010000
00002000
00000000
00013000
01000000
,
10000000
00100000
01000000
00100000
10000000
01000000
10000000
00010000
,
10000000
00010000
01000000
00100000
00000000
00000000
01100000
00000000
,
20010000
30010000
01020000
00130000
,
10000000
01000000
00010000
00000000
00011000
00000000
00000010
00000000
,
00000200
00000302
00002003
00003200
,
00020300
00000000
00000100
00000000
00031000
00000000
00010000
01000000
,
00100000
00010000
01000000
10000000
,
01000000
00010000
00100000
00000000
01000000
00000000
11000000
00000000
,
10000000
01000000
00100000
00000000
00010000
00000000
01010000
00000000
,
01000000
00000000
00001000
00000000
00010000
00001000
00010000
00000100
,
00000000
00000010
00000001
00001000
00000000
00000100
00000010
00000001
,
00001000
00000100
00010000
00001000
00100000
00000000
00110000
00000000
,
10000000
00100000
01000000
00010000
10000000
00000000
01100000
00000000
,
10000000
01000000
00010000
00000000
00001000
00000000
00011000
00000000
,
00000100
00000010
00001000
00000000
00000001
00000000
00001100
00000000
,
00000001
00000010
00001000
00010000
00000000
00000000
00011000
00000000
,
00201000
00310000
02100000
03100000
,
00100000
00010000
10000000
00010000
01000000
00000000
01010000
00000000
,
00010000
01000000
10000000
01000000
00010000
00000000
00110000
00000000
,
10000000
01000000
00010000
00001000
00020000
00000000
00031000
00000000
,
00010000
00000100
00000010
00000001
00000100
00001000
00010000
00001000
,
00100000
00010000
10000000
01000000
00000000
00000000
11000000
00000000
,
20010000
30010000
00120000
00130000
,
10000000
01000000
10000000
00010000
01000000
00000000
01100000
00000000
,
20000000
30200000
00320000
00032000
,
00003100
00000010
00000100
00001000
00000000
00000000
00001001
00000000
,
00000001
00001000
00000100
00000000
00001000
00000001
00000100
00000000
,
00000001
00000010
00000100
00000010
00000001
00000000
00001001
00000000
,
00001000
00000100
00000001
00000100
00001000
00000000
00001000
00001100
,
00000000
00000001
00000100
00001000
00000000
00010000
01000000
10000000
,
00000000
10000000
00100000
00010000
00001000
00000100
00000010
00001000
,
00001001
00000000
00001100
00000000
00022000
00000000
00033000
00010000
,
00001000
00100000
00010000
10000000
01000000
00100000
00010000
00000000
,
10010000
01010000
00022000
00033000
,
00001000
00000100
00000001
00000100
00001000
00000000
00010100
00000000
,
00020000
00000100
00031000
00011000
,
00200000
00010000
01300000
10000000
,
01000000
10000000
00010000
01000000
00010000
00100000
01000000
00000000
,
01100000
10100000
01100000
01010000
,
11000000
00000000
00110000
00000000
00022000
00000000
00033000
00001000
,
00000100
00000001
00000100
00000010
00001000
00000100
00000010
00000000
,
00001010
00001100
00022000
00033000
,
00010000
00010000
01000000
01000000
00100000
00000000
10010000
00000000
,
00210000
00001000
00310000
01010000
,
21000000
00000000
00010000
00000000
31000000
00000000
00010000
00100000
,
01000000
10000000
01000000
00010000
00000000
00001000
00000100
00000001
,
00000000
00000001
00000010
00000100
00001000
00000100
00010000
00001000
,
00011000
00000000
00000000
00000000
;

//---------------dance-single - Copied from Blank----------------
#NOTES:
     dance-single:
     Copied from Blank:
     Beginner:
     1:
     0.147,0.184,0.000,0.000,0.000:
0000
0000
0000
0000
,
0000
0000
0000
0000
,
0000
0000
0000
0000
,
0000
0000
0000
0000
,
0000
0000
0000
0000
,
0000
0000
0000
0000
,
0000
0000
0000
0000
,
0000
0000
0000
0000
,
1000
0000
1000
0000
,
0001
0000
0001
0000
,
0100
0000
0100
0000
,
0001
0000
0000
0000
,
1000
0000
1000
0000
,
0100
0000
0100
0000
,
0010
0000
0000
0000
,
0001
1000
0001
0001
,
0100
0100
0000
0100
,
0000
0001
0000
0001
,
0000
0010
0000
0000
,
0010
0000
1000
0000
,
0010
0000
0001
0000
,
0010
0000
0100
0000
,
0010
0000
0001
0000
,
1000
1000
0001
0000
,
1000
0000
0010
0000
,
0100
0100
0001
0000
,
1000
0000
0100
0000
,
1000
1000
0010
0000
,
0100
0000
0100
0000
,
0001
0000
0001
0000
,
0010
0000
0010
0000
,
0001
0000
0100
0000
,
1000
0000
0100
0000
,
0001
0000
0010
0000
,
0100
0000
0010
0000
,
0001
0000
0000
0000
,
1000
0000
1000
0000
,
1000
0000
1000
0000
,
0001
0000
0001
0000
,
0001
0000
0001
0000
,
0100
0100
0010
0000
,
1000
0000
0100
0000
,
1000
1000
0001
0000
,
1000
0000
0010
0000
,
0100
0100
0010
0000
,
0100
0000
0001
0000
,
0010
0010
0001
0000
,
1000
0000
0100
0000
,
1000
1000
1000
0000
,
0001
0000
0100
0000
,
0001
0000
0010
0000
,
0001
0000
1000
0000
,
0100
0100
0100
0000
,
1000
0000
0001
0000
,
0100
0000
0000
0000
,
0000
0000
0000
0000
,
0001
0001
0001
0000
,
1000
0000
1000
0000
,
0001
0001
0001
0000
,
1000
0000
0010
0000
,
0100
0000
0010
0000
,
0100
0000
0010
0000
,
1000
0000
0100
0000
,
0010
0010
0010
0010
,
0001
0001
0001
0000
,
0100
0000
0001
0000
,
0100
0100
0100
0000
,
0001
0000
1000
0000
,
0100
0000
1000
0000
,
0100
0000
0010
0000
,
0001
0000
1000
0000
,
0001
0000
1000
1000
,
1000
0000
0000
0000
;
