#TITLE:The Hope of Tomorrow;
#SUBTITLE:;
#ARTIST:Sota Fujimori;
#TITLETRANSLIT:;
#SUBTITLETRANSLIT:;
#ARTISTTRANSLIT:;
#CREDIT:;
#BANNER:The Hope of Tomorrow-BN.png;
#BACKGROUND:the hope of tomorrow-BG.png;
#LYRICSPATH:;
#CDTITLE:;
#MUSIC:The Hope of Tomorrow.mp3;
#OFFSET:0.365;
#SAMPLESTART:40.340;
#SAMPLELENGTH:12.000;
#SELECTABLE:YES;
#BPMS:0.000=144.000;
#STOPS:;
#BGCHANGES:0.000=The Hope of Tomorrow.avi=1.000=0=0=1,
99999=-nosongbg-=1.000=0=0=0 // don't automatically add -songbackground-
;

//---------------dance-single - Copied from Copied f----------------
#NOTES:
     dance-single:
     Copied from Copied f:
     Hard:
     8:
     0.461,0.488,0.111,0.048,0.139: // measure 1
0000
0000
0000
0000
,  // measure 2
0000
0000
0000
0000
,  // measure 3
0000
0000
0000
0000
,  // measure 4
0000
0000
0000
0000
,  // measure 5
0000
0000
0000
0001
,  // measure 6
0000
0001
0000
0100
,  // measure 7
0000
0100
0000
0010
,  // measure 8
0000
0010
0000
1000
,  // measure 9
0000
0000
0000
0000
1001
0000
0000
0000
0010
0000
0000
0100
0000
0000
0001
0000
,  // measure 10
0100
0000
0000
0010
0000
0000
1000
0000
0100
0000
0000
0100
0000
0000
1000
0000
,  // measure 11
0010
0000
0000
0100
0000
0000
0001
0000
0010
0000
0000
0001
0000
0000
1000
0000
,  // measure 12
0100
0000
0000
0010
0000
0000
0100
0000
1000
0000
0000
1000
0000
0000
0100
0000
,  // measure 13
0010
0000
0000
0010
0000
0000
0001
0000
0100
0000
0000
0010
0000
0000
1000
0000
,  // measure 14
0100
0000
0000
0001
0000
0000
0100
0000
1000
0000
0000
0001
0000
0000
0010
0000
,  // measure 15
0001
0000
0000
0100
0000
0000
0010
0000
1000
0000
0000
1000
0000
0000
0001
0000
,  // measure 16
0100
0000
0000
0100
0000
0000
0001
0000
0010
0000
0000
0010
0000
0000
0001
0000
,  // measure 17
1000
0000
0000
1000
0000
0000
0100
0000
1000
0000
0000
0001
0000
0000
0100
0000
,  // measure 18
0010
0000
0000
0001
0000
0000
0010
0000
1000
0000
0000
0100
0000
0000
1000
0000
,  // measure 19
0001
0000
0000
0001
0000
0000
0100
0000
0001
0000
0000
0010
0000
0000
0100
0000
,  // measure 20
0010
0000
0000
0001
0000
0000
0100
0000
0010
0000
0000
0010
0000
0000
1000
0000
,  // measure 21
0001
0000
0000
0001
0000
0000
0010
0000
0100
0000
0000
0100
0000
0000
1000
0000
,  // measure 22
0001
0000
0000
0001
0000
0000
0100
0000
0010
0000
0000
0010
0000
0000
1000
0000
,  // measure 23
0100
0000
0000
0100
0000
0000
1000
0000
0001
0000
0000
0100
0000
0000
0010
0000
,  // measure 24
1000
0000
0000
0100
0000
0000
0010
0000
0001
0000
0100
0000
1000
0000
0100
0000
,  // measure 25
0001
1000
0100
0010
0001
1000
0100
0000
,  // measure 26
1000
0001
0100
0000
0001
0100
0010
1000
,  // measure 27
0100
0100
1000
0000
0001
0010
0001
0000
,  // measure 28
1000
0001
1000
0000
0010
0100
0001
0010
,  // measure 29
0001
0001
1000
0000
1020
0000
1030
0000
,  // measure 30
0100
1000
0001
0000
0021
0000
0031
0000
,  // measure 31
0100
0000
0010
0000
1000
0000
0000
0000
0001
0000
0000
0001
0000
0000
0100
0000
,  // measure 32
0010
0000
0000
0010
0000
0000
1000
0000
0100
0000
0000
0100
0000
0000
1000
0000
,  // measure 33
0001
0000
0000
0001
0000
0000
0100
0000
0010
0000
1000
0000
0100
0000
0000
0000
,  // measure 34
1000
0001
0100
0001
1000
1000
0100
0000
,  // measure 35
1000
0010
1000
0000
1000
0001
0010
0000
,  // measure 36
0100
1000
0010
0000
1000
0100
0001
0100
,  // measure 37
1000
0010
0100
0000
0102
0000
1003
0000
,  // measure 38
0100
1000
0100
0000
0021
0000
0031
0000
,  // measure 39
1000
0001
0010
0000
0001
0100
1000
0100
,  // measure 40
0001
0010
0100
1000
0001
1000
0100
1000
,  // measure 41
0010
0000
0000
0100
0000
0000
0010
0000
0100
0000
0000
0000
0001
0000
0000
0000
,  // measure 42
0000
0001
0000
0010
,  // measure 43
0000
0010
0000
0100
,  // measure 44
0000
0100
0000
1000
,  // measure 45
0000
1000
0000
0001
,  // measure 46
0000
0100
0000
0001
,  // measure 47
0000
0010
0000
0100
,  // measure 48
0000
1000
2002
0000
,  // measure 49
0000
0000
3003
0000
0001
1000
0100
1000
,  // measure 50
0010
0100
0001
0000
0010
0001
0010
0100
,  // measure 51
1000
0001
0100
0000
0001
0010
0100
0000
,  // measure 52
1000
0100
0010
0000
0001
0100
0010
0100
,  // measure 53
0001
1000
0100
0000
1000
0001
0010
0001
,  // measure 54
1000
1000
0100
0000
1000
0001
0100
0001
,  // measure 55
0010
0001
1000
0000
1000
0001
0100
0000
,  // measure 56
0001
0010
0100
0000
0010
0001
0100
0010
,  // measure 57
1000
0100
1000
1000
0001
0100
0001
0010
,  // measure 58
0100
0010
0001
0000
1000
0100
0001
0100
,  // measure 59
1000
0001
0010
0000
0001
0100
0001
0000
,  // measure 60
1000
0010
1000
0000
0001
1000
0001
0010
,  // measure 61
0100
0010
0001
0000
0100
0001
1000
0000
,  // measure 62
0010
1000
0001
0000
1000
0001
0100
0001
,  // measure 63
0010
0010
0001
0000
1000
0100
1000
0000
,  // measure 64
0001
0100
0001
0000
0001
0010
1000
0010
,  // measure 65
0001
1000
0001
0100
0001
0001
1000
0100
,  // measure 66
1000
0001
1001
0000
0100
0100
0010
0001
,  // measure 67
0100
0010
1010
0000
0001
0001
1000
0010
,  // measure 68
1000
0100
1100
0000
0010
0010
0100
0001
,  // measure 69
0100
0001
1001
0000
0100
0100
1000
0001
,  // measure 70
0010
0100
1100
0000
1000
1000
0001
0100
,  // measure 71
0001
1000
1010
0000
0100
0100
0001
1000
,  // measure 72
0100
1000
1001
0000
1000
1000
0100
0001
,  // measure 73
0100
1000
0010
0000
1001
0000
0000
0000
;

//---------------dance-single - ----------------
#NOTES:
     dance-single:
     :
     Medium:
     5:
     0.348,0.402,0.016,0.182,0.000:
0000
0000
0000
0000
,
0000
0000
0000
0000
,
0000
0000
0000
0000
,
0000
0000
0000
0000
,
0000
0000
0000
0000
,
0000
0000
0000
0000
,
0000
0000
0000
0000
,
0000
0000
0000
0000
,
0000
0000
1000
0100
,
1000
0000
0001
0010
0100
0000
0010
0000
,
0001
0000
0100
0000
0010
1000
0100
0000
,
1000
0000
0001
0000
0100
0001
0100
0000
,
0001
1000
0200
1300
,
0010
0000
0100
0000
0001
0100
0001
0000
,
0100
0010
2000
3100
,
1000
0000
0001
0000
0100
0001
0100
0000
,
0001
1000
0020
0130
,
0001
0000
0010
0000
0001
0001
0010
0000
,
0100
0100
1000
0000
0010
0000
0100
0000
,
0002
1003
0100
1000
,
0010
0010
0100
0000
0001
0000
0010
0000
,
0100
1000
0100
1000
,
0001
0000
0100
0000
0010
0010
1000
0000
,
0100
0100
1000
0000
0001
0000
1000
0000
,
0001
0100
0210
0000
,
0310
0000
1000
1000
,
0100
0100
1000
1000
,
0010
0000
0100
0000
0001
1000
0100
0000
,
1000
0000
0001
0000
0010
0001
0010
0000
,
0001
0000
0100
0000
0010
1000
0010
0000
,
1000
0100
2000
3010
,
0020
0130
0200
0301
,
0002
0000
0103
0000
0010
1000
0010
0000
,
0100
0000
0001
0000
1000
0100
1000
0000
,
0001
0010
0200
0310
,
0001
1000
0100
0000
1000
0000
0010
0000
,
0100
0001
0100
0000
0020
0000
1030
0000
,
0200
1300
0020
0130
,
0002
1003
0100
1000
,
0010
0100
0001
0000
1000
0100
1000
0000
,
0001
0100
0001
0000
1000
0000
0100
0000
,
0000
0100
0000
0010
,
0000
0001
0000
0100
,
0000
1000
0000
0100
,
0000
0001
0000
0010
,
0000
0100
0000
0010
,
0000
0001
0000
0001
,
0000
1000
0000
1000
,
0000
0000
0001
0000
0100
0001
0100
0000
,
0001
0100
0010
1000
,
0100
0010
0001
0000
1000
0000
0100
0000
,
1000
0010
0100
0100
,
0001
0000
0001
0000
1000
0100
1000
0000
,
0010
0000
0100
0000
0001
0010
0100
0000
,
0010
0001
1000
0100
,
1000
0010
1000
0000
0020
0000
0100
0000
,
1000
0000
0130
0000
0001
1000
0100
0000
,
1000
0000
0001
0000
0010
0001
0010
0000
,
0001
0100
0020
1030
,
0200
1300
0010
0100
,
0001
1000
0100
0000
2000
0000
0100
0000
,
0010
0000
0100
3000
0010
0100
0001
0000
,
0100
0010
2000
0100
,
0010
0000
3100
0000
0010
0001
0010
0000
,
0001
0100
0002
0103
,
0010
1000
0010
0000
0100
0010
0100
0000
,
0002
0000
1003
0000
0100
0010
0001
0000
,
0001
0100
0010
0000
0010
1000
0100
1000
,
0020
0000
0130
0000
0001
1000
0100
0000
,
1000
0000
0001
0000
0100
0010
0100
0000
,
0010
1000
0100
0000
2000
0000
3001
0000
,
0010
0001
0010
0000
0001
0100
0010
1000
,
0100
1000
1001
0000
;

//---------------dance-single - ----------------
#NOTES:
     dance-single:
     :
     Easy:
     4:
     0.248,0.316,0.016,0.063,0.000:
0000
0000
0000
0000
,
0000
0000
0000
0000
,
0000
0000
0000
0000
,
0000
0000
0000
0000
,
0000
0000
0000
0000
,
0000
0000
0000
0000
,
0000
0000
0000
0000
,
0000
0000
0000
0000
,
0000
0000
0000
1000
,
0001
0001
1000
1000
,
0010
0010
0100
0100
,
0001
0001
0010
0010
,
0100
0100
1000
0010
,
0001
0010
1000
0100
,
0001
0100
1000
0010
,
0100
0001
1000
0100
,
1000
0001
0200
0310
,
1000
0100
2000
3010
,
0100
0001
0020
0031
,
1000
0100
0020
0031
,
1000
0100
1000
0010
,
0010
0100
0001
1000
,
0100
1000
0110
0100
,
0001
1000
0100
1000
,
0010
0100
0001
0001
,
1000
0000
1000
0100
,
1000
0010
0010
0100
,
0010
0000
0010
1000
,
0001
0010
0001
0001
,
0100
0000
0001
0010
,
0100
0000
0010
0001
,
0100
1000
0100
0001
,
0010
0100
0010
0010
,
0001
0000
1000
1000
,
0100
1000
1000
0010
,
0100
0000
0001
1000
,
0100
0100
1000
0010
,
0100
0000
0001
0100
,
0010
0000
1000
1000
,
0100
1000
0010
0100
,
0001
1000
0100
0000
,
0000
0000
0100
0000
,
0000
0000
0100
0000
,
0000
0000
0010
0000
,
0000
0000
0010
0000
,
0000
0000
0010
0000
,
0000
0000
0001
0000
,
0000
0000
0002
0000
,
0000
0000
1003
0100
,
1000
0010
0010
1000
,
0100
1000
0001
0001
,
0100
0000
0001
0001
,
0010
0000
0000
0100
,
0100
1000
0000
0010
,
0010
0100
0000
0001
,
0001
1000
0000
0010
,
1000
0100
0010
0001
,
1000
1000
0100
1000
,
0010
0000
0010
0100
,
0001
0001
1000
0100
,
1000
0000
0001
0010
,
0100
0100
0010
0001
,
1000
0000
1000
0100
,
1000
1000
0010
0100
,
0001
1000
0200
0000
,
0000
1300
0002
0000
,
0000
1003
0200
0000
,
0000
1300
0001
0010
,
0001
0001
0100
0010
,
1000
1000
0100
1000
,
0010
0001
0010
1000
,
0100
0010
0001
1000
,
0001
1000
1001
0000
;

//---------------dance-single - Copied from----------------
#NOTES:
     dance-single:
     Copied from:
     Beginner:
     1:
     0.155,0.201,0.000,0.016,0.000:
0000
0000
0000
0000
,
0000
0000
0000
0000
,
0000
0000
0000
0000
,
0000
0000
0000
0000
,
0000
0000
0000
1000
,
0000
0000
0000
0000
,
0000
0000
1000
0000
,
0000
0000
0000
0000
,
0000
0010
0100
0100
,
0000
0001
0000
0001
,
0000
1000
0000
1000
,
0000
0010
0000
0010
,
0000
0001
0000
0001
,
0000
0010
0000
0010
,
0000
1000
0000
1000
,
0000
0100
0000
0100
,
0000
1000
0000
0001
,
0000
0010
0000
0001
,
0000
0100
0000
0001
,
0000
1000
0000
0100
,
0000
1000
0000
0010
,
0000
0100
0000
0001
,
0000
1000
0000
0100
,
0000
1000
0000
0001
,
0000
0000
0010
0010
,
0010
0000
0001
0000
,
1000
0000
0100
0100
,
0100
0000
1000
0000
,
0010
0000
0100
0100
,
0100
0000
0001
0001
,
0001
0000
0020
0000
,
0031
0000
0200
0000
,
0310
0000
1000
1000
,
0100
0000
1000
0000
,
0010
0000
0100
0100
,
0001
0000
1000
0000
,
0100
0000
1000
1000
,
0010
0000
0100
0000
,
0001
0000
1000
1000
,
0100
0000
1000
0000
,
0001
0000
1000
0000
,
0000
0000
0000
0000
,
0000
0000
0000
0000
,
0000
0000
0000
0000
,
0000
0000
0001
0000
,
0000
0000
0000
0000
,
0000
0000
0000
0000
,
0000
0000
0100
0000
,
0000
0000
0010
0010
,
0010
0000
1000
0000
,
0001
0000
1000
0000
,
0001
0000
0100
0100
,
0100
0000
0001
0001
,
0001
0000
0010
0000
,
0001
0000
1000
0000
,
0100
0000
1000
1000
,
1000
0000
0001
0000
,
0001
0000
0100
0000
,
0100
0000
0001
0000
,
0001
0000
0010
0010
,
0010
0000
0001
0000
,
1000
0000
0100
0100
,
0100
0000
1000
0000
,
0001
0000
0100
0000
,
0010
0000
0100
0100
,
0000
0100
0000
0010
,
0000
0010
0000
1000
,
0000
1000
0000
0001
,
0000
0001
1000
1000
,
0000
0100
0000
0100
,
0000
1000
0000
1000
,
0000
0010
0000
0010
,
0000
0100
0001
0000
;
