#TITLE:Telephone (Feat. Beyonce);
#SUBTITLE:;
#ARTIST:Lady Gaga;
#TITLETRANSLIT:;
#SUBTITLETRANSLIT:;
#ARTISTTRANSLIT:;
#CREDIT:;
#BANNER:Telephone-banner.png;
#BACKGROUND:Telephone.png;
#LYRICSPATH:;
#CDTITLE:./CDTITLES/DanceDanceRevolution X.png;
#MUSIC:106-lady_gaga-telephone_(featuring_beyonce).mp3;
#OFFSET:0.688;
#SAMPLESTART:132.005;
#SAMPLELENGTH:15.000;
#SELECTABLE:YES;
#BPMS:0.000=122.000;
#STOPS:;
#BGCHANGES:0.000=Telephonefinal.avi=1.000=1=1=0,
429.000=Telephone.png=1.000=1=0=1,
99999=-nosongbg-=1.000=0=0=0 // don't automatically add -songbackground-
;

//---------------dance-single - ----------------
#NOTES:
     dance-single:
     :
     Medium:
     5:
     0.390,0.392,0.310,0.329,0.000:
0000
0000
0000
0000
,
0000
0000
0000
0000
,
0000
0000
0000
0000
,
0000
0000
1000
1000
,
0001
0010
0100
1000
,
2002
3003
0001
0010
,
0001
0100
1000
0100
,
0202
0303
0001
1000
,
0100
1000
0010
0100
,
0202
0303
0010
0010
,
1000
0100
1000
0001
,
0022
0033
1100
1001
,
2010
3001
0101
1010
,
0210
0010
0310
0000
0001
0000
0010
0000
,
1000
0100
0001
0101
,
2010
0010
3010
0000
0100
0000
0001
0000
,
0100
0000
0010
0000
1000
0000
0100
0010
,
0002
1003
1000
0100
,
0001
0000
0100
0000
1000
0010
0100
0000
,
1002
1003
0001
0011
,
1000
0000
1100
0000
1000
0000
0001
0100
,
2000
3100
0001
0010
,
0100
1000
1001
1001
,
1001
0000
0021
0031
,
2100
3100
1000
0001
,
0100
0010
0100
0000
0010
0000
1000
0000
,
0100
0010
0001
1000
,
0001
0100
0010
0000
2010
0000
3010
0000
,
0201
0301
0001
0100
,
0010
1000
0100
0000
1000
0000
0100
0000
,
0010
0001
0100
0010
,
1000
0001
1000
0000
0001
0000
0010
0000
,
0100
1000
0001
0010
,
0011
0101
1010
1000
,
0010
0100
0001
0100
,
0020
1000
1030
0000
1000
0000
0100
0000
,
0010
0001
1000
0100
,
0011
0101
1001
1000
,
0100
1000
0010
0100
,
0002
1000
1003
0000
1000
0000
0010
0000
,
1000
0100
1000
0001
,
0200
0010
0310
0000
0010
0000
1000
0000
,
0100
0001
0100
1000
,
0020
0100
0130
0000
0001
0000
0010
0000
,
1000
0010
0001
0100
,
2000
0100
3100
0000
0001
0000
0010
0000
,
0100
1000
0001
0100
,
1010
1001
2000
3200
,
0310
0010
0010
0000
0200
0000
2300
0000
,
3010
0101
0002
2003
,
3001
0011
0002
2003
,
3010
1010
1000
0100
,
0001
0010
2000
0000
,
0000
0000
3001
0001
,
0001
0000
0001
0000
1000
1000
0001
0001
,
1000
1000
0001
0000
0100
0000
0010
0000
,
1000
0100
0010
0001
,
1001
0000
1000
0100
,
1000
0010
0100
0001
,
0011
0000
0001
0001
,
1000
1000
0100
0100
,
0020
0031
0001
0100
,
0100
0010
1000
0100
,
2200
0000
0000
3300
0001
0000
0100
0000
,
0202
0000
0000
0303
1000
0000
0001
0000
,
2002
0000
0000
3003
0010
0000
1000
0000
,
0010
0100
0001
2000
,
0002
0000
0000
3003
2000
0000
3001
0001
,
0200
0000
0310
0010
1000
0000
0100
0000
,
1000
0100
0010
0001
0000
0000
1001
0000
,
0001
0101
0010
1010
,
0002
1000
1003
0000
0002
0000
0013
0010
,
0200
0000
0310
0010
0001
0000
1000
0000
,
0001
0010
0100
1000
0000
0000
1001
0000
,
1000
1010
0001
0101
,
0200
0010
0310
0000
2000
0000
3001
0001
,
0020
0000
0130
0100
0010
0000
0001
0000
,
1000
0010
0100
0001
0000
0000
1010
0000
,
1000
1100
0010
0011
,
0002
0100
0103
0000
0020
0000
1030
1000
,
0200
0000
0310
0010
0001
0000
1000
0000
,
0001
0100
0010
1000
0000
0000
0110
0000
,
0001
0101
0010
1010
,
0002
1000
1003
0000
1000
0000
0100
0000
,
1000
0100
1000
0001
,
0101
0011
0001
0010
,
0001
0100
0001
0010
,
0002
0100
0103
0000
0010
0000
1000
0000
,
0100
0001
0100
1000
,
0110
1001
1000
0100
,
0010
0001
0010
0100
,
1000
0000
0001
0000
2000
0000
3010
0100
,
0002
0000
1003
0100
2000
0000
3001
0010
,
0200
0000
0310
0000
0002
0000
1003
0001
,
0200
0000
0310
1000
0200
0000
1300
0001
,
0100
0010
1000
0000
0002
0000
0013
0001
,
2000
0000
3100
1000
0020
0000
0130
0001
,
0200
0310
2000
3100
,
1000
0100
0020
0000
0031
0100
0020
0000
,
1030
0100
2000
0000
3001
0000
0010
0001
,
0100
0010
2000
0000
3000
0001
0001
0001
,
0100
0010
1000
0000
0011
0000
0101
0000
,
1010
1100
1001
0110
,
2001
0000
3001
0000
0100
0000
0010
1000
,
0100
0010
0001
0000
0000
0001
0001
0001
,
1000
0010
0100
0000
1100
0000
1001
0000
,
0011
0110
1001
1010
,
0210
0301
0000
0000
;

//---------------dance-single - ----------------
#NOTES:
     dance-single:
     :
     Easy:
     4:
     0.283,0.367,0.251,0.100,0.000:
0000
0000
0000
0000
,
0000
0000
0000
0000
,
0000
0000
0000
0000
,
0000
0000
1000
1000
,
0001
1000
0100
0010
,
0002
0003
1000
0001
,
0100
0010
1000
0100
,
0020
0030
0001
0001
,
0100
0010
1000
0100
,
0020
0030
0001
0001
,
1000
1000
1001
0010
,
1001
0000
2000
0100
,
3100
1001
0002
0100
,
0103
0110
0001
0010
,
0100
1000
0100
0010
,
0001
1001
1000
1000
,
0001
0001
1000
0010
,
0100
0000
0100
0100
,
0010
0010
0100
0010
,
2000
3001
0001
0010
,
0100
0010
0001
0100
,
0020
0030
1000
0100
,
1000
0010
0100
0001
,
1000
0000
1000
1000
,
0010
0010
0100
0001
,
0100
0010
0000
1001
,
0000
1100
0000
0011
,
0000
1001
0010
0010
,
0100
0100
0010
1000
,
0100
1000
0001
0011
,
0000
1100
0000
1001
,
0000
0110
0010
1000
,
0010
1000
0010
1000
,
0000
0000
0001
0100
,
0001
0100
0001
0100
,
0000
0000
0001
1000
,
0001
1000
0001
1000
,
0000
0000
1000
0010
,
1000
0010
1000
0010
,
0000
0000
0100
0100
,
0010
0010
0100
0100
,
0010
1001
1000
1000
,
0001
0001
1000
1000
,
0001
0110
0100
1000
,
0100
1000
0100
1000
,
0001
0101
0001
0100
,
0001
0100
0010
1000
,
0100
0020
0031
0001
,
0001
0001
1000
1000
,
1000
1000
0010
0010
,
0010
0010
0100
0100
,
0100
0100
0001
0010
,
0100
1000
0002
0000
,
0000
0000
1003
1000
,
1000
1000
1000
1000
,
1000
1000
0001
0000
,
0000
0000
0000
0000
,
0000
0000
0000
0000
,
0000
0000
0000
0000
,
0000
0000
0001
0001
,
1000
1000
0010
0010
,
0100
0100
0001
0010
,
0001
0010
0100
1000
,
1001
0000
0010
0010
,
0220
0330
0001
0001
,
0202
0303
0010
0010
,
1000
1000
0010
0100
,
1001
0000
1000
0100
,
1000
0100
0010
0001
,
0100
0110
0000
1010
,
0000
0101
0000
1001
,
0000
1100
0001
0001
,
1000
1000
0010
0100
,
0010
0100
0010
1010
,
0000
0110
0000
0101
,
0000
1001
1000
0100
,
1000
0100
1000
0010
,
1000
0010
0100
0101
,
0010
1010
0100
0101
,
0010
1010
0001
0100
,
0010
0100
0001
0010
,
1000
0010
0001
0101
,
0010
1010
0100
0110
,
0001
1001
1000
0100
,
0010
0001
1000
0200
,
0000
0000
0310
0001
,
1000
0100
1000
0020
,
0000
0000
0130
0001
,
0100
0010
1000
0100
,
2000
0000
3001
0010
,
0100
1000
0100
1000
,
1001
1001
0001
0001
,
1000
1000
0001
0010
,
0100
0110
0001
0100
,
1000
0100
0001
0100
,
1000
1010
1000
0010
,
1000
0010
0100
0001
,
0100
0011
0001
0010
,
1000
0010
0001
0100
,
1000
0100
0022
0033
,
1000
1100
2020
3030
,
0010
0100
0101
1010
,
0101
1010
1000
0100
,
1000
0010
2002
3003
,
0010
1000
0100
0010
,
0010
0001
0001
0011
,
0100
0101
0010
1010
,
1001
1100
0000
0000
;

//---------------dance-single - Copied from Copied f----------------
#NOTES:
     dance-single:
     Copied from Copied f:
     Hard:
     8:
     0.490,0.514,0.269,0.169,0.071:
0000
0000
0000
0000
,
0000
0000
0000
0000
,
0000
0000
0000
0000
,
0000
0000
0000
0000
,
0000
0000
0000
0000
,
0000
0000
0000
0000
,
0000
0000
0000
0000
,
0000
0000
0000
0000
,
0000
0000
0000
0000
,
0000
0000
0000
0000
,
0000
0000
0000
0000
,
0000
0000
0000
0001
0001
1000
0010
0000
,
1010
0000
1000
0100
0100
1000
0010
0000
,
0100
0001
0001
0000
0001
0010
0100
1000
,
0010
1000
0001
0100
0010
1000
0100
0010
,
0001
1000
1000
0000
0001
1000
0010
0100
,
0010
1000
0100
0001
0100
1000
0010
0100
,
0002
1000
1003
0010
0100
0001
0010
0001
,
1000
0100
1000
0010
0100
0001
1000
0000
,
0020
0100
0130
0010
1000
0001
1000
0100
,
0010
0001
0010
0001
1000
0010
0100
0001
,
0200
0001
0301
1000
0010
0001
0010
1000
,
0100
0100
1000
0001
0100
0010
0100
0000
,
0200
0010
0310
0000
1001
0000
0101
0000
,
1001
0000
1100
0000
1000
0100
0001
0100
,
1000
0010
0100
0020
0000
0130
0001
0010
,
0200
0000
1300
0001
1000
0010
0001
0020
,
0000
0130
0100
0000
1010
0000
1001
0000
,
0101
0000
1001
0000
1000
0010
1000
0001
,
0100
0010
0100
0020
0000
1030
0100
0001
,
0200
0000
1300
0010
0100
0001
0010
0200
,
0000
0310
0010
0000
0001
0010
0100
1000
,
0001
0010
0100
1000
0001
0010
0100
1000
,
1000
0010
0010
0100
0100
0001
1000
0010
,
0100
0001
1000
0010
0100
0001
0010
0000
,
0001
0100
0100
0000
0010
1000
0001
0100
,
0010
1000
0001
0100
0010
1000
0001
0100
,
0100
0010
0010
1000
1000
0001
0010
0001
,
0100
0001
1000
0001
0100
0001
1000
0000
,
0001
0000
1000
0000
1000
0000
0001
0000
1000
0000
0001
0010
0001
0000
0010
0100
,
0010
0000
0100
0000
1000
0000
0001
1000
0001
0000
0100
0010
1000
0000
0100
0000
,
0010
0000
0001
0000
1001
0000
0000
0000
0001
0000
1000
0010
1000
0000
0100
0010
,
0001
0000
0100
0000
0001
0000
0010
0100
0010
0000
0100
1000
0100
0000
0010
0000
,
0001
0000
0100
0000
0101
0000
0000
0000
1000
0000
0001
1000
0001
0000
0100
0001
,
0100
0000
0001
0000
0100
0000
0010
1000
0001
0000
1000
0100
1000
0000
0001
0000
,
1000
0000
0100
0000
0110
0000
0000
0000
0010
0000
0100
0010
0100
0000
0010
0001
,
0010
0000
0001
0000
1000
0000
0001
1000
0001
0000
1000
0010
0100
0000
0010
0000
,
1000
0001
1001
0000
1010
0000
1100
0000
,
0011
0101
1001
0110
,
0101
1010
1100
0101
,
0011
1010
1001
1010
,
0110
0000
1001
0000
1000
0100
0010
0001
,
0010
0100
1000
0001
1000
0000
0000
0000
,
0000
0000
0101
0011
,
1001
0000
1100
0000
1010
0010
0110
0100
,
0101
0001
1001
0000
2000
0000
0000
0000
,
0000
0000
3002
0000
,
0000
0000
0203
0000
,
0000
0000
0320
0000
,
0000
0000
1030
0100
,
1000
0000
0010
0000
0100
0001
1000
0000
,
2002
3003
0001
1000
,
0001
0010
0100
0000
1000
0000
0001
0000
,
1001
0000
1000
0010
0100
0001
0100
0000
,
0101
0000
0001
0100
1000
0100
0001
0000
,
1001
1000
1000
0001
0100
0010
1000
0001
,
0100
0010
1000
0100
0010
0000
0001
0000
,
2002
0000
3003
0000
2000
0000
3100
1000
,
0020
0000
0130
0001
1000
0010
0001
0010
,
1000
0100
0010
0002
0000
0103
0010
1000
,
0002
0000
1003
0001
0100
0001
0010
0200
,
0000
0310
0010
0000
0002
0000
0103
0010
,
2000
0000
3100
0100
1000
0100
0001
0100
,
1000
0010
0100
0002
0000
0013
0010
0001
,
2000
0000
3010
0100
0001
1000
0001
2000
,
0000
3001
0001
0000
2010
0000
3010
0100
,
0201
0000
0301
1000
0010
0001
0010
0100
,
0001
1000
0001
2000
0000
3001
0001
0100
,
0001
1000
0010
1000
0100
0001
0100
1000
,
0000
1001
1001
0000
0021
0000
0031
0100
,
0120
0000
1030
0010
1000
0100
0010
0001
,
1000
0100
0010
0002
0000
1003
0001
0100
,
1000
0100
0001
0010
0100
0010
0001
1000
,
0000
1001
1001
0000
1000
0100
0001
0100
,
1000
0010
0001
0010
1000
0100
0001
0100
,
0100
1000
1000
0010
0010
0100
0001
0010
,
1000
0010
0001
0100
1000
0100
0002
0000
,
0003
1100
1100
0000
0001
0100
1000
0100
,
0001
0010
1000
0010
0001
0100
1000
0100
,
0100
0010
0010
1000
1000
0100
0001
0100
,
1000
0010
0001
0010
1000
0100
0010
0000
,
0010
0000
0001
0000
0001
0000
0100
0000
0010
0000
1000
0010
1000
0000
0001
1000
,
0001
0000
1000
0000
0010
0000
0100
0001
0100
0000
0001
0010
0100
0000
0010
0000
,
0001
0000
1000
0000
1100
0000
0000
0000
0001
0000
0100
0001
0100
0000
0001
0100
,
0010
0000
1000
0000
0100
0000
0010
0100
0010
0000
0100
1000
0100
0000
1000
0000
,
0001
0000
1000
0000
1010
0000
0000
0000
0001
0000
1000
0001
1000
0000
0001
0010
,
0100
0000
1000
0000
0001
0000
1000
0100
1000
0000
0100
0000
0010
0000
0001
0000
,
1000
0000
0001
0000
0101
0000
0000
0000
0010
0000
0100
0001
0100
0000
0010
1000
,
0100
0000
1000
0000
0001
0000
0100
0010
0100
0000
0010
1000
0001
0000
1000
0000
,
0010
0100
0110
0000
1002
0000
1003
0100
,
1000
0010
1000
0000
0010
0100
0100
0100
,
0001
1000
0001
0010
0100
1000
0100
0001
,
0100
0010
0100
1000
0100
0010
0001
1000
,
0001
1000
1100
0000
2001
0000
3001
0100
,
0001
1000
0001
0000
0100
0010
0010
0010
,
0100
0001
1000
0001
0010
0100
0010
1000
,
0010
0001
0010
0100
0010
0001
1000
0100
,
0010
0100
1000
0000
0000
0000
0000
0000
;

//---------------dance-double - Copied from----------------
#NOTES:
     dance-double:
     Copied from:
     Hard:
     8:
     0.527,0.538,0.388,0.155,0.080:
00000000
00000000
00000000
00000000
,
00000000
00000000
00000000
00000000
,
00000000
00000000
00000000
00000000
,
00000000
00000000
00000000
00000000
,
00000000
00000000
00000000
00000000
,
00000000
00000000
00000000
00000000
10000000
01000000
00010000
00001000
,
00020000
00000000
00030010
00000100
00000001
00000000
00001001
00000000
,
00001001
00000000
00000000
00000000
00000001
00000001
00000020
00000130
,
00001000
00000100
00010000
00001000
00010000
00000000
01010000
00000000
,
10010000
00000000
00000000
00000000
10000000
00100000
01000000
00010000
,
01000000
00110000
11000000
01010000
,
10010000
00000000
00000000
00100000
00100000
00010000
10000000
00000000
,
10100000
00000000
00100000
10000000
10000000
01000000
00100000
00010000
,
00100000
00011000
00011000
00000000
00001000
00010000
00001000
00000100
,
00000010
00000100
00000001
00000100
00001000
00000100
00000010
00000000
,
00000001
00000101
00000101
00000000
00000001
00000100
00001000
00010000
,
00001000
00100000
01000000
00100000
00010000
10000000
01000000
00100000
,
00020000
10000000
10030000
00000000
10000000
00100000
00010000
00001000
,
00010000
00000100
00000010
00000001
00000010
00000100
00001000
00000000
,
00002000
00000100
00003100
00000000
00000100
00001000
00000100
00010000
,
00001000
00010000
01000000
10000000
01000000
10000000
00100000
01000000
,
00020000
10000000
10030000
00000000
10000000
00010000
00100000
00001000
,
00010000
00001000
00000100
00000010
00001000
00000001
00001000
00000000
,
00000002
00001000
00001003
00000000
00000011
00000000
00000101
00000000
,
00001100
00000000
00010100
00000000
01000000
00100000
00010000
10000000
,
00100000
01000000
00100000
02000000
00000000
03010000
10000000
01000000
,
00020000
00000000
00031000
00000100
00000010
00000100
00000010
00001000
,
00000000
00000110
00000000
00000000
00001010
00000000
00010100
00000000
,
00011000
00000000
00110000
00000000
00100000
00010000
10000000
00010000
,
10000000
01000000
00100000
00010000
00000000
10000000
00100000
00010000
,
00002000
00000000
00013000
00000100
00000010
00000001
00001000
00000001
,
00000000
00001001
00000000
00000000
00000001
00000010
00000100
00001000
,
00000100
00010000
00001000
00010000
00001000
01000000
00100000
01000000
,
00100000
00100000
01000000
01000000
00100000
10000000
01000000
00100000
,
00010000
00100000
00001000
00010000
00001000
00010000
00000200
00000000
,
00000300
00001010
00001010
00000000
00000001
00000100
00000010
00001000
,
00000100
00010000
00001000
01000000
00100000
10000000
00010000
01000000
,
01000000
00100000
00100000
10000000
10000000
00100000
01000000
00010000
,
00100000
00001000
00010000
00000100
00000010
00000001
00001000
00000000
,
00002000
00000000
00000001
00000000
00003001
00000000
00000000
00000000
00000001
00000000
00001000
00000100
00001000
00000000
00010000
00001000
,
00010000
00000000
01000000
00000000
00100000
00000000
00010000
10000000
00010000
00000000
00100000
01000000
00100000
00000000
00010000
00000000
,
00100000
00000000
01000000
00000000
01100000
00000000
00000000
00000000
00010000
00000000
10000000
01000000
10000000
00000000
00010000
01000000
,
00010000
01000000
00010000
00000000
01000000
00000000
00001000
00010000
00001000
00000000
00010000
00001000
00010000
00000000
00000100
00000000
,
00000010
00000000
00000001
00000000
00001001
00000000
00000000
00000000
00000001
00000000
00001000
00000001
00001000
00000000
00000100
00000010
,
00000100
00000000
00000010
00000000
00000001
00000000
00001000
00000001
00001000
00000000
00000100
00010000
00000100
00000000
01000000
00000000
,
00010000
00000000
10000000
00000000
10010000
00000000
00000000
00000000
00010000
00000000
01000000
00100000
01000000
00000000
00100000
10000000
,
00100000
10000000
00100000
00000000
10000000
00000000
01000000
10000000
01000000
00000000
10000000
00000000
00010000
00000000
01000000
00000000
,
00100000
10000000
01000000
00000000
11000000
00000000
10100000
00000000
,
10010000
01010000
00110000
00101000
,
00011000
01001000
00011000
00001100
,
00001010
00001001
00000110
00000101
,
00000011
00000000
00001001
00000000
00000001
00000100
00001000
00010000
,
01000000
10000000
00010000
10000000
00020000
00000000
00000000
00000000
,
00000000
00030000
10010000
00110000
,
00101000
00000000
00011000
00000000
00001100
00000100
00000110
00000010
,
00000011
00000001
00000101
00000000
00000001
00000000
00000010
00000000
,
00001000
00000000
00010000
00000000
01000000
10000000
01000000
00000000
,
00200000
00000000
00310000
00010000
,
10000000
00000000
01000000
00000000
10000000
00010000
02000000
00000000
,
03010000
00000000
00100000
00001000
,
00010000
00001000
00010000
00000000
00000100
00000000
00000110
00000000
,
00001001
00000000
00000002
00000000
00000203
00000000
00000310
00001000
,
00000100
00010000
00001000
01000000
00100000
10000000
00100000
00000000
,
10100000
00000000
11000000
10000000
01000000
00100000
00010000
00000000
,
01010000
00000000
00011000
00010000
00001000
00010000
00001000
00000000
,
00001100
00001000
00000100
00000010
00000001
00000100
00001000
00000100
,
00000001
00000100
00001000
00010000
01000000
10000000
01000000
00000000
,
20020000
00000000
00000000
30030000
20000000
00000000
31000000
01000000
,
00200000
00000000
00000000
00300000
00010000
00000000
00010000
00000000
10000000
00000000
00100000
00000000
00010000
00000000
00001000
00000000
,
00010000
00000100
00000010
00000002
00000000
00000103
00000010
00001000
,
00000002
00000000
00001003
00000100
00010000
00001000
00010000
01000000
,
00000000
10010000
00000000
00000000
00020000
00000000
10030000
01000000
,
20000000
00000000
30010000
01000000
00010000
00100000
00001000
00010000
,
00001000
00000100
00000010
00000100
00000000
00000001
00000100
00001000
,
00020000
00000000
01030000
00100000
00010000
10000000
00010000
10000000
,
00000000
01100000
00000000
00000000
02010000
00000000
03100000
10000000
,
20100000
00000000
31000000
00100000
00010000
00100000
00001000
00010000
,
00001000
00000100
00000010
00000100
00000000
00000001
00000010
00000100
,
00001000
00000001
00001000
00000100
00000001
00000100
00001000
00000100
,
00000000
00011000
00011000
00000000
00012000
00000000
00103000
00010000
,
00210000
00000000
00310000
01000000
00100000
10000000
01000000
00010000
,
00001000
00010000
00001000
00000200
00000000
00000310
00001000
00000100
,
00000001
00000100
00001000
00000010
00000100
00000001
00001000
00000100
,
00000000
00001100
00001100
00000000
00000001
00000100
00001000
00010000
,
01000000
10000000
01000000
00010000
00001000
00000100
00000001
00000100
,
00000100
00001000
00001000
00010000
00010000
01000000
00100000
00010000
,
10000000
01000000
00100000
00010000
10000000
00100000
00010000
00000000
,
00000000
10010000
10010000
00000000
10000000
00100000
00010000
00001000
,
00000100
00000001
00000010
00001000
00010000
01000000
10000000
00100000
,
00100000
00010000
00010000
00001000
00001000
00000100
00000010
00001000
,
00000001
00000100
00000010
00001000
00000001
00000100
00000010
00000000
,
00002000
00000000
00000001
00000000
00003001
00000000
00000000
00000000
00000010
00000000
00000100
00001000
00000100
00000000
00010000
00001000
,
00010000
00000000
01000000
00000000
00100000
00000000
01000000
00100000
01000000
00000000
00100000
00010000
00100000
00000000
00010000
00000000
,
01000000
00000000
00100000
00000000
10100000
00000000
00000000
00000000
00100000
00000000
10000000
00100000
10000000
00000000
00010000
10000000
,
00010000
10000000
00010000
00000000
10000000
00000000
01000000
00010000
01000000
00000000
00001000
00010000
00001000
00000000
00000100
00000000
,
00000010
00000000
00001000
00000000
00001001
00000000
00000000
00000000
00000001
00000000
00000010
00000001
00000010
00000000
00001000
00000001
,
00001000
00000000
00000100
00000000
00010000
00000000
00001000
00010000
00001000
00000000
01000000
00100000
01000000
00000000
00100000
00000000
,
10000000
00000000
00010000
00000000
10010000
00000000
00000000
00000000
00010000
00000000
10000000
01000000
10000000
00000000
00010000
00100000
,
00010000
00100000
00010000
00000000
01000000
00000000
00001000
00010000
00001000
00000000
00010000
00001000
00010000
00000000
01000000
00000000
,
00100000
00010000
10010000
00000000
20010000
00000000
31000000
00010000
,
00001000
00010000
00001000
00000000
00000100
00000010
00000010
00000010
,
00001000
00000100
00000010
00000000
00000001
00000100
00000101
00000000
,
00001000
00000100
00001100
00000000
00000001
00000100
00001000
00010000
,
01000000
00000000
10010000
00000000
10200000
00000000
10300000
00100000
,
00010000
00001000
00010000
00000000
00000200
00000010
00000310
00000010
,
00000001
00000100
00000101
00000000
00000001
00000100
00000101
00000000
,
00000001
00001000
00001001
00000000
00000001
00000100
00001000
00010000
,
00001000
00010000
00011000
00000000
00000000
00000000
00000000
00000000
;

//---------------dance-double - Copied from----------------
#NOTES:
     dance-double:
     Copied from:
     Medium:
     6:
     0.359,0.416,0.128,0.297,0.000:
00000000
00000000
00000000
00000000
,
00000000
00000000
00000000
00000000
,
00000000
00000000
00000000
00000000
,
00000000
00000000
00000000
00000000
,
00000000
00000000
10000000
01000000
,
02200000
03300000
00010000
00001000
,
00000100
00000010
00001000
00000001
,
00002002
00003003
00001000
00000200
,
00010300
01000000
00100000
00001000
,
00022000
00033000
00000100
00000010
,
00000001
00001000
00000001
00001000
,
00002002
00000000
00003003
00000000
00000001
00000001
00000100
00000000
,
00001100
00000000
00000000
00010000
00010000
00001000
01000000
00000000
,
10010000
00000000
10000000
01000000
,
00010000
00000000
00001000
00000000
00010000
00001000
01000000
00000000
,
10010000
00000000
10000000
00100000
,
00010000
00000000
00001000
00000000
00000100
00000000
00000001
00000010
,
00000001
00000000
00000001
00000100
,
00001000
00000000
00010000
00000000
01000000
00100000
01000000
00000000
,
10010000
00000000
01000000
00010000
,
00100000
00000000
00001000
00000000
00010000
00001000
00000100
00000000
,
00000110
00000000
00000001
00000100
,
00000010
00000000
00001000
00000000
00000100
00010000
00001000
00000000
,
00011000
00000000
00020000
00031000
,
02000000
03100000
01000000
01100000
,
00010000
10000000
01000000
20000000
00000000
00000000
30010000
00000000
,
01000000
00001000
00000100
00000010
,
00002000
00000001
00003001
00000000
00001000
00000000
00001100
00000000
,
00000001
00000101
00000001
00000010
,
00001000
00010000
00001000
00020000
00000000
00000000
01030000
00000000
,
00100000
00010000
01000000
00001000
,
00020000
00001000
00031000
00000000
00000100
00000000
00000010
00000000
,
00001000
00000001
00000100
00000010
,
00001000
00000100
00000010
00000001
00001000
00000000
00000100
00000000
,
00010000
01000000
00100000
01000000
,
00000000
10000000
10000000
00000000
00100000
00000000
01000000
00000000
,
00010000
10000000
00010000
01000000
,
10000000
10000000
01000000
01000000
00010000
00000000
00001000
00000000
,
00010000
00000100
00000010
00000001
,
00000000
00001000
00001000
00000000
00000011
00000000
00001100
00000000
,
00000200
00010000
00010300
00000000
01000000
00000000
00100000
00000000
,
00020000
01000000
01030000
00000000
00100000
00000000
10000000
00000000
,
00200000
00010000
00310000
00000000
00001000
00000000
00010000
00000000
,
00002000
00100000
00103000
00000000
00001000
00000000
00000100
00000000
,
00000020
00000100
00000130
00000000
00000001
00000000
00000100
00000000
,
00002000
00010000
00013000
00000000
01000000
00000000
00100000
00000000
,
00020000
10000000
10030000
00000000
00010000
00000000
01000000
00000000
,
00001000
00010000
00001000
00001000
,
00000100
00000100
00000010
00000010
,
00001000
00001000
00000100
00000100
,
00010000
00010000
01000000
01000000
,
00100000
00100000
02000000
03000000
,
00200000
00300000
00000000
00000000
,
00000000
00000000
00001000
00011000
,
00010000
00000000
00011000
00000000
00001000
00001000
00010000
00010000
,
00002000
00013000
00000010
00000100
,
00000001
00000100
00001000
00010000
,
00002000
00003000
00100000
00010000
,
01000000
00100000
10000000
00200000
,
01300000
00000000
10000000
01000000
,
00010000
00001000
00000010
00000002
,
00001003
00000000
00000001
00000010
,
00001000
00010000
01000000
10000000
,
10010000
00000000
10000000
00010000
,
01010000
00000000
00010000
01000000
,
01001000
00000000
00001000
00010000
,
00001000
01000000
00001000
00000100
,
00002002
00000000
00003003
00000000
00000002
00000000
00001003
00000100
,
00002000
00000000
00003100
00010000
00000100
00000000
00010000
00000000
,
01000000
00100000
00010000
20000000
00000000
00000000
30100000
00000000
,
10000000
01000000
00100000
00010000
,
20000000
01000000
31000000
00000000
00200000
00000000
00301000
00010000
,
00002000
00000000
00013000
00001000
00010000
00000000
00000100
00000000
,
00000010
00000001
00001000
00000200
00000000
00000000
00001300
00000000
,
00000001
00000100
00001000
00010000
,
02000000
00010000
03010000
00000000
10010000
00000000
01000000
01000000
,
11000000
00000000
00010000
00010000
01000000
00000000
10000000
01000000
,
00010000
00001000
00010000
00002000
00000000
00000000
00003100
00000000
,
00000010
00001000
00000001
00000100
,
00000020
00001000
00001030
00000000
00000200
00000000
00000310
00000001
,
00002000
00000000
00003100
00010000
00002000
00000000
01003000
00000000
,
00100000
10000000
01000000
00200000
00000000
00000000
00310000
00000000
,
01000000
00001000
00010000
00001000
,
02000000
00100000
03100000
00000000
10000000
00000000
10000000
00000000
,
10000000
00000000
10000000
00000000
10000000
00000000
01000000
00100000
,
00100000
00010000
00010000
01000000
01000000
00000000
00001000
00000000
,
00001000
00001000
00001000
00001000
,
00000000
00000100
00000100
00000000
00000001
00000000
00000001
00000000
,
00000001
00000000
00000001
00000000
00000001
00000000
00000001
00000100
,
00000100
00000010
00000010
00001000
00001000
00000100
00010000
00000000
,
00010000
00010000
00010000
00010000
,
00000000
01000000
01000000
00000000
20000000
00100000
30100000
00000000
,
00200000
01000000
01300000
00000000
02000000
00100000
03100000
00000000
,
00200000
00010000
00310000
00000000
00002000
00010000
00013000
00000000
,
00000200
00000010
00000310
00000000
00000002
00000100
00000103
00000000
,
00002000
00000100
00003100
00000000
00020000
00001000
00031000
00000000
,
00200000
01000000
01300000
00000000
02000000
00100000
03100000
00000000
,
00020000
10000000
10030000
00000000
20000000
01000000
31000000
00000000
,
00020000
00001000
00031000
00000000
00000200
00000010
00000310
00000000
,
00001000
00000100
00000010
00000000
00002002
00000000
00003003
00000000
,
00000001
00000000
00000011
00000000
00000001
00000100
00001000
00010000
,
01000000
00100000
00010000
00000000
00010000
00000000
01010000
00000000
,
10000000
11000000
10000000
01000000
,
00100000
00100000
00010000
00000000
02020000
00000000
03030000
00000000
,
00100000
00000000
00100000
00000000
00000000
10000000
00100000
00010000
,
00001000
00010000
00000100
00000000
00000010
00000000
00000001
00000000
,
00001000
00000001
00000100
00001000
,
00020000
00001000
00031000
00000000
00000000
00000000
00000000
00000000
;

//---------------dance-double - Copied from----------------
#NOTES:
     dance-double:
     Copied from:
     Easy:
     3:
     0.268,0.367,0.210,0.155,0.000:
00000000
00000000
00000000
00000000
,
00000000
00000000
00000000
00000000
,
00000000
00000000
00000000
00000000
,
00000000
00000000
10000000
10000000
,
00020000
00030000
00100000
00001000
,
00020000
00030000
00000100
00000010
,
00000001
00000100
00000010
00002000
,
00003000
00000000
00000100
00010000
,
02000000
03000000
10000000
01000000
,
00200000
00300000
00010000
00010000
,
01000000
01000000
00110000
00100000
,
10010000
00000000
20000000
01000000
,
31000000
00000000
02000000
00010000
,
03010000
00001000
00010000
00000100
,
00000010
00000001
00001000
00000010
,
00001000
00001001
00000001
00000100
,
00000010
00001000
00000001
00001000
,
00000100
00000000
00010000
00010000
,
01000000
01000000
00100000
00010000
,
10000000
00000000
10000000
01000000
,
00010000
00001000
00000100
00000001
,
00000020
00000030
00000100
00000100
,
00001000
00001000
01000000
01000000
,
00100000
00000000
20000000
30000000
,
00020000
00030000
01000000
00001000
,
01000000
00100000
00000000
10010000
,
00000000
11000000
00000000
00110000
,
00000000
10010000
00200000
00300000
,
00002000
00003000
00000100
00000010
,
00001000
00000001
00000000
00001001
,
00000000
00000011
00000000
00000101
,
00000000
00001010
00001000
00000100
,
00010000
00001000
00100000
00010000
,
00000000
00000000
10000000
00100000
,
01000000
00001000
00010000
00000100
,
00000000
00000000
00000001
00000100
,
00001000
00010000
01000000
10000000
,
00000000
00000000
10000000
00100000
,
00010000
00001000
00000100
00000001
,
00000000
00000000
00000001
00000001
,
00000100
00000100
00001000
00001000
,
00010000
00010000
01000000
01000000
,
00100000
00100000
00010000
00010000
,
10000000
01100000
01000000
00001000
,
00000100
00000010
00001000
00000001
,
00001000
00001000
00000100
00010000
,
01000000
00100000
00010000
10000000
,
01000000
00200000
00310000
00010000
,
00000000
01000000
01000000
00000000
,
00001000
00001000
00000000
00000100
,
00000100
00000000
00000010
00000010
,
00000000
00001000
00000001
00000010
,
00001000
00010000
00002000
00000000
,
00000000
00000000
01003000
01000000
,
01000000
01000000
01000000
01000000
,
01000000
01000000
00010000
00000000
,
00000000
00000000
00000000
00000000
,
10000000
00000000
00000000
00000000
,
01000000
00000000
00000000
00000000
,
00100000
00000000
00010000
00010000
,
01000000
01000000
00001000
00001000
,
00000100
00000000
00000001
00000010
,
00000100
00001000
00000100
00020000
,
00031000
00000000
01000000
00200000
,
01300000
00000000
00010000
02000000
,
03001000
00000000
00000100
00000100
,
00000010
00000010
00001000
00000001
,
00001001
00000000
00000002
00000003
,
00000200
00000300
00000010
00001000
,
00000100
00010000
00001000
00011000
,
00000000
01010000
00000000
10010000
,
00000000
11000000
20000000
30000000
,
00020000
00030000
01000000
00001000
,
01000000
00001000
00010000
00011000
,
00000000
00001100
00000000
00001001
,
00000000
00000101
00000200
00000300
,
00000020
00000030
00001000
00000100
,
00010000
00001000
00010000
00110000
,
00000000
10010000
00000000
01010000
,
00100000
10100000
20000000
30000000
,
00020000
00030000
00010000
01000000
,
00001000
00010000
00001000
00011000
,
00000000
00010100
00000000
00110000
,
00000000
10010000
10000000
01000000
,
00010000
00001000
00010000
00002000
,
00000000
00000000
00013000
00000100
,
00000010
00000001
00001000
00000002
,
00000000
00000000
00000103
00001000
,
00010000
01000000
00100000
01000000
,
20000000
00000000
31000000
00010000
,
00001000
00010000
00000100
00000010
,
00001001
00000000
00000001
00000001
,
00000100
00000100
00001000
00001000
,
00010000
00011000
00010000
01000000
,
10000000
01000000
00010000
01000000
,
10000000
10100000
10000000
00100000
,
00010000
00001000
00000100
00000001
,
00001000
00001001
00000001
00000100
,
00001000
00010000
00001000
01000000
,
00100000
01000000
20020000
30030000
,
10000000
10010000
00220000
00330000
,
00001000
00010000
00011000
00011000
,
00001100
00001100
00000010
00000100
,
00000010
00000100
00002200
00003300
,
00010000
00001000
01000000
00100000
,
00100000
10000000
00010000
00110000
,
01000000
01001000
00010000
00011000
,
00101000
00010100
00000000
00000000
;

//---------------dance-single - Copied from ----------------
#NOTES:
     dance-single:
     Copied from:
     Beginner:
     2:
     0.147,0.171,0.005,0.023,0.000: // measure 1
0000
0000
0000
0000
,  // measure 2
0000
0000
0000
0000
,  // measure 3
0000
0000
0000
0000
,  // measure 4
0000
0000
0000
0000
,  // measure 5
0000
0000
0000
0000
,  // measure 6
0000
0000
0000
0000
,  // measure 7
0000
0000
0000
0000
,  // measure 8
0000
0000
0000
0000
,  // measure 9
0000
0000
0000
0000
,  // measure 10
0000
0000
0000
0000
,  // measure 11
0000
0000
0000
0000
,  // measure 12
0000
0000
1000
1000
,  // measure 13
1000
0000
0001
0001
,  // measure 14
0001
0000
0100
0000
,  // measure 15
0100
0000
0010
0010
,  // measure 16
0010
0000
1000
0000
,  // measure 17
0100
0000
1000
1000
,  // measure 18
1000
0000
0001
0000
,  // measure 19
0100
0000
0001
0001
,  // measure 20
0001
0000
0100
0000
,  // measure 21
0010
0000
0100
0100
,  // measure 22
0100
0000
0010
0000
,  // measure 23
1000
0000
0001
0001
,  // measure 24
0001
0000
2000
3000
,  // measure 25
0002
0003
0100
0100
,  // measure 26
0100
0000
0010
0000
,  // measure 27
0010
0000
1000
0000
,  // measure 28
1000
0000
0002
0003
,  // measure 29
2000
3000
0100
0100
,  // measure 30
0100
0000
0010
0000
,  // measure 31
0010
0000
0001
0000
,  // measure 32
0001
0000
1000
0000
,  // measure 33
1000
0000
1000
0000
,  // measure 34
0001
0001
0001
0000
,  // measure 35
0100
0000
0100
0000
,  // measure 36
0000
0010
0010
0000
,  // measure 37
0100
0000
0100
0000
,  // measure 38
0001
0001
0001
0000
,  // measure 39
1000
0000
1000
0000
,  // measure 40
0100
0000
0010
0010
,  // measure 41
0000
0001
0000
0001
,  // measure 42
0000
0100
0100
0100
,  // measure 43
0000
0010
0000
0010
,  // measure 44
0000
1000
1000
1000
,  // measure 45
0000
0100
0000
0100
,  // measure 46
0000
1000
0001
0001
,  // measure 47
0000
0001
0000
0001
,  // measure 48
0000
0000
0100
0000
,  // measure 49
0000
0000
0000
0000
,  // measure 50
0010
0010
0000
0000
,  // measure 51
1000
1000
0000
0000
,  // measure 52
0001
0001
0000
0000
,  // measure 53
0000
0000
0000
0000
,  // measure 54
1001
0000
0001
0000
,  // measure 55
0001
0000
1000
0001
,  // measure 56
1000
0000
0010
0000
,  // measure 57
0000
0000
0000
0000
,  // measure 58
0000
0000
0000
0000
,  // measure 59
0000
0000
0000
0000
,  // measure 60
0000
0000
0100
0000
,  // measure 61
0000
0000
0001
1000
,  // measure 62
0001
0000
0010
0000
,  // measure 63
0000
0000
0100
0010
,  // measure 64
0100
0000
1000
1000
,  // measure 65
1000
0000
0001
0001
,  // measure 66
0001
0000
1000
0001
,  // measure 67
1000
0001
1000
0001
,  // measure 68
1000
0000
0100
0000
,  // measure 69
0100
0000
0010
0010
,  // measure 70
0010
0000
0001
0000
,  // measure 71
0001
0000
0100
0100
,  // measure 72
0100
0000
0010
0000
,  // measure 73
0010
0000
1000
1000
,  // measure 74
1000
0000
0100
0000
,  // measure 75
0100
0000
0001
0000
,  // measure 76
0001
0000
0100
0100
,  // measure 77
0100
0000
1000
0000
,  // measure 78
1000
0000
0010
0010
,  // measure 79
0010
0000
0100
0000
,  // measure 80
0100
0000
0001
0000
,  // measure 81
0001
0000
0010
0010
,  // measure 82
0010
0000
1000
0000
,  // measure 83
1000
0000
0010
0010
,  // measure 84
0010
0000
0001
0000
,  // measure 85
0001
0000
0001
0000
,  // measure 86
0100
0100
0100
0000
,  // measure 87
0010
0000
0010
0000
,  // measure 88
0000
1000
1000
0100
,  // measure 89
0000
0100
0000
0100
,  // measure 90
0010
0010
0010
0000
,  // measure 91
0001
0000
0001
0001
,  // measure 92
0000
0000
1000
0100
,  // measure 93
1000
0100
0000
0000
,  // measure 94
0010
0010
0001
0100
,  // measure 95
0001
0100
0000
0000
,  // measure 96
0010
0010
1000
0001
,  // measure 97
1000
0001
0000
0000
,  // measure 98
0100
0100
0010
0100
,  // measure 99
0010
0100
0000
0000
,  // measure 100
0001
0001
1000
0000
,  // measure 101
1000
0000
0100
0000
,  // measure 102
0100
0000
0010
0000
,  // measure 103
0010
0000
0001
0000
,  // measure 104
0001
0000
2000
0000
,  // measure 105
3000
0000
0000
0001
,  // measure 106
0001
0001
0100
0000
,  // measure 107
0100
0000
0010
0000
,  // measure 108
0010
0000
0000
0000
;
