#TITLE:Super Bass;
#SUBTITLE:;
#ARTIST:Nicki Minaj;
#TITLETRANSLIT:;
#SUBTITLETRANSLIT:;
#ARTISTTRANSLIT:;
#CREDIT:;
#BANNER:Super Bass-BN.png;
#BACKGROUND:superbass-Bg.png;
#LYRICSPATH:;
#CDTITLE:;
#MUSIC:015_Nicki_Minaj_-_Super_Bass.mp3;
#OFFSET:0.205;
#SAMPLESTART:46.040;
#SAMPLELENGTH:12.000;
#SELECTABLE:YES;
#BPMS:0.000=127.000;
#STOPS:;
#BGCHANGES:1.000=super bass.avi=1.000=1=0=1,
165.000=superbass-Bg.png=1.000=1=0=1,
99999=-nosongbg-=1.000=0=0=0 // don't automatically add -songbackground-
;

//---------------dance-single - Copied from Copied f----------------
#NOTES:
     dance-single:
     Copied from Copied f:
     Hard:
     7:
     0.419,0.469,0.316,0.051,0.101:
0000
0000
0000
0000
,
0000
0000
0000
0000
,
0000
0000
0000
0000
,
0000
0000
0000
0000
,
0000
0000
0000
0000
,
0000
0000
0000
0000
,
0000
0000
0000
0000
,
0000
0000
0000
0000
,
0000
0000
0000
0000
,
1001
0000
0011
0000
1000
0010
1010
0000
,
1000
0001
0100
1000
0100
0001
0101
0000
,
0011
0000
1100
0000
1000
0100
1100
0000
,
0001
0010
1000
0010
0001
0100
0110
0100
,
0010
1000
0100
0100
1000
0010
0100
0100
,
0001
1000
0010
0010
0100
0001
0010
0010
,
0100
0000
1000
1100
0000
0000
0001
0100
,
0101
0000
0000
0000
1000
0000
1010
0000
0000
0000
0001
1000
0000
1000
0100
0000
,
1000
0010
0100
0000
0000
0000
1001
0000
,
0000
0000
0101
0000
0000
0000
1001
0001
,
0010
0010
0010
0000
0000
0000
0101
0000
,
1010
0000
1100
0000
0011
0000
1100
1000
,
0001
0000
0100
0001
0010
0100
1000
0000
,
0001
0100
1000
0100
0001
1000
1001
0000
,
0002
0000
1003
0100
1000
0010
0100
0000
,
0001
0000
1001
0000
0100
0001
0010
0100
,
1000
0000
1010
0000
0010
1000
0100
2000
,
0000
0000
3001
0000
0010
0001
0100
0010
,
1000
0000
0100
1000
0010
0100
0001
0020
,
0000
0000
0031
0000
0001
0100
1000
0100
,
0001
0000
0000
0001
0010
0000
0100
0000
1000
0000
0000
1000
0010
0000
0100
0000
,
0001
0010
1000
0010
0001
0100
0110
0000
,
0010
0000
0000
0010
1000
0000
0010
0000
0100
0000
0000
0100
0001
0000
1000
0000
,
0010
0001
0010
1000
0100
0010
0011
0000
,
0010
0000
0010
0000
0010
0000
0000
0000
0001
0000
0000
0001
0000
0000
0010
0000
,
0100
0000
0000
0100
0000
0000
1000
0000
0010
0000
0000
0010
0000
0000
0100
0000
,
0001
0000
0001
0000
0001
0000
0100
0000
0010
0000
0000
0010
0000
0000
1000
0000
,
0100
0000
0000
0100
0000
0000
0010
0000
0001
0000
0000
0001
0000
0000
0010
0000
,
0001
0000
0000
0001
1000
0000
0010
0000
0100
0000
0000
0100
0010
0000
1000
0000
,
0001
0100
1000
0100
0001
1000
1001
0000
,
1000
0000
0000
1000
0010
0000
0100
0000
0010
0000
0000
0010
1000
0000
0001
0000
,
0010
0100
1000
0100
0001
0100
2000
0000
,
0000
3001
0000
0000
;

//---------------dance-single - ----------------
#NOTES:
     dance-single:
     :
     Medium:
     5:
     0.328,0.386,0.190,0.164,0.038:
0000
0000
0000
0000
,
0000
0000
0000
0000
,
0000
0000
0000
0000
,
0000
0000
0000
0000
,
0000
0000
0000
0000
,
0000
0000
0000
0000
,
0000
0000
0000
0000
,
0000
0000
0000
0000
,
0000
0000
0000
0000
,
1000
0000
1001
0000
0001
0100
0010
0000
,
2000
0000
3100
0000
0010
0010
0001
0000
,
0001
0000
0101
0000
0010
1000
0100
0000
,
0020
0000
0031
0000
0100
0100
0010
0000
,
1000
0100
1000
0100
1000
0010
1000
0010
,
0100
0010
0100
0001
0100
0001
1000
0001
,
1000
0000
1000
0100
0000
0000
0100
0010
,
0001
0000
0001
1000
0000
1000
0100
0000
,
0010
0010
0010
0000
0000
0000
0001
0000
,
0000
0000
1000
0000
0000
0000
0001
1000
,
0001
1000
0001
0000
0000
0000
0100
0000
,
0000
0000
0010
0000
0000
0000
0100
0010
,
1000
0000
0100
1000
0010
0100
0001
0000
,
0001
0000
0010
0001
0010
0000
0100
0000
,
2000
0000
3010
0100
0001
0100
0010
0000
,
1000
0001
1000
0001
,
0011
0000
1100
0000
1000
0100
1000
0020
,
0000
0130
0001
0010
,
0011
0000
1001
0000
0010
0100
0010
2000
,
0000
0000
3001
0000
0010
0010
0010
0000
,
2001
3010
2001
3100
,
1000
0000
0010
0000
0100
0100
0110
0000
,
2010
3100
0201
0301
,
0001
0000
1000
0000
0010
0100
0001
0000
,
1000
0000
1000
0000
1000
0000
0000
0000
0010
0000
0000
0010
0000
0000
0000
0000
,
0100
0000
0000
0100
0000
0000
0000
0000
0010
0000
0000
0010
0000
0000
0000
0000
,
0100
0000
0100
0000
0100
0000
0000
0000
0001
0000
0000
0001
0000
0000
0000
0000
,
1000
0000
0000
1000
0000
0000
0000
0000
0001
0000
0000
0001
0000
0000
0000
0000
,
2010
3100
0201
0301
,
0001
0000
1000
0000
0010
1000
0100
0000
,
2100
3100
0012
0013
,
0001
0000
1000
0000
0001
1000
0001
0000
;

//---------------dance-single - ----------------
#NOTES:
     dance-single:
     :
     Easy:
     3:
     0.274,0.440,0.354,0.379,0.000:
0000
0000
0000
0000
,
0000
0000
0000
0000
,
0000
0000
0000
0000
,
0000
0000
0000
0000
,
0000
0000
0000
0000
,
0000
0000
0000
0000
,
0000
0000
0000
0000
,
0000
0000
0000
0000
,
0000
0000
0000
0000
,
1000
0001
0000
0001
,
0010
0001
0100
0010
,
0100
0010
0000
0010
,
1000
0100
0001
0100
,
1000
0010
0010
0100
,
0001
0010
0010
1000
,
0010
0001
0000
0001
,
0100
0010
0000
0010
,
0100
0001
0000
1000
,
0000
1000
0000
1000
,
0010
0010
0000
0100
,
0000
0100
0000
0100
,
0010
0010
1000
0100
,
0000
0010
0001
0100
,
0100
0110
0000
0010
,
1000
0100
0000
0100
,
0010
0011
1000
1001
,
0220
0330
1000
0010
,
0010
1010
0001
0011
,
2002
3003
1000
0100
,
2200
3300
0202
0303
,
2002
3003
0010
0110
,
0202
0303
2020
3030
,
2002
3003
0001
0011
,
0000
1001
2000
3000
,
0020
0030
0200
0300
,
1001
1001
0002
0003
,
0020
0030
0200
0300
,
2200
3300
0220
0330
,
0022
0033
0011
1001
,
1100
0000
1010
0000
,
0110
0000
0101
2002
,
3003
0000
0000
0000
;

//---------------dance-single - Copied from ----------------
#NOTES:
     dance-single:
     Copied from:
     Beginner:
     1:
     0.097,0.180,0.000,0.101,0.000: // measure 1
0000
0000
0000
0000
,  // measure 2
0000
0000
0000
0000
,  // measure 3
0000
0000
0000
0000
,  // measure 4
0000
0000
0000
0000
,  // measure 5
0000
0000
0000
0000
,  // measure 6
0000
0000
0000
0000
,  // measure 7
0000
0000
0000
0000
,  // measure 8
0000
0000
0000
0000
,  // measure 9
0000
0000
0000
0000
,  // measure 10
1000
0000
0000
0000
,  // measure 11
1000
0000
0000
0000
,  // measure 12
0001
0000
0000
0000
,  // measure 13
0001
0000
0000
0000
,  // measure 14
0100
0100
0000
0000
,  // measure 15
0010
0010
0000
0000
,  // measure 16
0100
0100
0000
0000
,  // measure 17
0001
0000
0000
0000
,  // measure 18
1000
0000
0000
0000
,  // measure 19
0010
0000
0000
0000
,  // measure 20
0010
0000
0000
0000
,  // measure 21
0010
0000
0000
0000
,  // measure 22
1000
0000
0000
0000
,  // measure 23
0100
0000
0000
0000
,  // measure 24
1000
0000
0000
0000
,  // measure 25
0010
0000
0000
0000
,  // measure 26
0100
0100
0100
0000
,  // measure 27
0100
0100
0100
0000
,  // measure 28
0010
0010
0010
0000
,  // measure 29
0100
0100
0100
0000
,  // measure 30
0002
0003
0000
0000
,  // measure 31
2000
3000
0000
0000
,  // measure 32
0002
0003
0000
0000
,  // measure 33
2000
3000
0000
0000
,  // measure 34
0010
0000
0000
0000
,  // measure 35
0000
0000
0000
0000
,  // measure 36
0100
0000
0000
0000
,  // measure 37
0000
0000
0000
0000
,  // measure 38
0002
0003
0200
0300
,  // measure 39
0001
0000
1000
1000
,  // measure 40
0020
0030
0200
0300
,  // measure 41
0000
0000
0001
0001
;
