#TITLE:Sakimori Renka;
#SUBTITLE:;
#ARTIST:Ax feat. Yoko Natsugawa;
#TITLETRANSLIT:;
#SUBTITLETRANSLIT:;
#ARTISTTRANSLIT:;
#CREDIT:;
#BANNER:sakimori renka-bn.png;
#BACKGROUND:Sakimori Renka-BG.png;
#LYRICSPATH:;
#CDTITLE:;
#MUSIC:Sakimori Renka.mp3;
#OFFSET:-0.100;
#SAMPLESTART:45.549;
#SAMPLELENGTH:12.000;
#SELECTABLE:YES;
#BPMS:0.000=170.000;
#STOPS:;
#BGCHANGES:;

//---------------dance-single - ----------------
#NOTES:
     dance-single:
     :
     Easy:
     4:
     0.295,0.369,0.229,0.093,0.000:
0000
0000
0000
0000
,
0000
0000
0000
0000
,
0000
0000
0000
0000
,
0000
0000
0000
0000
,
0000
0000
0000
0000
,
0000
0000
0000
0000
,
0000
0000
0000
0000
,
0000
0000
1000
0000
,
0100
0000
0000
1000
0000
0000
0000
0000
,
0000
0010
0000
0010
,
0000
0100
0000
0100
,
0001
0000
0000
0000
0010
0000
0000
0001
,
0000
0000
0100
0000
,
0100
0000
0010
0000
,
0010
1000
2002
0000
,
0000
0000
3003
0000
,
0000
1000
0100
1000
,
0000
0010
0000
0010
,
0000
0100
0000
0100
,
0000
0001
0010
0100
,
1000
0100
1000
0100
,
0000
0010
0000
0001
,
0000
0100
0000
0001
,
0000
0100
0001
0010
,
0100
0110
0000
1001
,
0000
1100
0101
1001
,
0000
0010
0010
1000
,
0100
2000
3020
0230
,
0301
0011
0000
0101
,
0000
0011
0101
1001
,
0000
2000
0000
0000
,
3001
0200
0000
0000
,
0300
0010
0010
1000
,
1000
0001
0100
1000
,
0100
0001
0001
0010
,
0010
0001
0100
1000
,
0100
0001
0010
0100
,
1000
0100
1000
0010
,
0100
0001
1000
0100
,
1000
0001
1000
1001
,
0001
0100
0010
1000
,
0100
0010
0001
0101
,
0000
0001
0000
0100
,
0000
0001
0000
0000
0000
0000
0010
0000
,
0000
0010
0000
0001
,
0000
0001
0000
0100
,
0000
0000
0010
0000
0000
0100
0000
0000
,
0010
0000
1000
0000
,
0100
0000
1000
0000
,
0100
1000
0000
0001
,
0000
0010
0000
0001
,
0000
0100
0000
0010
,
1000
2002
0000
0000
,
3003
0000
0000
0000
,
0000
0011
0000
0101
,
0000
1010
1100
1001
,
0000
1000
0100
1000
,
1000
0010
0001
0010
,
1000
1100
0000
0101
,
0000
0011
0101
1001
,
0000
0002
0000
0000
,
2003
0000
0000
3100
,
0000
0100
0100
0010
,
0010
0001
0010
1000
,
0010
0001
0001
0100
,
0100
0010
1000
1001
,
0000
1000
1000
0100
,
0100
1000
0010
0001
,
0010
1000
0100
1000
,
0001
1000
0001
0101
,
0000
0000
1000
0000
,
0001
0010
0010
0001
,
0001
0100
0001
0000
,
1000
0100
1000
0010
,
0100
0001
0001
0010
,
0010
0001
0100
1000
,
0100
0001
0010
0100
,
0010
0001
1000
1001
,
0001
0100
0010
1000
,
0100
0000
0000
0000
;

//---------------dance-single - ----------------
#NOTES:
     dance-single:
     :
     Medium:
     6:
     0.408,0.508,0.212,0.204,0.000:
0000
0000
0000
0000
,
0000
0000
0000
0000
,
0000
0000
0000
0000
,
0000
0000
0000
0000
,
0000
0000
0000
0000
,
0000
0000
0000
0000
,
0000
0000
0000
0000
,
0000
0000
0001
0000
,
0010
0000
0001
0000
0000
1000
0100
0000
,
1000
0010
0100
0010
,
1000
0100
0000
0100
1000
0000
0001
0000
,
0100
0000
0000
0000
0001
0000
0000
0010
,
0000
0001
0010
0000
1000
0000
0010
0000
,
0001
0000
0100
0000
0010
1000
0000
1000
,
0100
1000
2002
0000
,
0000
0000
3003
0000
,
0000
1000
0100
1000
,
0000
0001
0000
0010
0001
0000
0100
0000
,
0001
0100
0000
0000
0100
0000
0001
0000
,
1000
0100
0000
0000
1000
0000
1000
0000
,
1000
0001
0100
0001
,
0000
0010
0000
0001
1000
0000
0100
0000
,
1000
0010
0100
0001
,
1000
0000
0100
1000
0100
0000
1000
0001
,
1000
0101
0001
0011
,
0001
0000
1001
0000
1010
0000
1100
0100
,
0100
1000
0100
1000
,
0001
0200
0320
2030
,
3100
1100
0001
0101
,
0001
0011
0101
1001
,
0000
0002
0000
0103
,
0010
2000
0000
3200
,
0000
0300
1000
0001
0100
0000
1000
0001
,
0100
1000
0100
1100
,
1010
0000
0001
1000
0100
0000
1000
0000
,
0001
0100
0001
0010
,
0010
0000
0001
0010
0100
0000
0001
0010
,
0100
0010
0001
0100
,
0010
1000
0100
1000
,
0001
1000
0000
0100
0000
1000
0001
0000
,
0100
0010
1000
0010
,
0001
0010
0000
0010
1000
0000
0100
0000
,
0000
1000
0000
0100
,
0000
1000
0000
0001
0100
0000
0001
0000
,
1000
0000
0100
0000
1000
0000
0001
0010
,
0000
0010
0001
0000
0100
0000
0001
0000
,
0000
0000
1000
0000
0000
0100
0000
1000
,
0100
1000
0010
0100
,
0001
0000
1000
0100
0000
1000
0010
0000
,
0100
0000
0002
0000
0000
0000
2000
0003
,
0000
3200
0000
0320
,
0000
0000
0032
0000
0000
0000
1003
0001
,
1000
0001
2000
0000
0000
0000
0000
0000
,
0000
0000
0000
3000
,
0000
1001
0010
1010
,
0001
0000
1000
0000
0100
0000
1001
1000
,
1000
0001
0010
0001
,
0100
0020
2030
3200
,
1300
1001
0001
0101
,
0001
2000
3200
0320
,
0032
2003
0000
3100
,
1000
0002
0000
0023
,
0000
0000
0031
1000
0100
0000
0001
1000
,
0100
0100
1000
1010
,
0110
0000
0010
1000
0100
0000
1000
0000
,
0001
0000
0100
0000
0001
0000
0010
0001
,
0010
0000
0001
0100
1000
0000
0001
0100
,
1000
0001
0100
1000
,
0010
0100
0001
1000
,
0100
1000
0000
1000
0001
1000
0001
0000
,
0000
0000
1001
0000
,
1001
0000
1000
0100
,
1000
0010
0110
0000
,
0110
0000
0010
0000
1000
0000
0100
1000
,
0100
0000
1000
0010
0100
0000
1000
0010
,
0100
0010
1000
0100
,
0101
0001
0010
0001
,
0010
0001
0000
0001
0000
1000
0100
0000
,
1000
0001
1000
0000
0001
0000
0100
0000
,
0010
1000
0000
1000
0100
0010
0001
0000
;

//---------------dance-single - Copied from Copied f----------------
#NOTES:
     dance-single:
     Copied from Copied f:
     Hard:
     8:
     0.518,0.610,0.280,0.153,0.000: // measure 1
0000
0000
0000
0000
,  // measure 2
0000
0000
0000
0000
,  // measure 3
0000
0000
0000
0000
,  // measure 4
0000
0000
0000
0000
,  // measure 5
0000
0000
0000
0000
,  // measure 6
0000
0000
0000
0000
,  // measure 7
0000
0000
0000
0000
,  // measure 8
0000
0000
2000
0000
,  // measure 9
3010
0000
0000
0100
0000
0001
0100
0001
,  // measure 10
1000
0010
0100
0000
0001
0000
0010
0001
,  // measure 11
1000
0010
0000
0010
0100
0001
1000
0010
,  // measure 12
2000
0000
0000
0000
3100
0000
0000
0010
,  // measure 13
0000
0001
0010
0001
0100
0010
1000
0000
,  // measure 14
0010
0000
0010
0100
0001
1000
0000
1000
,  // measure 15
0100
0010
0001
1000
0200
0000
0000
0000
,  // measure 16
0000
0000
0310
0000
,  // measure 17
0000
0001
0100
0001
,  // measure 18
0000
0020
0000
0031
0010
0100
0010
0001
,  // measure 19
1000
0100
0000
0000
1000
0000
0010
0000
,  // measure 20
1000
0100
0000
1000
0010
0100
0001
0010
,  // measure 21
0100
1000
0001
0000
0010
0000
0001
0000
,  // measure 22
0000
2000
0000
3010
1000
0100
0010
0100
,  // measure 23
1000
0001
0000
0000
0001
0000
0100
0000
,  // measure 24
0010
1000
0000
0001
0010
0100
1000
0001
,  // measure 25
0100
0001
0101
0000
0001
1000
1100
0000
,  // measure 26
0001
1000
1010
0000
0110
0000
0101
0001
,  // measure 27
0001
1000
0100
0000
1000
0010
0001
0010
,  // measure 28
1000
0100
2000
0000
3020
0000
0230
0000
,  // measure 29
0301
0000
0011
0000
0010
0100
0110
0000
,  // measure 30
1000
0010
1010
0000
0101
0000
1001
0001
,  // measure 31
0001
0100
0020
0000
0000
0000
0130
0000
,  // measure 32
0001
2000
0000
3001
,  // measure 33
0000
0000
1000
0100
0010
0000
1000
0100
,  // measure 34
0010
0000
0001
0100
0010
1000
0001
0000
,  // measure 35
1001
0000
1000
0010
0100
0000
0001
0100
,  // measure 36
1000
0100
0001
0000
0010
0000
0001
1000
,  // measure 37
0001
1000
0010
0100
0001
0000
0010
0100
,  // measure 38
0001
0000
0001
0100
0010
1000
0001
0000
,  // measure 39
1001
0001
1000
0000
0001
0000
1000
0000
,  // measure 40
0100
0010
0000
0001
0000
1000
0001
0000
,  // measure 41
0001
0100
0010
0000
1000
0000
0001
0000
,  // measure 42
1000
0100
0000
0010
0001
1000
0001
0000
,  // measure 43
0000
0200
0000
0310
,  // measure 44
0000
1000
0000
0001
0010
0100
1000
0001
,  // measure 45
1000
0000
0010
0000
0100
0001
1000
0010
,  // measure 46
0000
1000
0001
1000
0010
0100
0002
0000
,  // measure 47
0000
0000
0013
0000
0000
0001
0000
1000
,  // measure 48
0001
0010
0001
0100
0001
0000
0010
0000
,  // measure 49
0100
1000
0010
0100
0000
0001
0100
1000
,  // measure 50
0100
0001
0010
0000
0000
0000
0001
0000
,  // measure 51
0000
0100
0000
0010
,  // measure 52
0000
0000
1000
0000
0000
0000
1000
0001
,  // measure 53
1000
0001
2000
0000
0000
0000
0000
0000
,  // measure 54
3000
0000
0000
0000
0000
0000
0001
0010
,  // measure 55
0100
1000
1010
0000
0001
1000
1100
0000
,  // measure 56
1000
0001
0101
0000
1001
0000
1010
0010
,  // measure 57
0010
0000
0100
0000
0100
0010
0100
0001
,  // measure 58
0010
0100
2000
0000
3020
0000
0230
0000
,  // measure 59
0301
0000
1001
0000
0001
1000
1100
0000
,  // measure 60
1000
0001
0101
0000
0011
0000
1001
1000
,  // measure 61
1000
0001
0020
0000
0000
0000
0031
0000
,  // measure 62
0100
0000
0020
0000
0000
0000
1030
0001
,  // measure 63
1000
0001
0010
0001
0100
0000
0010
0001
,  // measure 64
0100
0000
0001
0100
1000
0100
0001
0000
,  // measure 65
0101
0000
0001
1000
0100
0000
1000
0001
,  // measure 66
0100
0010
1000
0000
0100
0000
1000
0010
,  // measure 67
1000
0010
0100
0001
1000
0000
0100
0001
,  // measure 68
1000
0000
0001
0010
1000
0010
0001
0000
,  // measure 69
1001
1000
0001
0000
0100
0000
0010
0000
,  // measure 70
1000
0010
0000
1000
0100
0010
0001
0000
,  // measure 71
1001
0000
0011
0000
,  // measure 72
1100
0000
0001
1000
0010
1000
0001
0000
,  // measure 73
0011
0000
1000
0100
1100
0000
1000
0010
,  // measure 74
0100
0001
0100
0000
0010
0000
1000
0100
,  // measure 75
1000
0100
0010
0001
0100
0000
0010
0001
,  // measure 76
0100
0000
0001
0100
1000
0100
0001
0000
,  // measure 77
0101
0001
0100
0000
0110
0000
0010
0000
,  // measure 78
1000
0100
0000
0010
0000
0001
1000
0000
,  // measure 79
0010
0100
0001
0000
0101
0000
1001
0000
,  // measure 80
0001
0100
0000
0001
0100
0010
1000
0000
;

//---------------dance-single - Copied from----------------
#NOTES:
     dance-single:
     Copied from:
     Beginner:
     1:
     0.142,0.169,0.000,0.008,0.000:
0000
0000
0000
0000
,
0000
0000
0000
0000
,
0000
0000
0000
0000
,
0000
0000
0000
0000
,
0000
0000
0000
0000
,
0000
0000
0000
0000
,
0000
0000
0000
0000
,
0000
0000
0000
1000
,
0000
0000
0000
0000
,
0000
0001
0000
0000
,
0000
0000
0000
0000
,
1000
0000
0000
0000
,
0000
0000
0001
0000
,
0000
0000
0000
0000
,
0000
0000
0200
0000
,
0000
0000
0300
0000
,
0000
0001
0001
0001
,
0000
0000
0000
0000
,
0000
0000
1000
1000
,
1000
0000
0000
0000
,
0000
0100
0100
0100
,
0000
0000
0000
0000
,
0000
0000
0010
0010
,
0010
0000
0000
0000
,
0000
0001
0000
0001
,
0000
1000
1000
1000
,
0000
0010
0000
0010
,
0000
0100
0000
0100
,
0000
0001
0000
0001
,
0000
0010
0010
0010
,
0000
0001
0000
0000
,
0000
1000
0000
0000
,
0000
0001
0001
0001
,
0000
0100
0000
0100
,
0000
0010
0010
0010
,
0000
1000
0000
1000
,
0000
0100
0100
0100
,
0000
1000
0000
1000
,
0000
0001
0001
0001
,
0000
0010
0000
0001
,
0000
0100
0000
0010
,
0000
1000
0000
0001
,
0000
1000
0000
0000
,
0000
0000
0000
0010
,
0000
0000
0000
0000
,
0000
0000
0000
0100
,
0000
0000
0000
0001
,
0000
0000
0000
0000
,
0000
0000
0000
0000
,
0000
1000
0000
0000
,
0000
0000
0000
0000
,
0000
0000
0000
0000
,
0000
0000
0000
0000
,
0000
0000
0000
0000
,
0000
0001
0001
0001
,
0000
1000
0000
1000
,
0000
0010
0000
0010
,
0000
0100
0000
0100
,
0000
0001
0001
0001
,
0000
0010
0000
0010
,
0000
1000
0000
0000
,
0000
0010
0000
0000
,
0000
0001
0001
0001
,
0000
0100
0000
0100
,
0000
0001
0001
0001
,
0000
1000
0000
1000
,
0000
0010
0010
0010
,
0000
1000
0000
1000
,
0000
0001
0001
0001
,
0000
0100
0000
0100
,
0000
0000
0100
0000
,
0100
0000
0001
0000
,
0000
0001
0000
0000
,
1000
0000
0000
1000
,
0000
0001
0000
0001
,
0000
0100
0000
0100
,
0000
0010
0000
0010
,
0000
1000
0000
1000
,
0000
0001
0000
1000
,
0000
0001
0000
1000
;
