#TITLE:Run to You;
#SUBTITLE:;
#ARTIST:Sota Fujimori feat. Runa;
#TITLETRANSLIT:;
#SUBTITLETRANSLIT:;
#ARTISTTRANSLIT:;
#CREDIT:;
#BANNER:run to you-BN.png;
#BACKGROUND:RUN TO YOU-BG.png;
#LYRICSPATH:;
#CDTITLE:;
#MUSIC:Run To You.mp3;
#OFFSET:-0.020;
#SAMPLESTART:41.510;
#SAMPLELENGTH:12.000;
#SELECTABLE:YES;
#BPMS:0.000=140.000;
#STOPS:;
#BGCHANGES:;

//---------------dance-single - ----------------
#NOTES:
     dance-single:
     :
     Easy:
     3:
     0.225,0.232,0.038,0.106,0.000:
0000
0000
0000
0000
,
0000
0000
0000
0000
,
0000
0000
0000
0000
,
0000
0000
0000
0000
,
0000
0000
0000
0000
,
0000
0000
0000
0000
,
0000
0000
0000
0000
,
0000
0000
0000
0000
,
0000
1000
1000
0001
,
0001
0010
0010
0001
,
0001
0100
0100
0010
,
0010
1000
1000
0100
,
0100
1000
1000
0001
,
0010
0010
0001
0100
,
0010
1000
0100
1000
,
1000
0001
0100
0001
,
1000
0100
1000
0010
,
0100
0002
0000
1003
,
0000
0100
1000
0010
,
0100
0020
0000
1030
,
0000
1000
0100
1000
,
0010
0200
0000
0301
,
0000
0001
0010
0001
,
1000
0002
0000
1003
,
0000
1000
1000
1000
,
0010
0100
0000
0001
,
0001
0010
0100
0000
,
0010
0001
1000
0100
,
0100
0000
0100
1000
,
0001
1000
0000
1000
,
0001
0100
0000
0001
,
1000
0100
0100
0000
,
0010
0001
0001
0100
,
0010
1000
0100
0100
,
1000
0000
0001
0100
,
0100
0001
0010
0100
,
0100
0000
0010
0001
,
1000
1000
0100
0000
,
0100
1000
0001
0100
,
0100
0001
0010
0100
,
1000
2002
0000
0000
,
0000
0000
0000
3003
,
0000
0000
0000
0000
,
0000
0000
0000
0000
,
0000
1000
0010
1000
,
0010
0100
0001
0100
,
0001
2000
0000
0000
,
3100
1000
2000
0000
,
3001
0100
0001
0100
,
0001
0100
0010
1000
,
0010
2000
0000
3100
,
0000
0010
0020
0031
,
0000
1000
1000
0100
,
1000
1000
0010
0100
,
0001
2000
0000
3100
,
0000
2000
0000
3010
,
0000
0100
0001
1000
,
0100
0010
0001
1000
,
0001
0200
0000
0301
,
1000
0200
0000
0000
,
1300
0000
0001
0001
,
1000
0100
0100
1100
,
0000
0000
0001
0100
,
0100
0001
1000
1001
,
0000
1000
1000
0100
,
1000
0010
0100
0101
,
0000
0000
0001
0001
,
1000
0100
1000
1001
;

//---------------dance-single - ----------------
#NOTES:
     dance-single:
     :
     Medium:
     6:
     0.328,0.363,0.167,0.243,0.000:
0000
0000
0000
0000
,
0000
0000
0000
0000
,
0000
0000
0000
0000
,
0000
0000
0000
0000
,
0000
0000
0000
0000
,
0000
0000
0000
0000
,
0000
0000
0000
0000
,
0000
0000
0000
0000
,
0000
0000
0002
0000
0000
0103
0000
0000
,
0010
0000
2000
0000
0000
3100
0000
0000
,
0010
0000
0002
0000
0000
1003
0000
0000
,
1000
0000
0200
0000
0000
1300
0000
1000
,
0010
0100
0002
0000
0000
0013
0000
0000
,
0001
0000
0200
0000
0000
0310
0000
0000
,
1000
0000
0200
0000
0000
1300
0000
0000
,
1000
0000
0001
0100
0010
1000
0100
0010
,
0001
0000
1000
0000
0100
0000
1000
0001
,
0100
0101
1001
2020
,
0000
3030
0000
0000
0001
0000
1000
0000
,
0100
0010
0001
0000
0011
0000
0202
0000
,
0000
0303
0000
0000
0001
0000
1000
0000
,
0100
1000
0010
0000
1010
0000
2002
0000
,
0000
3003
0000
0000
0001
0000
0010
0000
,
0001
0000
0100
0000
0010
0000
1000
0100
,
0010
0001
1000
0000
1000
0000
0100
0000
,
1000
0001
1000
0000
0001
0000
0100
0000
,
0001
0010
0100
0010
,
0001
0000
1000
0100
1000
0000
1001
0000
,
1010
0000
0010
0000
0100
0000
0001
0100
,
0010
1001
0100
1000
,
0001
0010
0100
0000
0010
0000
0001
0000
,
1000
0000
0100
1000
0100
1000
0010
0000
,
0110
0000
0001
0000
0100
0000
0001
0010
,
0001
0100
0001
0010
,
0100
0000
1000
0000
0010
0000
1000
0100
,
1000
0010
1000
0100
,
0010
0011
0001
0100
,
0001
0000
0100
0000
0010
1000
0100
0000
,
1000
0001
1000
0100
,
0010
0001
1000
0001
,
1000
0002
0000
0000
,
0000
2003
0000
0000
,
0000
3020
0000
0000
,
0000
0230
0000
0000
,
0000
0000
0301
0100
0001
0000
1000
0000
,
0100
0000
1000
0010
1000
0000
0010
0000
,
0100
0000
0001
0010
0001
0000
0100
0000
,
0001
0000
1000
0000
0100
0000
1000
0010
,
0100
0001
0010
0001
,
0100
0020
1030
0100
,
1000
0001
1000
0000
0001
0000
0100
0000
,
0010
0000
1000
0100
0010
0000
0001
0100
,
0010
0000
2000
0000
3100
0000
0010
0001
,
0010
0000
0002
0000
0103
0000
0010
1000
,
0010
0000
1000
0100
0001
0000
0001
0100
,
1000
0000
1000
0010
0100
0010
1000
0000
,
1100
0000
2000
0000
3001
0000
0010
0001
,
0010
0000
0002
0000
0103
0000
0001
1000
,
0100
0000
2000
0000
3010
0000
0100
0001
,
0100
0000
0020
0000
1030
0000
0100
0010
,
0001
0000
1000
0000
0100
0000
1000
0001
,
0100
0101
0011
0202
,
0000
0303
1000
0010
,
1000
0010
1000
0000
1010
0000
2002
0000
,
0000
0000
3003
0000
1000
0000
0010
0100
,
0001
1000
1100
2002
,
0000
0000
3003
0000
0001
0000
0010
0001
,
0010
0001
0101
2002
,
0000
3003
0000
0000
;

//---------------dance-single - Copied from Copied f----------------
#NOTES:
     dance-single:
     Copied from Copied f:
     Hard:
     8:
     0.426,0.415,0.198,0.137,0.068: // measure 1
0000
0000
0000
0000
,  // measure 2
0000
0000
0000
0000
,  // measure 3
0000
0000
0000
0000
,  // measure 4
0000
0000
0000
0000
,  // measure 5
0000
0000
0000
0000
,  // measure 6
0000
0000
0000
0000
,  // measure 7
0000
0000
0000
0000
,  // measure 8
0000
0000
0000
0000
,  // measure 9
0000
0000
0001
0000
0001
1000
0000
1000
,  // measure 10
0010
0000
0100
0000
0100
0001
0000
0001
,  // measure 11
0010
0000
0100
0000
0100
1000
0000
1000
,  // measure 12
0001
0000
0100
0000
0100
0010
0000
0010
,  // measure 13
1000
0001
0100
0000
0001
1000
0000
1000
,  // measure 14
0010
0000
0100
0000
0001
1000
0000
1000
,  // measure 15
0100
0000
1000
0000
0010
0100
0000
0100
,  // measure 16
0001
0000
1000
0100
0001
0100
1000
0010
,  // measure 17
0100
0001
0010
0001
1000
0010
1000
0100
,  // measure 18
0010
0001
1000
0000
0101
0000
2002
0000
,  // measure 19
0000
3003
0000
1000
0010
0001
0010
1000
,  // measure 20
0010
0100
0001
0000
0101
0000
0022
0000
,  // measure 21
0000
0033
0000
0001
1000
0001
0010
0100
,  // measure 22
0010
0001
1000
0000
1010
0000
0220
0000
,  // measure 23
0000
0330
0000
0001
0100
1000
0100
0001
,  // measure 24
0010
0100
0010
0000
0011
0000
1001
0001
,  // measure 25
0100
0000
0010
0000
1000
0000
0000
0000
1000
0000
0100
0000
1000
0000
0001
0100
,  // measure 26
0000
0100
0000
0010
0000
0000
0000
0000
1000
0000
0001
0000
0100
0000
0000
0001
,  // measure 27
0000
1000
0100
1000
0000
0000
0000
0000
1000
0000
0000
0000
0001
0000
0000
0000
,  // measure 28
1001
0000
0000
0001
0000
0000
0100
0000
1000
0000
0100
0000
0001
0000
0000
0000
,  // measure 29
0101
0000
0000
0000
1000
0000
0000
0000
1000
0000
0010
0000
0100
0000
0001
0100
,  // measure 30
0000
0001
0000
1001
0000
0000
0000
0000
0001
0000
0010
0000
0001
0000
1000
0100
,  // measure 31
0000
1000
0000
1001
0000
0000
0000
0000
1000
0000
0000
0000
0010
0000
0000
0000
,  // measure 32
0101
0000
0000
0001
0000
0000
1000
0000
0100
0000
0001
0000
0100
0000
1000
0000
,  // measure 33
0001
0000
0100
0000
0010
0000
0000
0000
1000
0000
0000
0000
0100
0000
0000
1000
,  // measure 34
0000
0001
0000
0001
0010
0100
1000
0000
,  // measure 35
1010
0000
0000
0000
1000
0000
0000
0000
0010
0000
0000
0000
0100
0000
0000
0001
,  // measure 36
0000
0000
0020
0000
0000
0000
0000
0000
0000
0000
0031
0000
1000
0000
0000
0100
,  // measure 37
0000
0000
1000
0000
0010
0000
0000
0000
0001
0000
0000
0000
0010
0000
0000
1100
,  // measure 38
0000
1010
0000
1000
0001
0100
0001
1000
,  // measure 39
0010
0000
1000
0010
0100
0000
0001
0100
,  // measure 40
0010
1000
0000
1010
0000
2001
0000
0000
,  // measure 41
3001
0100
0010
0000
0000
1000
0000
1000
,  // measure 42
0000
0001
0000
0001
0000
1000
0000
1000
,  // measure 43
0000
0010
0000
0010
0000
0100
0000
0100
,  // measure 44
0000
0001
0000
0001
0000
0010
0000
0010
,  // measure 45
0000
0010
0001
0100
0010
0000
1000
0001
,  // measure 46
0100
0000
0001
0010
0001
2000
0000
3100
,  // measure 47
1000
0001
0100
0010
0100
0000
0001
0100
,  // measure 48
0010
0000
1000
0100
0001
0100
0010
0001
,  // measure 49
1000
0001
0001
0100
0010
0000
1000
0001
,  // measure 50
1000
0000
0001
0100
0010
0200
0000
0310
,  // measure 51
1000
0001
0100
0001
0010
0000
0001
0010
,  // measure 52
0001
0000
1000
0010
0100
0001
0010
1000
,  // measure 53
0010
0001
1000
0010
0100
0000
0100
0010
,  // measure 54
1000
0000
0100
1000
0001
0020
0000
0031
,  // measure 55
0010
0100
1000
0001
1000
0000
0010
0100
,  // measure 56
0001
0000
1000
0010
0001
0010
0100
0001
,  // measure 57
1000
0001
0001
0010
0001
0000
1000
0001
,  // measure 58
0100
0000
0010
0100
0001
0200
0000
0310
,  // measure 59
1000
0001
1000
0010
0100
0000
0001
1000
,  // measure 60
0100
0000
0100
1000
0001
0100
0010
1000
,  // measure 61
0100
0100
1000
0001
0010
0001
0100
0001
,  // measure 62
0010
0100
1000
0000
1001
0000
2020
0000
,  // measure 63
0000
3030
0000
1000
0100
0001
0100
1000
,  // measure 64
0010
1000
0001
0000
1010
0000
0220
0000
,  // measure 65
0000
0330
0000
1000
0001
1000
0100
1000
,  // measure 66
0010
0100
0001
0000
0101
0000
2002
0000
,  // measure 67
0000
3003
0000
0001
0010
1000
0010
0001
,  // measure 68
1000
0001
0100
0000
0101
0000
1010
1000
,  // measure 69
0100
0010
0001
0000
0000
0000
0000
0000
;

//---------------dance-single - Copied from----------------
#NOTES:
     dance-single:
     Copied from:
     Beginner:
     2:
     0.167,0.206,0.000,0.000,0.000:
0000
0000
0000
0000
,
0000
0000
0000
0000
,
0000
0000
0000
0000
,
0000
0000
0000
0000
,
0000
0000
0000
0000
,
0000
0000
0000
0000
,
0000
0000
0000
0000
,
0000
0000
0000
0000
,
0000
1000
1000
0000
,
1000
0010
0010
0000
,
0100
0001
0001
0000
,
0010
0000
0000
0000
,
0010
0001
0001
0000
,
1000
1000
1000
0000
,
0010
0100
0100
0000
,
0001
0010
0100
0000
,
0010
0001
1000
0100
,
1000
0001
0001
0001
,
0000
1000
0100
1000
,
0010
0100
0100
0100
,
0000
0000
0001
1000
,
0100
1000
1000
1000
,
0000
0000
1000
0100
,
1000
0001
0001
0001
,
0000
0100
0100
0100
,
0000
0010
0010
0010
,
0000
1000
1000
0100
,
0000
0001
0001
0100
,
0000
1000
1000
0010
,
0000
0100
0100
0001
,
0000
0001
0001
0010
,
0000
0001
1000
0100
,
0000
1000
0000
1000
,
0000
0001
0000
0001
,
0000
0010
0000
0010
,
0000
0001
0000
0001
,
0000
0100
0000
0100
,
0000
1000
0000
1000
,
0000
0100
0000
0001
,
0000
0010
0000
0100
,
0000
1000
0000
0000
,
0000
0000
0000
0000
,
0000
0000
0000
0000
,
0000
0000
0000
0000
,
0000
0001
0001
0000
,
0001
1000
1000
0000
,
1000
0010
0000
0010
,
0000
0100
0000
0100
,
0001
1000
0000
0100
,
0000
0100
0000
1000
,
0000
1000
0000
0001
,
0000
0001
0001
0100
,
0100
0010
0000
0010
,
0000
1000
0000
1000
,
0000
0001
0000
0001
,
0000
1000
1000
0001
,
0001
0100
0000
0100
,
0000
0010
0000
0010
,
0000
1000
1000
0000
,
0001
1000
1000
0000
,
0010
0100
0100
0001
,
0000
1000
1000
1000
,
0000
0100
0100
1000
,
0001
0100
0100
0010
,
0000
0000
0010
1000
,
0100
0000
1000
1000
,
0000
0001
0010
0001
,
0000
0100
0100
0010
;
