#TITLE:恋愛レボリューション21;
#SUBTITLE:-Akiba Koubou mix-;
#ARTIST:DJ Command feat. Usa & Tomimin;
#TITLETRANSLIT:Renai Revolution 21;
#SUBTITLETRANSLIT:;
#ARTISTTRANSLIT:;
#CREDIT:;
#BANNER:RENAI REVOLUTION21 -AKIBA KOUBOUmix-.png;
#BACKGROUND:renai revolution 21-bg.png;
#LYRICSPATH:;
#CDTITLE:;
#MUSIC:2.04. {[V21 -HtH[mix-.mp3;
#OFFSET:0.720;
#SAMPLESTART:70.210;
#SAMPLELENGTH:12.000;
#SELECTABLE:YES;
#BPMS:0.000=158.000;
#STOPS:;
#BGCHANGES:;

//---------------dance-single - Copied from Copied f----------------
#NOTES:
     dance-single:
     Copied from Copied f:
     Hard:
     8:
     0.613,0.603,0.373,0.174,0.108: // measure 1
0000
0000
0000
0000
,  // measure 2
0000
0000
0000
0000
,  // measure 3
0000
0000
0000
0000
,  // measure 4
0000
0000
0000
0000
,  // measure 5
0000
0000
0000
0000
0000
0000
0000
0000
0000
0000
0000
0000
1000
0000
0000
0010
,  // measure 6
0000
0100
0001
0000
2001
0000
3001
0010
,  // measure 7
0001
0010
0100
1000
0100
1000
0001
1000
,  // measure 8
0010
0100
0001
0000
0101
0000
0001
0100
,  // measure 9
0010
0000
1000
0100
0010
0000
0001
1000
,  // measure 10
0100
1000
1001
0000
1001
0000
1000
0001
,  // measure 11
1000
0001
0010
0100
0010
0100
1000
0010
,  // measure 12
0100
0001
0100
0000
0101
0000
1000
0001
,  // measure 13
0100
0000
0000
0000
0001
0000
1000
0000
0100
0000
1000
0000
0010
0000
0000
0010
,  // measure 14
0000
0000
0100
0000
0001
0000
0000
0001
0000
0000
1000
0000
0100
0000
0010
0000
,  // measure 15
0001
0100
0000
0100
0020
0000
1030
0100
,  // measure 16
1000
0001
0100
0000
0101
0000
0001
0100
,  // measure 17
0001
1000
0100
0000
1100
0000
0001
0100
,  // measure 18
1000
0000
0100
0000
0001
0000
0010
0000
0100
0000
1000
0000
0001
0000
0000
1000
,  // measure 19
0000
0001
0000
0100
0002
0000
1003
0001
,  // measure 20
0100
0010
0100
0000
0110
0000
0010
1000
,  // measure 21
0001
1000
0001
0000
1001
0000
0001
0010
,  // measure 22
1000
0000
0010
0000
0001
0000
0100
0000
0010
0000
1000
0000
0001
0000
0000
1000
,  // measure 23
0000
0100
0000
1000
0010
0200
0000
0301
,  // measure 24
1000
0001
0010
0010
0000
0002
0000
1003
,  // measure 25
0100
0000
0001
0000
0100
0000
1000
0000
0001
0000
0100
0001
0000
0000
0000
0000
,  // measure 26
0011
0000
1100
0000
0000
0002
0000
0013
,  // measure 27
0001
0010
0100
0100
1000
0002
0000
0103
,  // measure 28
0010
1000
0100
1000
0001
0002
0000
1003
,  // measure 29
0010
0000
0001
0000
0010
0000
1000
0000
0100
0000
0010
0100
0000
0000
0000
0000
,  // measure 30
0110
0000
1001
0000
0000
2000
0000
3010
,  // measure 31
0100
0000
0001
0000
1000
0000
0010
0000
1000
0010
1000
0010
1000
0000
0001
0000
,  // measure 32
0100
0001
0010
0001
1000
0000
0011
0000
,  // measure 33
1100
0000
0011
0000
1100
0000
1000
0010
,  // measure 34
1000
0001
1000
0100
1000
0000
1010
0000
,  // measure 35
0101
0000
1010
0000
0101
0000
1000
0100
,  // measure 36
0010
0001
0100
0010
1000
0000
1001
0000
,  // measure 37
0110
0000
1001
0000
0110
0000
0001
0010
,  // measure 38
0100
1000
0010
0100
0001
0000
0021
0000
,  // measure 39
0031
0000
2100
0000
3010
0000
1000
0100
,  // measure 40
1000
0000
0001
0100
0001
0000
1000
0010
,  // measure 41
0100
0020
0000
1030
0001
0000
0001
1000
,  // measure 42
0100
0000
0100
1000
0010
0000
0010
0100
,  // measure 43
0001
0200
0000
0301
0010
0000
0001
0010
,  // measure 44
0100
0000
1000
0010
0100
0000
0001
0100
,  // measure 45
0010
2000
0000
3100
0010
0000
0001
1000
,  // measure 46
0001
0000
0100
0010
0100
0000
0010
1000
,  // measure 47
0001
0000
2000
0000
0000
0000
3001
0000
1000
0001
1000
0001
1000
0000
0010
0000
,  // measure 48
0100
0010
1000
0001
0010
0001
1000
0100
,  // measure 49
0001
0100
1000
0000
1010
0000
1000
0001
,  // measure 50
0100
0000
0000
0000
0010
0000
1000
0000
0100
0000
0010
0000
0001
0000
0000
0001
,  // measure 51
0000
0000
1000
0000
0100
0000
0000
0100
0000
0000
1000
0000
0010
0000
0100
0000
,  // measure 52
0001
1000
0000
1000
0100
1000
0010
0100
,  // measure 53
0001
1000
0000
0200
0000
0000
0000
0000
1300
0000
0000
0000
0010
0000
0100
0000
,  // measure 54
0001
0010
0000
0002
0000
0000
0000
0000
1003
0000
0000
0000
0001
0000
0100
0000
,  // measure 55
1000
0100
0001
0000
0011
0000
0101
0000
,  // measure 56
1010
0000
0000
0000
2001
0000
0000
0000
0001
3000
0000
0000
0001
0000
1000
0000
,  // measure 57
0010
1000
0000
0020
0000
0000
0000
0000
0130
0000
0000
0000
0001
0000
1000
0000
,  // measure 58
0100
0000
0000
2000
0000
0000
0000
0000
3100
0000
0000
0000
1000
0000
0010
0000
,  // measure 59
0001
0010
1000
0000
1001
0000
1010
0000
,  // measure 60
0101
0000
0000
0000
0110
0000
0000
0000
0010
1000
0010
1000
0010
0000
1000
0000
,  // measure 61
0100
1000
0010
0100
0001
0010
0001
0100
,  // measure 62
0010
1000
0100
0000
1100
0000
1000
0001
,  // measure 63
0010
0000
0001
0010
0001
1000
0010
1000
,  // measure 64
0100
0000
1100
0000
1100
0000
0001
0010
,  // measure 65
0100
1000
0001
1000
0100
0001
0100
1000
,  // measure 66
0010
0100
0001
0000
0101
0000
1000
0001
,  // measure 67
0100
0000
0000
0000
0010
0000
1000
0000
0010
0000
0100
0000
0001
0000
0000
0001
,  // measure 68
0000
0000
1000
0000
0010
0000
0000
0010
0000
0000
1000
0000
0001
0000
0010
0000
,  // measure 69
0001
1000
0000
1000
0100
1000
0001
0100
,  // measure 70
0010
1000
0100
0000
1100
0000
1000
0010
,  // measure 71
0100
0001
0010
0000
0011
0000
0001
0100
,  // measure 72
1000
0000
0100
0000
0001
0000
0010
0000
1000
0000
0010
0000
0001
0000
0000
1000
,  // measure 73
0000
0100
0000
1000
0020
0000
0130
0001
,  // measure 74
0010
0001
1000
0000
1001
0000
0001
0100
,  // measure 75
0010
1000
0010
0000
0110
0000
0010
1000
,  // measure 76
0100
0000
0001
0000
0100
0000
1000
0000
0010
0000
0100
0000
0001
0000
0000
1000
,  // measure 77
0000
0100
0000
1000
1001
0000
0000
0000
;

//---------------dance-single - ----------------
#NOTES:
     dance-single:
     :
     Medium:
     6:
     0.410,0.444,0.207,0.050,0.017:
0000
0000
0000
0000
,
0000
0000
0000
0000
,
0000
0000
0000
0000
,
0000
0000
0000
0000
,
0000
0000
0000
0000
,
0000
0000
0000
1000
,
0100
1000
0100
0010
,
0001
0000
1000
0001
1000
0000
0001
0000
,
0100
0001
0100
0010
,
1000
0200
1300
0100
,
1000
0000
0010
0000
0100
0000
0001
0100
,
0001
0100
0010
1000
,
0100
1000
0001
0100
,
1000
0100
0001
0022
,
0000
0000
0033
1000
,
0100
0000
1000
0010
1000
0000
0010
0000
,
0100
0000
0001
0100
0001
0000
1000
0000
,
1000
0000
0000
0000
0001
0000
1000
0000
0001
0000
0000
0000
0100
0000
0000
0001
,
0000
0100
0000
0001
0100
0000
0010
0000
,
1000
0000
0010
0000
1000
0000
0100
1000
,
0100
0000
1000
0000
0001
0000
1000
0001
,
1000
0000
0000
0000
0001
0000
0000
0000
0100
0000
0000
0000
0001
0000
0000
0001
,
0000
0001
0000
0000
0000
0000
0010
0000
,
0001
0000
0010
0001
0010
0000
1000
0000
,
0010
0000
0001
1000
0001
0000
0101
0000
,
1010
0000
1100
0000
0000
1000
0000
0100
,
1000
0100
1000
0001
0000
0000
0001
0000
,
0100
0000
0010
1000
0010
0000
1000
0000
,
0100
0000
1000
0001
1000
0000
0010
0000
,
1010
0000
1001
0000
0000
0001
0000
0001
,
1000
0001
1000
0001
0000
0000
0001
0000
,
0100
0001
0100
0101
,
0101
0101
0101
1000
,
0100
1000
0100
1100
,
1100
1100
1100
1000
,
0001
1000
0001
1001
,
1001
1001
1001
0001
,
0010
0100
1000
0100
,
0010
0000
0001
0000
1000
0000
0100
0100
,
0100
1000
0001
1000
,
0001
0000
0000
0000
0000
0000
1000
1000
,
1000
0010
0100
0010
,
0100
0000
0000
0000
0000
0000
0001
0001
,
0001
0100
0001
0100
,
0010
0000
1000
0000
0000
0000
0100
0100
,
0100
1000
0001
1000
,
0001
1000
0002
0103
,
0100
0100
0100
0001
,
0001
0001
0001
0010
,
0010
0010
0010
0100
,
1000
0000
0100
0000
1000
0000
0001
1000
,
0001
1000
0001
0100
,
0100
0001
0011
0001
,
0100
0000
0001
0000
0101
0000
0001
0100
,
0001
0100
0001
0000
1000
0000
0100
0000
,
1000
0020
0130
1000
,
0100
0000
1000
0100
1000
0000
0001
0000
,
0100
0000
0001
0100
0001
0000
1000
0000
,
0100
1000
0001
1001
,
0110
2001
3001
0001
,
1000
0000
0001
1000
0001
0000
1000
0000
,
0100
0000
1000
0100
1000
0000
0100
0000
,
0010
0000
0001
1000
0001
0000
0100
0000
,
0001
0101
0101
0001
,
0100
0000
0010
1000
0010
0000
1000
0000
,
0100
0000
1000
0100
1000
0000
0001
0000
,
0100
0000
0001
0000
0100
0000
0010
1000
,
0010
0000
1000
0100
1000
0000
0001
1000
,
0001
1000
0000
1000
0001
0000
0001
0000
,
0100
0000
0001
0100
0001
0000
0100
0000
,
0001
0000
0100
0010
0100
0000
0010
0000
,
1000
0000
0000
0000
0100
0000
0001
0000
0100
0000
0000
0000
1000
0000
0000
0010
,
0000
0100
0000
0001
1000
0000
0100
0000
,
1000
0000
0010
1000
0010
0000
0100
0000
,
0001
0000
1000
0001
1000
0000
0100
0000
,
1000
0000
0000
0000
0100
0000
0010
0000
0001
0000
0000
0000
1000
0000
0000
0100
,
0000
1000
0000
0001
1000
0000
0000
0000
;

//---------------dance-single - ----------------
#NOTES:
     dance-single:
     :
     Easy:
     4:
     0.338,0.348,0.108,0.066,0.000:
0000
0000
0000
0000
,
0000
0000
0000
0000
,
0000
0000
0000
0000
,
0000
0000
0000
0000
,
0000
0000
0000
0000
,
0000
0000
0000
1000
,
1000
1000
1000
0001
,
0001
0001
0001
0100
,
0001
0100
0010
1000
,
0100
1100
1100
0001
,
0001
0001
0001
1000
,
1000
1000
1000
0010
,
0100
0001
1000
0200
,
0000
2300
0000
3002
,
0000
0000
0000
1003
,
1000
1000
0001
0010
,
0010
0010
0001
0100
,
0010
1000
0100
0001
,
0100
1000
0010
0100
,
0001
0100
0010
1000
,
1000
0100
1000
0001
,
0010
1000
0010
0001
,
0100
0100
0100
0001
,
0001
0001
1000
0100
,
1000
0010
1000
0100
,
0011
0101
0000
0000
,
0001
1000
0001
0001
,
1000
0100
1000
0010
,
1000
0100
1000
0001
,
0011
1100
0000
1000
,
0100
1000
1000
0010
,
0100
0001
0010
0100
,
0100
0100
0100
0010
,
0001
1000
0001
0010
,
0010
0010
0010
0001
,
0100
1000
0100
0001
,
0001
0001
0001
0010
,
0100
0010
0001
1000
,
0100
1000
0001
0100
,
0100
0001
0001
0010
,
0010
0100
0100
1100
,
1100
0001
0100
0010
,
1000
0100
1000
0001
,
0001
0010
0010
0100
,
0100
1000
1000
1010
,
1010
0010
0100
0001
,
0100
0010
1000
0100
,
0100
0100
0100
1000
,
0001
1000
0001
0100
,
0001
0100
0001
1000
,
0000
1000
0000
0001
,
0001
0001
0001
1000
,
1000
0200
0000
1300
,
1000
0002
0000
0103
,
0001
1000
0100
0100
,
0010
0001
0000
0001
,
0010
0200
0000
0310
,
0001
2000
0000
3100
,
1000
0001
1000
0010
,
1000
0100
0000
0001
,
0001
0001
0001
0100
,
1000
0010
0010
0010
,
0010
0100
0001
1000
,
0100
1100
1100
0001
,
0010
1000
0010
0001
,
0100
0100
0001
0010
,
0001
0100
0100
0010
,
1000
0100
1000
0002
,
0000
0000
0003
1000
,
1000
1000
1000
0001
,
0010
0001
0100
0010
,
0010
0100
0001
1000
,
0100
1000
1001
0001
,
0100
0010
0010
1000
,
0100
1000
0001
1000
,
0100
1000
0001
0100
,
0001
1000
0000
0000
;

//---------------dance-single - Copied from----------------
#NOTES:
     dance-single:
     Copied from:
     Beginner:
     2:
     0.237,0.286,0.033,0.075,0.000:
0000
0000
0000
0000
,
0000
0000
0000
0000
,
0000
0000
0000
0000
,
0000
0000
0000
0000
,
0000
0000
0000
0000
,
0000
0000
0000
1000
,
1000
1000
0000
0001
,
0001
0001
0000
1000
,
1000
0001
0001
0010
,
0010
0001
0001
0100
,
0100
0100
0000
0001
,
0001
0001
0000
0010
,
0010
0010
0000
1000
,
0010
0001
0000
0100
,
0000
0000
0000
0001
,
0001
0001
0000
1000
,
1000
1000
0000
0010
,
0000
0010
0000
0100
,
0100
0100
0000
0001
,
0001
0001
0000
0010
,
0010
0010
0000
1000
,
0000
1000
0000
0010
,
0010
0010
0000
0001
,
0000
0001
0000
0001
,
0000
0001
1000
1001
,
0000
1000
0000
1000
,
0000
1000
0100
1000
,
0000
1000
0000
1000
,
0000
0001
0100
0101
,
0000
0001
0000
0001
,
0000
1000
0000
1000
,
0000
0010
0000
0100
,
0100
0100
0100
0000
,
0001
0000
0001
0010
,
0010
0010
0010
0000
,
0001
0000
0001
1000
,
1000
1000
1000
0000
,
0001
0000
0100
0000
,
0001
0000
1000
0100
,
0100
0000
0000
0010
,
0010
0000
0000
0001
,
0001
0000
0000
0100
,
0100
0000
0000
0010
,
0010
0000
0000
1000
,
1000
0000
0000
0100
,
0100
0000
0000
1000
,
1000
0000
0000
0002
,
0000
0000
0000
1003
,
1000
0000
0100
0000
,
0100
0000
1000
0001
,
0001
0000
0100
0100
,
0000
0000
0000
0001
,
0001
0001
0000
1000
,
1000
1000
0000
0020
,
0030
0200
0300
0020
,
0030
0200
0300
0001
,
0001
0001
0000
1000
,
1000
1000
0000
0200
,
0300
2000
3000
0200
,
0300
2000
3000
0001
,
0001
0001
0001
0000
,
0100
0000
0100
0001
,
0001
0001
0001
0000
,
1000
0000
1000
0100
,
0100
0100
0100
0000
,
0010
0000
0010
0000
,
0001
0000
0001
1000
,
1000
1000
1000
1000
,
0000
0000
0000
0001
,
0010
0001
0000
0100
,
0001
0100
0000
0001
,
0001
1000
1000
0001
,
1000
1001
0000
1000
,
1000
0100
0000
0100
,
0100
1000
0000
0001
,
0010
0001
0000
0001
,
0100
0010
1001
0000
;
