#TITLE:Psychology;
#SUBTITLE:;
#ARTIST:SENAX;
#TITLETRANSLIT:;
#SUBTITLETRANSLIT:;
#ARTISTTRANSLIT:;
#CREDIT:;
#BANNER:psychology-bn.png;
#BACKGROUND:psychology-bg.png;
#LYRICSPATH:;
#CDTITLE:;
#MUSIC:Psychology.mp3;
#OFFSET:0.045;
#SAMPLESTART:48.530;
#SAMPLELENGTH:15.000;
#SELECTABLE:YES;
#BPMS:0.000=120.000;
#STOPS:;
#BGCHANGES:;

//---------------dance-single - ----------------
#NOTES:
     dance-single:
     :
     Hard:
     7:
     0.376,0.416,0.186,0.115,0.009: // measure 1
0000
0000
0000
0000
,  // measure 2
0000
0000
0000
0000
,  // measure 3
0000
0000
0000
0000
,  // measure 4
0000
0000
0000
0000
,  // measure 5
0000
0000
1000
0000
0100
0000
1000
0010
,  // measure 6
0100
0000
0001
0000
0010
0000
0001
0100
,  // measure 7
0010
0000
1000
0000
0100
0000
1000
0001
,  // measure 8
0010
0000
0001
0010
0100
1000
0010
0100
,  // measure 9
0001
1000
0001
0010
0001
1000
0100
0010
,  // measure 10
0000
0002
0000
0013
0001
0100
0001
0000
,  // measure 11
1001
0000
0001
1000
0010
0100
0001
0200
,  // measure 12
0000
0301
0000
0100
0001
0010
1000
0010
,  // measure 13
0001
1000
1100
0001
,  // measure 14
0101
0000
0011
0000
0001
0100
1000
0100
,  // measure 15
0001
0100
0110
0010
,  // measure 16
1010
0000
1001
1000
0100
0010
0001
0010
,  // measure 17
0100
1000
0001
0100
0010
0100
0001
0010
,  // measure 18
0000
0200
0000
0310
0001
0100
0010
0000
,  // measure 19
0110
0000
1010
1000
0100
1000
0010
0100
,  // measure 20
0000
0002
0000
1003
0100
1000
0001
0000
,  // measure 21
0101
1001
1010
1000
,  // measure 22
1001
0000
0011
0000
1000
0100
0001
0100
,  // measure 23
1000
0010
0110
0100
,  // measure 24
0101
0000
1001
0001
0010
0100
1000
0100
,  // measure 25
0010
0000
0001
0000
1000
0000
0001
0100
0001
0000
0010
0000
0001
0000
0010
0000
,  // measure 26
0100
0020
0000
0130
1000
0100
1000
0000
,  // measure 27
1010
0000
0101
0100
0001
1000
0100
1000
,  // measure 28
0010
0100
0001
0000
0001
2000
0000
3010
,  // measure 29
0100
0001
1000
0100
1000
0010
0100
0001
,  // measure 30
1000
0000
0100
1000
0001
0010
0001
0000
,  // measure 31
0010
0001
1000
0000
0010
1000
0100
0000
,  // measure 32
1000
0010
0001
0010
1000
0100
0010
0001
,  // measure 33
0100
0010
2000
0000
0100
0000
0000
0000
,  // measure 34
3001
0000
0100
0000
,  // measure 35
1000
0000
0010
0000
,  // measure 36
0001
0000
1000
0000
,  // measure 37
0010
0000
0001
0000
,  // measure 38
0100
0000
1000
0000
,  // measure 39
0001
0010
0010
0001
,  // measure 40
1000
0000
0100
0000
0100
0000
1000
0010
,  // measure 41
1000
0000
0100
0000
0010
0000
0001
1000
0001
0000
0100
0000
0010
0000
1000
0000
,  // measure 42
0001
0020
0000
0031
1000
0100
1000
0000
,  // measure 43
1010
0000
0110
0010
0100
0001
0010
0100
,  // measure 44
0010
0100
1000
0000
1000
0002
0000
0103
,  // measure 45
0010
1000
0001
0100
1000
0100
0001
1000
,  // measure 46
0100
0000
1000
0100
1000
0001
0100
0000
,  // measure 47
0001
0010
0100
0000
1000
0001
0100
0000
,  // measure 48
0001
0010
1000
0010
0001
0100
0010
1000
,  // measure 49
0001
1000
0020
0000
0000
0000
0000
0000
,  // measure 50
0130
0001
1000
0001
,  // measure 51
0100
0020
0000
2030
,  // measure 52
0000
3002
0000
0013
,  // measure 53
0001
0100
0000
0000
;

//---------------dance-single - ----------------
#NOTES:
     dance-single:
     :
     Medium:
     5:
     0.288,0.328,0.097,0.248,0.000:
0000
0000
0000
0000
,
0000
0000
0000
0000
,
0000
0000
0000
0000
,
0000
0000
0000
0000
,
0000
2000
0010
0010
,
3020
0230
0302
0203
,
0320
2030
0100
3020
,
0001
2030
0001
3020
,
0230
0000
0301
0000
1000
0000
0100
1000
,
0100
1000
0001
0101
,
1001
0000
0001
0000
1000
0000
0001
0100
,
0001
1000
0010
1010
,
1001
2000
3010
0001
,
0010
0000
1000
0000
0100
0010
0001
0000
,
0101
0002
0103
0010
,
1000
0000
0010
0000
0001
0000
0100
0001
,
0100
0000
0001
0000
1000
0000
0100
1000
,
0100
1000
0010
1010
,
1001
0000
0001
0000
0100
0000
0001
0100
,
0001
0100
0010
0110
,
1001
2000
3100
0010
,
0001
0000
0010
0000
1000
0100
0010
0000
,
0001
0200
0301
0010
,
1000
0000
0100
0000
1000
0010
0100
0000
,
0101
0000
0001
0000
1000
0000
0001
1000
,
0001
1000
0010
0200
,
0010
0310
1000
0100
,
1000
0001
1000
0000
0001
0000
0200
0000
,
0001
0301
0100
0001
,
0100
0010
1000
0000
0100
0000
1000
0000
,
0002
1000
2003
0001
,
3001
0100
0001
0000
1000
0100
1000
0000
,
0001
1001
0000
0000
,
1000
0000
1000
0000
,
0001
0000
0001
0000
,
0100
0000
0100
0000
,
0010
0000
0010
0000
,
1000
0000
1000
0000
,
0001
0000
0001
0000
,
0010
0000
0010
0000
,
0001
0000
1000
0000
0100
0000
1000
0001
,
1000
0001
0100
0200
,
0001
0000
0301
0000
1000
0000
0010
0001
,
0010
1000
0100
2000
,
0010
3010
0100
0001
,
0100
0001
0100
0000
0001
0000
0100
0000
,
0010
2000
3100
0020
,
0031
0000
1000
0000
0100
0000
1000
0001
,
1000
0002
0000
0000
,
1003
0100
1000
0010
,
0001
0020
0000
2030
,
0000
3200
0000
0310
,
0001
2000
0000
0000
,
0000
3000
0000
0000
0000
0000
0000
0000
0000
0000
0000
0000
0000
0000
0000
0000
0000
0000
0000
0000
0000
0000
0000
0000
0000
0000
0000
0000
0000
0000
0000
0000
0000
0000
0000
0000
0000
0000
0000
0000
0000
0000
0000
0000
0000
0000
0000
0000
0000
0000
0000
0000
0000
0000
0000
0000
0000
0000
0000
0000
0000
0000
0000
0000
0000
0000
0000
0000
0000
0000
0000
0000
0000
0000
0000
0000
0000
0000
0000
0000
0000
0000
0000
0000
0000
0000
0000
0000
0000
0000
0000
0000
0000
0000
0000
0000
0000
0000
0000
0000
0000
0000
0000
0000
0000
0000
0000
0000
0000
0000
0000
0000
0000
0000
0000
0000
0000
0000
0000
0000
0000
0000
0000
0000
0000
0000
0000
0000
0000
0000
0000
0000
0000
0000
0000
0000
0000
0000
0000
0000
0000
0000
0000
0000
0000
0000
0000
0000
0000
0000
0000
0000
0000
0000
0000
0000
0000
0000
0000
0000
0000
0000
0000
0000
0000
0000
0000
0000
0000
0000
0000
0000
0000
0000
0000
0000
0000
0000
0000
0000
0000
0000
0000
0000
0000
0000
0000
0000
0000
0000
0000
0000
;

//---------------dance-single - ----------------
#NOTES:
     dance-single:
     :
     Easy:
     3:
     0.210,0.254,0.027,0.044,0.000:
0000
0000
0000
0000
,
0000
0000
0000
0000
,
0000
0000
0000
0000
,
0000
0000
0000
0000
,
0000
1000
1000
1000
,
1000
0001
0001
0001
,
0001
1000
1000
1000
,
1000
0001
0001
0001
,
0001
0100
0100
0000
,
0100
0001
0010
0010
,
0001
0000
0001
1000
,
0100
1000
1000
0010
,
0100
0001
0001
0001
,
0001
1000
0100
0001
,
0100
1000
1000
1000
,
1000
0010
0100
0001
,
0100
0010
0010
1000
,
0000
0100
0100
1000
,
0001
1000
0100
1000
,
0000
0100
0010
0001
,
0001
0010
0100
0010
,
0001
0100
1000
0100
,
0100
0100
0010
1000
,
0100
0010
0001
1000
,
0001
1001
0000
1000
,
1000
0100
1000
0010
,
0010
0010
0000
0100
,
0001
0100
0100
0001
,
0010
0010
0000
0001
,
0001
1000
1000
0100
,
1000
0020
0130
0002
,
1003
0100
1000
0100
,
0010
0011
0000
0000
,
0000
0000
0000
0000
,
0001
0000
0001
0000
,
1000
0000
0000
0000
,
1000
0000
0100
0000
,
0100
0000
0100
0000
,
0000
0000
0010
0000
,
0001
0000
1000
0000
,
0100
0000
1000
1000
,
1000
0010
1000
0100
,
0100
0100
0000
0010
,
0010
0001
0100
0001
,
0001
0001
0000
1000
,
0010
1000
0100
1000
,
1000
1000
0001
0001
,
0100
0100
0010
0010
,
1000
1000
0000
0000
,
0001
1000
0001
1000
,
0001
2000
0000
3002
,
0000
2003
0000
3001
,
1000
1001
0000
0000
;

//---------------dance-single - ----------------
#NOTES:
     dance-single:
     :
     Beginner:
     1:
     0.124,0.139,0.000,0.000,0.000:
0000
0000
0000
0000
,
0000
0000
0000
0000
,
0000
0000
0000
0000
,
0000
0000
0000
0000
,
0000
1000
0000
0000
,
0000
1000
0000
0000
,
0000
0100
0000
0000
,
0000
0100
0000
0000
,
0010
0010
0000
0001
,
0000
0001
0000
1000
,
1000
0000
0001
0000
,
0001
0000
0100
0010
,
0010
0100
0000
0100
,
0000
0100
0000
0001
,
0001
1000
0000
1000
,
0000
1000
0000
0100
,
0100
0000
0010
0000
,
0010
0000
0010
0100
,
0100
0000
0010
0000
,
0001
0000
1000
0100
,
0100
1000
0000
1000
,
0000
0001
0000
0100
,
0100
0001
0000
0010
,
0000
0001
0000
1000
,
1000
0100
0100
0100
,
0000
1000
0000
1000
,
0000
0001
0001
0001
,
0000
0010
0000
0010
,
0000
0001
0001
0001
,
0000
0100
0000
0100
,
0000
0001
0000
1000
,
0000
0001
0000
1000
,
0000
0010
0000
0000
,
0000
0000
0000
0000
,
0000
0000
0000
0000
,
0000
0000
0000
0000
,
0000
0000
0000
0000
,
0000
0000
0000
0000
,
0000
1000
0000
1000
,
0000
0001
0000
0001
,
0000
0010
0010
0010
,
0000
0001
0000
0001
,
0000
0100
0100
0100
,
0000
0001
0000
0001
,
0000
1000
1000
1000
,
0000
0010
0000
0010
,
0000
0100
0000
0100
,
0000
0100
0000
0001
,
0001
0001
0000
0000
,
1000
0000
1000
0000
,
0001
0000
0000
0100
,
0000
0001
0000
0010
,
0010
0010
0000
0000
;
