#TITLE:POODLE;
#SUBTITLE:;
#ARTIST:Y&Co.;
#TITLETRANSLIT:;
#SUBTITLETRANSLIT:;
#ARTISTTRANSLIT:;
#CREDIT:;
#BANNER:POODLE.png;
#BACKGROUND:POODLE-BG.PNG;
#LYRICSPATH:;
#CDTITLE:;
#MUSIC:POODLE.mp3;
#OFFSET:0.240;
#SAMPLESTART:40.280;
#SAMPLELENGTH:12.000;
#SELECTABLE:YES;
#BPMS:0.000=160.000;
#STOPS:;
#BGCHANGES:0.000=POODLE.avi=1.000=1=1=0,
313.500=POODLE-BG.png=1.000=0=0=1,
99999=-nosongbg-=1.000=0=0=0 // don't automatically add -songbackground-
;

//---------------dance-single - Blank----------------
#NOTES:
     dance-single:
     Blank:
     Hard:
     9:
     0.632,0.545,0.409,0.098,0.078: // measure 1
0000
0000
0000
0000
,  // measure 2
0000
0000
0000
0000
0000
0000
0000
0000
0001
0000
0100
0000
0010
0000
0000
0010
,  // measure 3
0000
0000
0100
0000
0010
0000
1000
0000
0100
0000
1000
0000
0001
0000
0000
0001
,  // measure 4
0000
0000
0010
0000
0001
0000
1000
0000
0010
0000
1000
0000
0100
0000
0000
0100
,  // measure 5
0000
0000
1000
0000
0010
0000
0100
0000
0001
0000
0010
0000
0100
0000
0000
0100
,  // measure 6
0000
0000
1000
0000
0010
0000
0100
0000
0001
0000
1000
0000
0100
0000
0000
0100
,  // measure 7
0000
0000
1000
0000
0001
0000
1000
0000
0100
0000
0010
0000
0001
0000
0000
0001
,  // measure 8
0000
0000
1000
0000
0010
0000
0100
0000
0001
0000
0100
0000
0010
0000
0000
0010
,  // measure 9
0000
0000
0100
0000
0001
0000
1000
0000
0100
0000
1000
0000
0001
0000
0000
0001
,  // measure 10
0000
0100
0010
0100
0020
0000
0100
0000
,  // measure 11
0100
0130
0002
1000
,  // measure 12
1000
0000
1003
0100
0000
0010
0001
0100
,  // measure 13
0010
1000
0100
0001
0100
1000
0000
0020
,  // measure 14
0000
1030
0010
0100
0001
1000
0010
0000
,  // measure 15
1010
0000
0101
0000
0001
0010
0100
2000
,  // measure 16
0000
3001
1000
0010
1000
0000
1001
0000
,  // measure 17
0001
0010
0100
0000
0010
0001
0010
0100
,  // measure 18
1000
0001
1000
0000
0100
1000
0001
0000
,  // measure 19
0001
0010
0001
0000
1000
0010
0100
0001
,  // measure 20
1000
0001
0010
0001
1001
0000
0000
0101
,  // measure 21
0000
0000
1100
0000
0110
0001
1000
0001
,  // measure 22
0100
0001
0010
0001
0101
0000
0000
1010
,  // measure 23
0000
0000
0110
0000
1001
1000
0100
1000
,  // measure 24
0010
1000
0001
1000
1100
0000
0000
0101
,  // measure 25
0000
1001
0110
0101
,  // measure 26
1100
0000
0110
0000
1000
0100
1000
0000
,  // measure 27
0001
0100
0001
0000
1000
0001
1000
0001
,  // measure 28
0000
0000
1001
0000
1000
0010
0100
0001
,  // measure 29
1000
0001
0010
0200
0000
0000
0310
0000
,  // measure 30
0001
0100
1000
0100
0001
0000
0101
0000
,  // measure 31
1000
0010
0100
0000
0001
0100
0001
1000
,  // measure 32
0010
0000
1001
0000
0001
0010
0100
1000
,  // measure 33
0001
0100
0010
2000
0000
0000
3010
0000
,  // measure 34
1000
0010
0001
0010
1000
0000
1100
0000
,  // measure 35
0001
0010
0100
0000
1000
0100
0001
0100
,  // measure 36
1000
0000
1001
0000
1000
0010
1000
0010
,  // measure 37
0100
0000
0110
0000
0001
0100
0001
0100
,  // measure 38
0010
0000
1010
0000
1000
0100
0001
1000
,  // measure 39
0010
0001
1000
0001
0100
0000
2002
0000
,  // measure 40
0000
0000
3003
0000
1000
0001
1000
0001
,  // measure 41
1000
0001
1000
0001
1000
0100
0010
0001
,  // measure 42
0010
0100
1000
0100
0010
0001
0010
0001
,  // measure 43
0010
0001
0010
0001
0100
0010
1000
0001
,  // measure 44
0100
0010
1000
0001
0100
0010
0100
0010
,  // measure 45
0100
0010
0100
0010
0100
0001
1000
0010
,  // measure 46
0100
0001
1000
0010
0100
0001
0100
0001
,  // measure 47
0100
0001
0100
0001
0100
0001
0010
0100
,  // measure 48
1000
0001
0010
0100
1100
0000
0001
0001
,  // measure 49
0000
1000
1001
0000
0000
0000
1001
0000
,  // measure 50
0000
0000
0100
0000
0110
0000
0000
0000
0100
0000
0000
0101
0000
0000
0100
0000
,  // measure 51
0010
0000
0000
1010
0000
0000
1000
0000
0001
0000
0100
0000
1000
0000
0100
0000
,  // measure 52
0001
0100
1000
0100
0101
0000
0000
1001
,  // measure 53
0000
1100
0110
0101
,  // measure 54
0011
0000
1100
0000
1000
0100
1000
0100
,  // measure 55
0010
0001
0010
0001
1000
0000
1100
0000
,  // measure 56
0001
0000
0101
0000
0001
0100
1000
0100
,  // measure 57
0001
0010
1000
0010
0001
0100
0010
1000
,  // measure 58
0100
0010
0011
0000
1000
0010
0100
0001
,  // measure 59
1000
0001
0100
0002
0000
0000
0013
0000
,  // measure 60
0001
0010
1000
0010
0001
0000
1001
0000
,  // measure 61
1000
0100
0010
0000
0001
0100
0001
1000
,  // measure 62
0010
0000
1100
0000
0001
0100
0010
1000
,  // measure 63
0001
1000
0100
0020
0000
0000
0031
0000
,  // measure 64
1000
0100
0001
0100
1000
0000
1001
0000
,  // measure 65
1000
0100
1000
0000
0001
0010
0001
0100
,  // measure 66
0010
0000
1010
0000
1000
0001
0100
0010
,  // measure 67
0100
0000
0101
0000
0001
0010
0100
1000
,  // measure 68
0010
0000
0110
0000
1000
0100
0001
1000
,  // measure 69
0010
0001
0100
0010
1000
0000
0220
0000
,  // measure 70
0000
0000
0000
0000
0330
0000
0000
0000
0001
0000
0010
0000
0001
0000
0000
0100
,  // measure 71
0000
0000
0100
0000
0010
0000
1000
0000
0100
0000
1000
0000
0010
0000
0000
0100
,  // measure 72
0000
0000
0100
0000
0001
0000
1000
0000
0010
0000
0100
0000
0001
0000
0000
0010
,  // measure 73
0000
0000
0010
0000
0001
0000
0100
0000
1000
0000
0100
0000
0001
0000
0000
1000
,  // measure 74
0000
0000
1000
0000
0100
0000
0010
0000
0001
0000
1000
0000
0100
0000
0000
1000
,  // measure 75
0000
0000
1000
0000
0010
0000
0100
0000
0001
0000
0010
0000
0100
0000
0000
0010
,  // measure 76
0000
0000
0010
0000
0001
0000
1000
0000
0001
0000
0100
0000
0010
0000
0000
0100
,  // measure 77
0000
0000
0100
0000
0001
0000
0010
0000
1000
0000
0010
0000
0001
0000
0000
0100
,  // measure 78
0000
0000
0010
0000
1000
0000
0001
0000
1001
0000
1000
0000
0100
0000
0000
0001
,  // measure 79
0000
0100
1000
0010
0000
0000
0000
0000
;

//---------------dance-single - Blank----------------
#NOTES:
     dance-single:
     Blank:
     Medium:
     6:
     0.422,0.517,0.213,0.335,0.008:
0000
0000
0000
0000
,
0000
0000
0001
1000
,
0001
0000
1000
0100
0010
0000
0001
0000
,
1000
0000
0001
1000
0100
0000
0010
0000
,
0100
0000
0010
0100
0010
0000
0010
0000
,
0001
0000
0100
0000
0001
0100
0001
0000
,
1000
0000
0100
0000
1000
0100
1000
0000
,
0001
0000
1000
0001
1000
0000
0001
0000
,
0010
0100
1000
0001
,
1001
1000
2002
0000
,
0000
0000
0000
3003
0220
0000
0000
0000
,
0000
0000
0000
0330
1000
0000
0100
0000
,
1000
0100
0010
0100
,
0010
0001
0010
0001
,
0001
0000
1000
0000
0001
1000
0001
2002
,
0000
3003
1000
0100
,
1000
0010
0100
0001
,
0010
0100
0010
0001
,
1000
0000
0100
0000
1000
0010
0100
0002
,
0000
1000
1003
0000
1000
0000
0000
1100
,
0000
1100
2002
0000
,
0000
0000
3003
0000
0101
0000
0000
0101
,
0000
0101
2002
0000
,
0000
0000
3003
0000
1001
0000
0000
1001
,
0000
1001
1002
0023
,
0032
0023
0032
0000
,
2003
0000
3200
0000
,
0320
0000
0031
1000
,
0001
0000
1000
0002
0000
0000
1003
0000
,
0010
0100
0000
0110
0000
0000
0110
0000
,
1000
0100
1000
0001
,
0100
0100
0010
1000
,
0001
0000
0001
0200
0000
0300
0010
0000
,
1000
0001
0000
0001
0000
0000
0101
0000
,
1000
0100
1000
0001
,
0010
0000
0100
0000
0110
0000
0100
0020
,
0000
0000
0030
0000
0101
0000
1000
0002
,
0000
0003
1000
1000
,
0001
0001
0110
0000
,
0000
0000
0001
0010
,
0100
1000
0001
0010
,
0100
1000
0010
0100
,
0001
1000
0010
0100
,
0001
0100
0001
0100
,
1000
0100
0001
0010
,
1000
0010
0001
0100
,
1000
0010
0001
0100
,
1000
0000
0010
0000
0001
0000
0100
0100
,
0000
0100
0000
0010
,
0000
0000
0010
0000
0010
0000
0000
0000
0010
0000
0000
0010
0000
0000
0000
0000
,
0100
0000
0000
0100
0000
0000
0000
0000
0001
0000
1000
0000
0001
0000
1000
0000
,
0001
1000
0001
1000
0100
0000
0000
0100
,
0000
0020
0032
2003
,
3200
2300
3020
0130
,
0102
0103
1002
1003
,
1002
0000
1003
0000
0010
1000
0010
0000
,
0100
0001
0100
0000
0210
0000
0000
0020
,
0000
0000
0330
1000
,
1000
0000
1000
0001
0000
0000
0001
0000
,
0001
0010
0000
0020
0000
0000
0030
0000
,
0001
0100
0001
0001
,
0100
0001
1000
0001
,
1000
0000
0001
0010
0000
0000
0010
0000
,
0010
0100
0000
0200
0000
0000
0300
0000
,
1000
0100
1000
0010
,
0100
0000
0001
0000
2000
0000
0000
0002
,
0000
3003
0000
0000
0020
0000
0000
0200
,
0000
0330
0000
0000
1000
0100
1000
0000
,
0001
0010
0001
0000
0110
0000
0000
0000
,
0000
0000
0000
0000
0100
1000
0001
0000
,
0001
0000
1000
0000
0001
0100
0001
0000
,
1000
0000
0100
0000
1000
0100
1000
0000
,
0001
0000
1000
0000
0001
1000
0001
0000
,
1000
1000
0001
0100
,
0010
0000
1000
0100
0010
0000
0001
0000
,
0010
0000
0100
0001
0100
0000
0100
0000
,
1000
0000
1000
0100
0001
0000
0100
0000
,
1000
0100
0010
0010
,
0010
0000
0010
0020
0000
0000
0000
0000
,
0030
0000
0000
0000
;

//---------------dance-single - ----------------
#NOTES:
     dance-single:
     :
     Easy:
     5:
     0.334,0.416,0.466,0.123,0.000:
0000
0000
0000
0000
,
0000
0000
1001
0001
,
0001
0100
1100
1000
,
0100
0001
0101
0001
,
0100
1000
1100
1000
,
0100
0001
0011
0010
,
1000
0010
1010
0010
,
0001
0010
0011
1000
,
0010
1000
1010
0010
,
0001
0010
0011
0000
,
0000
0000
1001
0000
,
0000
0000
0100
0100
,
0010
0010
0100
0100
,
0001
0001
1000
1000
,
0001
0000
0001
0000
1000
0000
0001
2000
,
0000
3000
0001
0100
,
0001
0100
0001
0100
,
0010
1000
0010
1000
,
0010
1000
0100
0010
,
1001
0000
0100
0000
1000
0000
0000
0001
,
0000
1000
1001
0000
,
0000
0000
0000
0000
0001
0000
0000
0010
,
0000
0001
0011
0000
,
0000
0000
0000
0000
1000
0000
0000
0010
,
0000
1000
1001
0110
,
1010
0110
0101
0000
,
1100
0000
0101
0000
,
1001
0000
0001
0100
,
0001
1000
0001
1000
,
0001
0001
1000
1001
,
0000
1000
0000
1000
,
0000
0001
0010
0001
,
0010
0100
0010
0100
,
1000
0100
0010
0011
,
0000
0001
0000
1000
,
0001
0000
1000
0000
0000
0000
0000
2002
,
0000
0000
0000
3003
0000
0000
0000
0220
,
0000
0000
0000
0330
0000
0000
0000
0000
,
0000
0000
1001
0000
,
0000
0000
0001
0000
,
0001
0000
0001
0000
,
1000
0000
1001
0000
,
1000
0000
1000
0000
,
1000
0000
1100
0000
,
0100
0000
0100
0000
,
0100
0000
0110
0000
,
0010
0000
0010
0000
,
0010
0000
1001
0000
,
0000
0000
0000
0000
,
0000
0000
0011
0000
,
1100
0000
1000
0001
,
1000
0000
0001
0000
0010
0000
0000
0010
,
0000
0100
0110
1010
,
1001
0101
0110
0000
,
0011
0000
1100
0000
,
1001
0000
0001
0001
,
1000
1000
0001
0001
,
1000
0100
2002
0000
,
0000
3003
0010
0010
,
0100
0100
0100
1001
,
0000
0001
0000
1000
,
0000
0100
0220
0000
,
0000
0330
0001
0001
,
1000
1000
1000
1001
,
0000
0010
0000
0010
,
0000
0000
0100
0000
0000
0000
0000
2002
,
0000
0000
0000
3003
0000
0000
0000
0220
,
0000
0000
0000
0330
0000
0000
0000
0000
,
1001
0000
0001
1001
,
0000
0000
1010
0010
,
0001
0010
0011
0010
,
1000
0010
1010
0010
,
0001
0010
0011
0010
,
1000
0010
0101
0100
,
1000
0100
1100
0001
,
0100
0001
0101
0100
,
1000
0100
1100
1000
,
0001
1000
2002
0000
,
0000
0000
0000
3003
0000
0000
0000
0000
;

//---------------dance-double - Copied from----------------
#NOTES:
     dance-double:
     Copied from:
     Hard:
     9:
     0.641,0.545,0.499,0.131,0.094:
00000000
00000000
00000000
00000000
,
00000000
00000000
00000000
00000000
00000000
00000000
00000000
00000000
00010000
00000000
01000000
00000000
00010000
00000000
00000000
01000000
,
00000000
00000000
00100000
00000000
01000000
00000000
00100000
00000000
10000000
00000000
01000000
00000000
00010000
00000000
00000000
00001000
,
00000000
00000000
00010000
00000000
00000100
00000000
00000010
00000000
00000001
00000000
00001000
00000000
00000001
00000000
00000000
00000100
,
00000000
00000000
00000010
00000000
00001000
00000000
00000010
00000000
00001000
00000000
00000001
00000000
00001000
00000000
00000000
00000100
,
00000000
00000000
00000100
00000000
00001000
00000000
00000001
00000000
00000100
00000000
00001000
00000000
00010000
00000000
00000000
01000000
,
00000000
00000000
00100000
00000000
00010000
00000000
10000000
00000000
01000000
00000000
00100000
00000000
00010000
00000000
00000000
00010000
,
00000000
00000000
01000000
00000000
00100000
00000000
01000000
00000000
00010000
00000000
10000000
00000000
01000000
00000000
00000000
00010000
,
00000000
00000000
00001000
00000000
00010000
00000000
00001000
00000000
00010000
00000000
00000100
00000000
00000010
00000000
00000000
00000001
,
00000000
00000100
00000010
00001000
00001200
00000000
00001000
00000000
,
00001000
00001300
00012000
00010000
,
00010000
00000000
00013000
02000000
00000000
13000000
01000000
00010000
,
01000000
00100000
00010000
10000000
01000000
00100000
00000000
00110000
,
00000000
10000000
00100000
00010000
00100000
10000000
01000000
00000000
,
00110000
00000000
00011000
00000000
00001000
00010000
00001000
00020000
,
00000000
00000000
00030100
00000010
00000001
00000100
00000010
00000000
,
00001100
00000000
00001001
00000000
00000001
00000010
00000100
00001000
,
00000001
00000000
00001010
00000000
00000110
00000000
00000001
00000100
,
00001000
00010000
00001000
00000000
00011000
00000000
01010000
00000000
,
01000000
00100000
10000000
00100000
01100000
00000000
00000000
01100000
,
00000000
10010000
21000000
01000000
,
01000000
00000000
31000000
00000000
00110000
00000000
00000000
01010000
,
00000000
10010000
00210000
00001000
,
00001000
00000000
00301000
00000000
00101000
00000000
00000000
00011000
,
00000000
00001100
00000110
00000101
,
00001001
00000000
00000101
00000000
00000001
00000100
00001000
00010000
,
00001000
00010000
01000000
10000000
01000000
10000000
00010000
10000000
,
00000000
00000000
00000000
00000000
11000000
00000000
00000000
00000000
00010000
00000000
01000000
00000000
00100000
01000000
00100000
00000000
,
10000000
01000000
10000000
00010000
00000000
00010000
10000000
00000000
,
10000000
01000000
00010000
00001000
00010000
00000000
00011000
00000000
,
00000010
00001000
00000100
00000000
00000001
00000100
00001000
00000100
,
00000001
00000000
00000000
00000000
00000101
00000000
00000000
00000000
00000001
00000000
00000100
00000000
00000010
00000100
00000010
00000000
,
00001000
00000100
00001000
00000001
00000000
00000001
00000100
00001000
,
00010000
01000000
00100000
00010000
10000000
00000000
11000000
00000000
,
00010000
01000000
00100000
00000000
10000000
01000000
00100000
00010000
,
10000000
00000000
10010000
00000000
10000000
01000000
00010000
00001000
,
00020000
00000000
00031000
00000000
00001000
00000100
00000010
00000100
,
00000002
00001003
00000011
00000101
,
00001100
00011000
00022000
00033000
,
00000000
00000000
01010000
00000000
10000000
01000000
00010000
01000000
,
10000000
01000000
00010000
00001000
00010000
00001000
00010000
00001000
,
00010000
00001000
00000100
00000010
00001000
00000010
00001000
00000010
,
00001000
00000010
00000100
00000001
00000100
00001000
00000100
00000001
,
00000100
00001000
00010000
00001000
00100000
01000000
00100000
01000000
,
00100000
01000000
00100000
00010000
01000000
10000000
01000000
00010000
,
01000000
10000000
01000000
00010000
00100000
00010000
00100000
00010000
,
00100000
00010000
00100000
00001000
00010000
00001000
00010000
00001000
,
00010000
00001000
00010000
00001000
00010000
00000000
00000010
00000110
,
00000000
00000001
00000101
00000000
00000000
00000000
00001100
00000000
,
00000000
00000000
00011000
00000000
00011000
00000000
00000000
00000000
00010000
00000000
00000000
00010100
00000000
00000000
00000100
00000000
,
00000010
00000000
00000000
00000011
00000000
00000000
00000001
00000000
00000100
00000000
00001000
00000000
00010000
00000000
01000000
00000000
,
00100000
00010000
10000000
00100000
01100000
00000000
00000000
10010000
,
00000000
01010000
10010000
10100000
,
01100000
00000000
10010000
00000000
00100000
10000000
01000000
00100000
,
00010000
10000000
01000000
00100000
00010000
00100000
00010000
20000000
,
00000000
30000000
10000000
01000000
00010000
00010000
00001000
00001000
,
00000100
00000100
00000010
00000010
00001000
00001000
00000001
00000002
,
00000000
00000000
00000000
00000000
00000103
00000000
00000000
00000000
00000001
00000000
00000100
00000000
00000010
00001000
00000010
00000000
,
00001000
00000100
00010000
00001000
00000000
00001000
00010000
00000000
,
01000000
00100000
00010000
10000000
00010000
00000000
10010000
00000000
,
00010000
01000000
00100000
10000000
01000000
00010000
00001000
00010000
,
00001000
00000000
00000000
00000000
00011000
00000000
00000000
00000000
00000010
00000000
00001000
00000000
00000001
00001000
00000001
00000000
,
00000010
00000100
00001000
00000100
00000000
00000100
00010000
00000000
,
00001000
00010000
00001000
00010000
00001000
00000000
00101000
00000000
,
01000000
10000000
00100000
01000000
00010000
10000000
01000000
00100000
,
00010000
00000000
00110000
00000000
10000000
01000000
00010000
00001000
,
00020000
00000000
00031000
00000000
00000100
00000010
00001000
00000001
,
00002000
00003001
00000101
00000110
,
00001100
00011000
02020000
03030000
,
00000000
00000000
00000000
00000000
10010000
00000000
00000000
00000000
00010000
00000000
10000000
00000000
01000000
00000000
00000000
10000000
,
00000000
00000000
00010000
00000000
01000000
00000000
00100000
00000000
10000000
00000000
01000000
00000000
00010000
00000000
00000000
00001000
,
00000000
00000000
00000100
00000000
00000010
00000000
00001000
00000000
00000001
00000000
00000100
00000000
00001000
00000000
00000000
00010000
,
00000000
00000000
01000000
00000000
00100000
00000000
00010000
00000000
10000000
00000000
00100000
00000000
01000000
00000000
00000000
01000000
,
00000000
00000000
00010000
00000000
01000000
00000000
00100000
00000000
10000000
00000000
00100000
00000000
00010000
00000000
00000000
00001000
,
00000000
00000000
00010000
00000000
00000100
00000000
00000010
00000000
00000001
00000000
00001000
00000000
00000100
00000000
00000000
00000010
,
00000000
00000000
00001000
00000000
00000010
00000000
00001000
00000000
00010000
00000000
00001000
00000000
01000000
00000000
00000000
01000000
,
00000000
00000000
00010000
00000000
10000000
00000000
00010000
00000000
10000000
00000000
00100000
00000000
01000000
00000000
00000000
00100000
,
00000000
00000000
10000000
00000000
00100000
00000000
01000000
00000000
10000000
00000000
01000000
00000000
00100000
00000000
00000000
00010000
,
00000000
00001000
00010000
00001000
00000000
00000000
00000000
00000000
;

//---------------dance-double - Copied from----------------
#NOTES:
     dance-double:
     Copied from:
     Medium:
     7:
     0.467,0.513,0.425,0.131,0.000:
00000000
00000000
00000000
00000000
,
00000000
00000000
00001000
00010000
,
01000000
00100000
00010000
10000000
01000000
00000000
00010000
00000000
,
00001000
00000100
00000010
00000100
00000010
00000000
00001000
00000000
,
00000001
00000010
00000100
00001000
00000001
00000000
00000010
00000000
,
00001000
00010000
00001000
01000000
00100000
00000000
10000000
00000000
,
00010000
01000000
00100000
10000000
00010000
00000000
10000000
00000000
,
01000000
00100000
00010000
00100000
00001000
00000000
00010000
00000000
,
00000010
00000100
00000010
00001000
00000010
00000000
00000100
00000000
,
00000001
00001000
00000100
00010000
00002000
00000000
00100000
00000000
,
00100000
00103000
02000000
00100000
,
00100000
00000000
03100000
00010000
00000000
00010000
10000000
00000000
,
00100000
00000000
01000000
00000000
00100000
01000000
00000000
01010000
,
00000000
00001000
00010000
00000100
,
00000010
00000000
00000001
00000000
00001000
00000001
00001000
00000002
,
00000000
00000003
00000100
00000000
00000010
00000000
00001010
00000000
,
00001000
00010100
00010000
01000000
,
00100000
00010000
10000000
00000000
01010000
00000000
01100000
00000000
,
10100000
00000000
11000000
00000000
20010000
00000000
00000000
00010000
,
30000000
10000000
01000000
00010000
00001000
00000000
00000000
00011000
,
00000000
00011000
00021000
00000010
,
00000010
00000000
00030010
00000000
00001010
00000000
00000000
00001010
,
00000000
00001010
00002010
00000001
,
00000001
00000000
00003001
00000000
00000011
00000000
00000000
00001001
,
00000000
00000110
00000001
00000100
,
00001000
00010000
00020000
00000000
,
02030000
00000000
00000000
00000000
03100000
00000000
00100000
00010000
,
00000000
10010000
00010000
01000000
,
00100000
00000000
10000000
01000000
00000000
01000000
00100000
00000000
,
00010000
01000000
00010000
00101000
,
00001000
00000100
00000010
00001000
,
00000001
00000100
00001000
00000100
,
00000001
00000000
00001000
00000100
00000000
00000100
00001000
00000000
,
00000100
00010000
00001000
00011000
,
00010000
01000000
00100000
00010000
,
10000000
00000000
00000000
00000000
00200000
00000000
00000000
00300000
,
01010000
00000000
00010000
00000000
00020000
00000000
00000000
00030000
,
00101000
00001000
00010000
00001000
,
00010000
00000000
00001000
00010000
00001000
00000000
00001100
00000000
,
00000000
00001001
00000001
00000100
,
00001000
00010000
01000000
10000000
,
00100000
00010000
00001000
00000100
,
00000001
00000010
00001000
00010000
,
01000000
10000000
01000000
00010000
,
00001000
00000100
00000001
00000010
,
00001000
00010000
01000000
10000000
,
00100000
00010000
00001000
00000100
,
00000001
00001000
00000001
00000000
,
00000000
00010100
00000000
00011000
,
00000000
01000000
01100000
00000000
,
10010000
00000000
01100000
10010000
,
01100000
00000000
10010000
00000000
00110000
00000000
00000000
00101000
,
00000000
00011000
00000010
00000100
,
00000001
00001000
00000200
00000000
,
00000320
00000000
00000000
00000000
00000031
00000000
00000001
00001000
,
00000000
00000000
00011000
00000000
00010000
00001000
01000000
00000000
,
00010000
10000000
01000000
00000000
10000000
00010000
01000000
00010000
,
00000000
10010000
10000000
00100000
,
00010000
00000000
00001000
00010000
00000000
00010000
00001000
00000000
,
00000100
00000010
00001000
00010100
,
00000100
00000000
00000010
00000000
00000010
00000001
00001000
00000000
,
00001001
00000001
00000001
00000100
,
00001000
00000000
00010000
00001000
00000000
00001000
00010000
00000000
,
01000000
10000000
01000000
00000000
10000000
00000000
00110000
00000000
,
00001000
00100000
00010000
01000000
,
00100000
00000000
10000000
00000000
02020000
00000000
00000000
03030000
,
00100000
00000000
10100000
00000000
20020000
00000000
00000000
30030000
,
01000000
00110000
00101000
00011000
,
00010100
00000110
00000011
00001100
,
00000000
00001001
00000001
00001000
,
00000001
00000010
00000100
00001000
00000001
00000000
00000100
00000000
,
00001000
00010000
00001000
00010000
00001000
00000000
01000000
00000000
,
00010000
10000000
01000000
00100000
01000000
00000000
00100000
00000000
,
00010000
00100000
01000000
10000000
00010000
00000000
01000000
00000000
,
10000000
01000000
00010000
01000000
00001000
00000000
00010000
00000000
,
00001000
00010000
00001000
00010000
00001000
00000000
00000100
00000000
,
00000010
00001000
00000001
00001000
00000100
00000000
00000010
00000000
,
00000001
00001000
00000100
00000100
,
00000100
00000000
00010000
00010000
00000000
00000000
00000000
00000000
;

//---------------dance-double - Copied from----------------
#NOTES:
     dance-double:
     Copied from:
     Easy:
     4:
     0.359,0.352,0.204,0.294,0.000:
00000000
00000000
00000000
00000000
,
00000000
00000000
20000000
31000000
,
00010000
00001000
00000200
00000310
,
00001000
00000001
00000100
00002000
,
00013000
01000000
00100000
00020000
,
10030000
01000000
20000000
30010000
,
01000000
00001000
00020000
00030100
,
00000010
00000001
00002000
00003100
,
00001000
00000100
00020000
00031000
,
01000000
00100000
20020000
00000000
,
30030000
00000000
00220000
00000000
,
00330000
00000000
00001000
00010000
,
00000100
00001000
00000002
00000003
,
00000100
00000110
00001000
00010000
,
01000000
00100000
00020000
00030000
,
10000000
10010000
10000000
01000000
,
00010000
00011000
00001000
00000100
,
00000010
00001000
00000002
00000003
,
00000200
00000300
00001000
00010000
,
00001000
00000000
00010000
00000000
01001000
00000000
00000000
00010000
,
00000000
10000000
10010000
00000000
,
00000000
00000000
00000000
00000000
00110000
00000000
00000000
00001000
,
00000000
01001000
00011000
00000000
,
00000000
00000000
00000000
00000000
00000011
00000000
00000000
00000001
,
00000000
00000100
00001000
00010000
,
00001000
00010000
00002000
00000000
,
00003200
00000000
00000320
00000000
,
00000030
00000000
00000001
00000010
,
00001000
00010000
01000000
10000000
,
00010000
01000000
00010000
00011000
,
00000000
00001000
00000000
00001000
,
00000100
00000010
00001000
00000100
,
00000001
00000100
00001000
01000000
,
00100000
00010000
10000000
10010000
,
00000000
00010000
00000000
00010000
,
01000000
00100000
10000000
00000000
,
02000000
03010000
00001000
00000000
,
00002000
00003100
00000010
00000010
,
00000100
00000100
00000110
00000000
,
00000000
00000000
00000001
00000001
,
00000001
00000001
00000010
00000010
,
00000010
00000010
00001000
00001000
,
00001000
00001000
00010000
00010000
,
00010000
00010000
01000000
01000000
,
01000000
01000000
10000000
10000000
,
10000000
10000000
00010000
00010000
,
00010000
00010000
01000000
01000000
,
01000000
01000000
00001000
00000000
,
00000000
00000000
00010000
00000000
,
00000000
00000000
00011000
00000000
,
00011000
00000000
00022000
00000000
,
00000000
00000000
00033000
00000000
00000110
00000000
00000000
00000110
,
00000000
00000001
00000100
00001000
,
00010000
00001000
02000000
00000000
,
03200000
00000000
02300000
00000000
,
03000000
00000000
10000000
00000000
,
01000000
00000000
10000000
10000000
,
00010000
00010000
01000000
00001000
,
00010000
00001000
00100000
00010000
,
10000000
01000000
10000000
10010000
,
00000000
00001000
00000000
00001000
,
00000100
00000010
00001000
00000001
,
00000100
00001000
00000100
00000001
,
00001000
00000100
00001000
00101000
,
00000000
00010000
00000000
00010000
,
01000000
00000000
00100000
00000000
20000000
00000000
00000000
30000000
,
01000000
00110000
00020000
00000000
,
01030000
01010000
00001000
00010000
,
00001000
00010000
00001000
00000000
,
00000000
00001001
00000200
00000310
,
00001000
00000001
00000200
00001300
,
00010000
01000000
00200000
00310000
,
01000000
00100000
20000000
30010000
,
01000000
00001000
00020000
00031000
,
00010000
00000100
00000020
00000031
,
00001000
00000001
00000200
00001300
,
00010000
01000000
00200000
00310000
,
10000000
01000000
10000000
00000000
,
00000000
00000000
00000000
10010000
00000000
00000000
00000000
00000000
;

//---------------dance-single - Copied from----------------
#NOTES:
     dance-single:
     Copied from:
     Beginner:
     2:
     0.144,0.222,0.000,0.016,0.000:
0000
0000
0000
0000
,
0000
0000
1000
0000
,
0000
0000
1000
0000
,
0000
0000
0001
0000
,
0000
0000
0001
0000
,
0000
0000
0100
0000
,
0000
0000
0100
0000
,
0000
0000
0010
0000
,
0000
0000
0010
0000
,
0000
0000
2000
0000
,
0000
0000
3002
0000
,
0000
0000
0103
0000
,
0100
0000
0100
0000
,
0001
0000
0001
0000
,
1000
1000
1000
0000
,
0000
0000
0001
0000
,
0001
0000
0010
0000
,
0010
0000
0100
0000
,
0100
0000
1000
0000
,
1000
0000
0001
0000
,
0000
0000
0000
0000
,
0000
0000
1000
0000
,
0000
0000
0000
0000
,
0000
0000
0001
0000
,
0000
1000
1000
1000
,
1000
1000
0001
0000
,
0001
0000
0001
0000
,
0000
0000
0100
0100
,
0100
0000
0001
0000
,
0001
0000
1000
0000
,
1000
0000
0100
0000
,
1000
0000
0010
0010
,
0010
0000
0100
0000
,
0100
0000
0001
0000
,
0001
0000
1000
0000
,
1000
0000
0010
0010
,
0010
0000
0100
0100
,
0100
0000
0010
0000
,
0010
0000
0100
0000
,
0000
0000
1000
0000
,
0000
0000
1000
0000
,
0000
0000
0001
0000
,
0000
0000
0001
0000
,
0000
0000
0100
0000
,
0000
0000
0100
0000
,
0000
0000
0001
0000
,
0000
0000
0001
0000
,
0000
0000
1000
0000
,
0000
0000
0000
1000
,
0000
0000
0000
0000
,
0000
0000
0000
0000
,
0000
0000
0100
0000
,
0000
0000
0100
0000
,
0000
0000
0001
0000
,
0000
0000
1000
0000
,
0000
0000
1000
1000
,
1000
0000
0001
0001
,
0001
0000
0100
0100
,
0100
0000
0010
0000
,
0010
0000
1000
0000
,
1000
0000
0001
0000
,
0001
0000
0100
0100
,
0100
0000
0001
0000
,
0001
0000
0010
0000
,
0010
0000
0100
0000
,
0100
0000
1000
1000
,
1000
0000
0001
0001
,
0001
0000
0010
0010
,
0010
0000
0100
0000
,
0000
0000
0010
0000
,
0000
0000
0010
0000
,
0000
0000
0001
0000
,
0000
0000
0001
0000
,
0000
0000
1000
0000
,
0000
0000
1000
0000
,
0000
0000
0010
0000
,
0000
0000
0010
0000
,
0000
0000
0100
0000
;
