#TITLE:NU ABO;
#SUBTITLE:;
#ARTIST:f(x);
#TITLETRANSLIT:;
#SUBTITLETRANSLIT:;
#ARTISTTRANSLIT:;
#CREDIT:;
#BANNER:nu abo-BN.png;
#BACKGROUND:nu abo-BG.png;
#LYRICSPATH:;
#CDTITLE:;
#MUSIC:f(x) - NU ABO.mp3;
#OFFSET:0.440;
#SAMPLESTART:41.380;
#SAMPLELENGTH:12.000;
#SELECTABLE:YES;
#BPMS:0.000=95.000;
#STOPS:;
#BGCHANGES:0.500=NU ABO.avi=1.000=0=0=1,
209.500=nu abo-BG.png=1.000=1=0=1,
99999=-nosongbg-=1.000=0=0=0 // don't automatically add -songbackground-
;

//---------------dance-single - ----------------
#NOTES:
     dance-single:
     :
     Easy:
     4:
     0.243,0.236,0.128,0.015,0.000:
0000
0000
0000
0000
,
0000
0000
0000
0000
,
0000
0000
0000
0000
,
0000
0000
0000
0000
,
0000
0000
1000
0010
,
1000
0010
0100
0001
,
0100
0001
1000
0100
,
1000
0100
0010
0001
,
0010
0001
0100
0100
,
0100
0001
0010
0010
,
0010
0100
1000
1000
,
1000
0010
0100
0001
,
1000
0100
1000
0010
,
0010
0100
0001
1000
,
0100
0000
1000
1000
0010
0000
0100
0000
,
0001
1000
0100
0010
,
0001
0001
1000
0000
1000
0000
1100
0000
,
0001
0101
1000
0001
,
1000
1001
0001
0100
,
0010
0010
1000
0000
0100
0000
1000
0000
,
0100
0100
0010
0000
0002
0000
0103
0000
,
0020
1030
0100
0100
,
1000
0001
0100
0001
,
0101
0101
1000
0100
,
1100
1100
1000
0001
,
1000
0001
1000
0001
,
1000
0010
0100
0001
0100
0000
0001
0000
,
0100
0001
0100
0001
,
0100
0000
0010
0100
,
0010
0000
0100
0100
0010
0000
1000
0000
,
0100
0010
0001
1000
,
0100
0000
1000
0010
0100
0000
0001
0000
,
0010
1000
0010
0001
,
0100
0001
0100
0010
,
0100
0000
0001
0100
0010
0000
1000
0000
,
0100
0001
0100
1000
,
0000
0000
0001
0100
,
0001
0101
1001
1000
,
0100
1001
1100
1000
,
0010
0000
0100
0100
0001
0000
1000
0000
,
0100
1100
1000
1010
,
0010
0110
0001
1000
,
0100
1000
0010
0000
0100
0000
0001
0000
,
1000
1000
0100
0000
1000
0000
0010
0000
,
0100
0100
0001
0000
1000
0000
1100
0000
,
0001
0101
1000
0100
,
0010
0001
0100
0010
,
1000
0010
1000
0000
0010
0000
0100
0000
,
0001
0100
0001
0000
1000
0000
1000
0000
,
1000
1000
1000
1000
,
1000
0001
0010
0100
1000
0000
0010
0000
,
1100
0001
0100
0010
,
1000
0100
0010
0001
0000
0000
0000
0000
;

//---------------dance-single - ----------------
#NOTES:
     dance-single:
     :
     Medium:
     7:
     0.298,0.295,0.098,0.000,0.000:
0000
0000
0000
0000
,
0000
0000
0000
0000
,
0000
0000
0000
0000
,
0000
0000
0000
0000
,
0000
0000
1000
0100
,
1000
0000
0100
1000
0001
0000
0100
0000
,
0001
0000
0100
0001
0010
0000
0001
0000
,
0010
0000
0001
0010
0100
0000
1000
0000
,
0100
0000
1000
0001
1000
0000
0100
0000
,
1000
0000
0010
0100
0001
0000
0010
0000
,
0001
0000
1000
0100
1000
0000
0001
0000
,
0100
0000
0001
0010
0100
0000
1000
0000
,
1100
0000
0000
0000
0000
1000
0010
0001
,
0010
1000
0010
0001
0000
1000
0100
0001
,
0100
1000
0100
0001
0000
1000
0001
1000
,
0010
1000
0001
1000
0000
0001
1000
0001
,
0100
0100
0100
0100
0000
0010
0010
0010
,
0000
1000
1000
1000
0001
1000
0100
0000
,
0100
1000
0001
0000
0100
0001
0010
0000
,
0011
0000
0011
0000
1000
0100
1000
0000
,
0101
0000
0101
0000
0000
0001
0001
0001
,
0000
0100
0100
0100
0010
1000
0100
0000
,
1000
0100
0010
0000
0011
0000
0101
0000
,
0010
0010
0010
0010
0000
0000
1010
0000
,
1000
1000
1000
1000
0001
0000
1000
0000
,
0001
0000
1000
1000
0001
0000
0100
0000
,
0001
0010
0100
1000
0100
0000
1000
0000
,
0001
0000
0100
0100
0001
0000
0010
0000
,
0100
1000
0100
1000
0001
0000
0100
0000
,
0001
0000
0100
0100
0010
0000
1000
0000
,
0100
0000
1000
0001
1000
0000
0001
0000
,
0100
0000
0001
0100
1000
0000
0100
0000
,
0001
0000
0010
1000
0010
0000
0001
0000
,
0010
0000
0001
1000
0100
0000
1000
0000
,
0001
0000
0100
0001
0100
0000
0010
0000
,
1000
0000
0100
1000
0100
0000
1000
0000
,
0000
0000
0000
0000
0001
1000
0100
1000
,
0001
0100
0001
1000
0000
1000
0010
0001
,
0010
1000
0100
0010
0000
0001
0100
1000
,
0100
0001
0010
0100
0000
0010
0001
1000
,
0100
0000
0000
0000
0100
1000
0100
1000
,
0000
0001
0100
0001
0100
0010
0100
0000
,
0010
1000
0010
0000
1000
0100
1000
0000
,
1100
0000
1100
0000
0001
0100
0001
0000
,
0101
0000
0101
0000
0001
0010
0100
0000
,
1000
0100
0010
0000
0001
0100
0001
0100
,
0001
1000
0100
0000
1000
0100
1000
0010
,
0100
0000
0101
0000
0001
0100
0010
1000
,
0100
0000
1000
0100
,
1000
0000
0100
0001
0100
0000
1000
0000
,
0010
0100
0001
0100
0010
0000
1000
0000
,
0010
0000
0001
0010
1000
0000
0100
0000
,
1000
0100
0010
0001
0000
0000
0000
0000
;

//---------------dance-single - Copied from Copied f----------------
#NOTES:
     dance-single:
     Copied from Copied f:
     Hard:
     9:
     0.469,0.413,0.135,0.000,0.390: // measure 1
0000
0000
0000
0000
,  // measure 2
0000
0000
0000
0000
,  // measure 3
0000
0000
0000
0000
,  // measure 4
0000
0000
0000
0000
,  // measure 5
0000
0000
0000
0000
1000
0100
1000
0010
,  // measure 6
1000
0000
0100
0000
0010
0001
0010
0001
0100
0000
0001
0000
0010
0000
0001
0000
,  // measure 7
1000
0000
0001
0000
0010
0100
0010
0100
1000
0000
0010
0000
0100
0000
0001
0000
,  // measure 8
0010
0000
0100
0000
1000
0001
1000
0001
0010
0000
0001
0000
0100
0000
1000
0000
,  // measure 9
0100
0001
0010
0100
1000
0001
0100
0010
,  // measure 10
0100
0000
0001
0000
1000
0100
1000
0100
0010
0000
0100
0000
0010
0000
0001
0000
,  // measure 11
0010
0000
0100
0000
1000
0001
1000
0001
0010
0000
0001
0000
0100
0000
1000
0000
,  // measure 12
0100
0000
0010
0000
0100
0001
0100
0001
1000
0000
0100
0000
0010
0000
0001
0000
,  // measure 13
1000
0010
0100
0001
1100
0100
1000
0010
,  // measure 14
0001
0000
0010
0000
1000
0000
0100
0000
0000
0000
0010
0100
0010
0000
0001
0000
,  // measure 15
0100
0000
0010
0000
0100
0000
0001
0000
0000
0000
1000
0100
1000
0000
0001
0000
,  // measure 16
1000
0010
0001
0010
0000
0100
0001
1000
,  // measure 17
0001
0010
0110
1001
0000
0001
1000
1100
,  // measure 18
0000
0000
1000
0000
0001
0000
0101
0000
0001
0000
0100
0000
0010
0000
1000
0001
,  // measure 19
0000
0010
0001
0010
0001
0000
0010
0000
0001
0000
1000
0100
0000
1000
0100
0000
,  // measure 20
1000
0000
0010
0000
0001
0000
0010
0000
0000
0000
0100
0001
0000
0100
0001
0000
,  // measure 21
0010
1000
0010
0001
0000
0001
1000
1001
,  // measure 22
0000
0000
1000
0000
0010
0000
1010
0000
0001
0000
1000
0000
0010
0000
0100
0010
,  // measure 23
0000
1000
0001
1000
0001
0000
0010
0000
0100
0000
1000
0010
0000
0010
1000
0000
,  // measure 24
0001
0000
0100
0000
1000
0000
0100
0000
0000
0000
0010
1000
0000
1000
0010
0000
,  // measure 25
1000
0000
0100
0000
0001
0000
0100
0000
1000
0001
0000
0100
0000
0010
0000
1000
,  // measure 26
0000
0010
0000
1000
0000
0001
0100
1000
0100
0001
0000
0010
0000
0100
0000
0010
,  // measure 27
0001
0000
0010
0000
0100
0000
1000
0000
0001
0100
0000
0001
0000
0010
0000
0001
,  // measure 28
0000
0100
0000
0010
0000
1000
0100
0001
0100
1000
0000
0100
0000
1000
0000
0001
,  // measure 29
0010
0000
0000
0000
0001
1000
0010
1000
,  // measure 30
0010
0000
0100
0000
0001
0010
0001
0010
0100
0000
1000
0000
0001
0000
1000
0000
,  // measure 31
0010
0000
0100
0000
0001
0100
0001
0100
0010
0000
1000
0000
0010
0000
0001
0000
,  // measure 32
0010
0000
1000
0000
0100
1000
0100
1000
0001
0000
0100
0000
0010
0000
1000
0000
,  // measure 33
0010
1000
0001
0010
0001
1000
0100
1000
,  // measure 34
0001
0000
0010
0000
0001
0100
0001
0100
0010
0000
1000
0000
0100
0000
0001
0000
,  // measure 35
0100
0000
1000
0000
0010
0100
0010
0100
0001
0000
1000
0000
0100
0000
1000
0000
,  // measure 36
0010
0000
0100
0000
0001
0100
0001
0100
0010
0000
1000
0000
0100
0000
0100
0000
,  // measure 37
0001
0001
0100
0100
1010
0100
0001
0010
,  // measure 38
1000
0000
0010
0000
0001
0000
1000
0000
0000
0000
0100
1000
0100
0000
1000
0000
,  // measure 39
0010
0000
0100
0000
0001
0000
0100
0000
0000
0000
0001
1000
0001
0000
1000
0000
,  // measure 40
0001
0010
1000
0010
0000
0001
1000
0010
,  // measure 41
0100
0001
0011
1100
0000
1000
0010
0101
,  // measure 42
0000
0000
0001
0000
0100
0000
1010
0000
1000
0000
0001
0000
0100
0000
0001
0100
,  // measure 43
0000
0001
0100
0010
0100
0000
0010
0000
1000
0000
0010
0100
0000
0100
0010
0000
,  // measure 44
1000
0000
0100
0000
0001
0000
0100
0000
0000
0000
0010
0001
0000
0001
0010
0000
,  // measure 45
0011
1010
0110
1001
0000
0001
0100
1001
,  // measure 46
0000
0000
1000
0000
0001
0000
0110
0000
0001
0000
1000
0000
0100
0000
1000
0001
,  // measure 47
0000
0010
0001
0010
0001
0000
0100
0000
0001
0000
1000
0010
0000
1000
0010
0000
,  // measure 48
1000
0000
0010
0000
0001
0000
0010
0000
0000
0000
0100
0001
0000
0100
0001
0000
,  // measure 49
0100
0000
1000
0000
0100
0000
0001
0000
0010
0001
0000
0010
0000
0100
0000
1000
,  // measure 50
0000
0010
0000
1000
0000
0001
0010
1000
0010
0001
0000
1000
0000
0001
0000
0100
,  // measure 51
0010
0000
1000
0000
0001
0000
0100
0000
0001
0010
0000
0100
0000
0010
0000
0001
,  // measure 52
0000
0100
0000
0001
0000
1000
0010
0001
0010
1000
0000
0010
0000
0100
0000
0001
,  // measure 53
1000
0100
0010
0001
0000
0000
0000
0000
;

//---------------dance-single - Copied from----------------
#NOTES:
     dance-single:
     Copied from:
     Beginner:
     2:
     0.128,0.156,0.008,0.000,0.000:
0000
0000
0000
0000
,
0000
0000
0000
0000
,
0000
0000
0000
0000
,
0000
0000
0000
0000
,
0000
0000
1000
0000
,
0000
1000
0001
0000
,
0000
0001
0010
0000
,
0000
0010
0010
0000
,
0000
0001
0100
0000
,
0000
0100
0100
0000
,
0000
0010
1000
0000
,
0000
1000
1000
0000
,
0000
0000
0001
0000
,
0001
0000
1000
0000
,
1000
0000
1000
0000
,
0001
0000
0100
0000
,
0010
0000
0100
0100
,
0100
0000
0010
0010
,
0010
0000
1000
1000
,
1000
0000
0001
0001
,
0001
0000
0100
0100
,
0100
0000
0001
0001
,
0001
0000
0010
0010
,
0010
0000
1000
1000
,
1000
0000
0010
0000
,
0000
0000
0010
0000
,
0001
0001
0100
0000
,
0000
0100
0100
0000
,
0010
0000
1000
0000
,
1000
1000
0001
0000
,
0001
0001
0100
0000
,
0100
0100
0010
0000
,
0010
0010
0001
0000
,
0010
0010
1000
0000
,
1000
1000
0100
0000
,
0100
0100
1000
0000
,
0000
0000
1000
0000
,
0010
0000
0100
0000
,
0001
0000
0010
0000
,
0100
0000
1000
0000
,
1001
0000
1000
1000
,
1000
0000
0010
0010
,
0010
0000
0001
0001
,
0001
0000
0010
0010
,
0010
0000
1000
1000
,
1000
0000
0100
0100
,
0100
0000
0010
0010
,
0010
0000
0001
0001
,
0001
0000
0100
0000
,
0100
0000
0100
0000
,
0100
0100
0010
0000
,
0010
0000
0010
0000
,
1000
0000
0000
0000
;
