#TITLE:NO CRIME;
#SUBTITLE:;
#ARTIST:CxF;
#TITLETRANSLIT:;
#SUBTITLETRANSLIT:;
#ARTISTTRANSLIT:;
#CREDIT:;
#BANNER:NO CRIME-bn.png;
#BACKGROUND:NO CRIME-BG.png;
#LYRICSPATH:;
#CDTITLE:;
#MUSIC:No CRIME.mp3;
#OFFSET:1.049;
#SAMPLESTART:48.630;
#SAMPLELENGTH:15.000;
#SELECTABLE:YES;
#BPMS:0.000=160.000;
#STOPS:;
#BGCHANGES:0.000=NO CRIME.avi=1.000=1=0=1,
99999=-nosongbg-=1.000=0=0=0 // don't automatically add -songbackground-
;

//---------------dance-single - ----------------
#NOTES:
     dance-single:
     :
     Hard:
     8:
     0.518,0.575,0.271,0.213,0.092: // measure 1
0000
0000
0000
0000
,  // measure 2
0000
0000
0000
0000
,  // measure 3
0000
0000
0000
0000
,  // measure 4
0000
0000
0000
0000
,  // measure 5
0000
0000
0000
0000
,  // measure 6
0000
0000
0000
0000
,  // measure 7
0000
0000
0000
0000
,  // measure 8
0000
0000
0000
0000
,  // measure 9
0000
0000
0000
0000
,  // measure 10
1000
0000
0001
0000
0100
0001
0010
0000
,  // measure 11
0100
0000
1000
0000
0010
1000
0100
0000
,  // measure 12
1000
0000
0001
0000
0100
0001
1000
0000
,  // measure 13
0100
1000
0000
0010
0000
0100
0000
0001
,  // measure 14
1000
0000
0010
0000
1000
0100
0010
0000
,  // measure 15
0001
0000
0100
0000
0001
0010
0100
0000
,  // measure 16
1000
0000
0001
0000
1000
0001
0100
0000
,  // measure 17
0101
0010
1010
2000
,  // measure 18
3001
0010
0001
0100
0010
1000
0100
0000
,  // measure 19
1000
0010
0001
0010
1000
0001
0100
0000
,  // measure 20
0001
0000
0100
0000
0010
0000
1000
0000
0100
0000
0000
1000
0000
0000
0020
0000
,  // measure 21
0000
0130
0101
1001
,  // measure 22
0010
0100
0001
2000
0000
0000
3100
1000
,  // measure 23
0001
0010
0001
0200
0000
0000
0301
1000
,  // measure 24
0100
0010
0001
2000
0000
3010
0100
0001
,  // measure 25
0100
0000
0000
0010
0000
0000
1000
0000
0001
0000
1000
0000
0010
1000
0010
1000
,  // measure 26
0010
0100
0001
0010
0100
0010
0001
1000
,  // measure 27
0010
0100
0001
1000
0100
1000
0010
0000
,  // measure 28
1001
0000
0000
0000
1000
0000
0000
0000
0001
0000
0000
1000
0000
0000
0001
0000
,  // measure 29
0200
0000
0000
0300
,  // measure 30
0101
0000
0001
0100
1000
0100
0001
0010
,  // measure 31
0100
1000
0010
0100
0001
1000
0001
0010
,  // measure 32
0200
0000
0000
0000
1300
0000
0000
0000
0001
0000
0000
0100
0000
0000
0001
0000
,  // measure 33
0010
0000
0000
0100
0000
0000
1000
0000
0020
0000
0000
0000
0000
0000
0000
0000
,  // measure 34
1030
0000
0000
1000
0000
0000
1000
0000
0000
0000
0000
0000
0000
0000
0000
0000
,  // measure 35
0001
1000
0010
0100
0001
0010
1000
0010
,  // measure 36
0001
0100
0001
1000
0100
0000
1100
0000
,  // measure 37
1000
0100
1000
0010
0100
0001
0010
0100
,  // measure 38
0010
0001
0100
0010
1000
0000
1001
0000
,  // measure 39
0010
0100
0001
1000
0100
0001
0100
1000
,  // measure 40
0010
0100
0001
0010
0001
0000
0101
0000
,  // measure 41
0100
0001
0010
0001
1000
0010
0100
0001
,  // measure 42
1000
0001
0010
0100
1000
0000
1010
0000
,  // measure 43
1001
0110
0102
0013
,  // measure 44
0100
0000
0000
1000
0000
0000
0001
0000
0020
0000
0000
0000
0031
0000
0000
0000
,  // measure 45
0100
0000
0000
0010
0000
0000
0100
0000
0002
0000
0000
0000
1003
0000
0000
0000
,  // measure 46
0100
0000
0000
1000
0000
0000
0001
0000
0010
0000
0000
0001
0000
0000
0100
0000
,  // measure 47
0020
0000
0000
1030
,  // measure 48
0200
0000
0300
0000
,  // measure 49
0011
0000
0101
0000
,  // measure 50
0011
0101
1010
1001
,  // measure 51
0010
1000
0100
1000
0010
0100
0001
0000
,  // measure 52
0010
0000
0000
0001
0000
0000
0200
0000
0000
0000
0310
0000
1000
0000
0100
0000
,  // measure 53
0001
0100
1000
0010
0100
0001
1000
0000
,  // measure 54
0001
0000
0000
0010
0000
0000
0002
0000
0000
0000
0103
0000
0010
0000
1000
0000
,  // measure 55
0001
0010
0001
1000
0010
0100
0010
1000
,  // measure 56
0001
0011
1100
0110
,  // measure 57
0201
0301
2100
3001
,  // measure 58
2002
0000
3003
0001
1000
0100
1000
0010
,  // measure 59
0100
0000
0000
0001
0000
0000
0020
0000
0000
0000
0130
0000
1000
0000
0010
0000
,  // measure 60
0001
0010
1000
0200
0000
1300
0001
1000
,  // measure 61
0010
0000
0000
0100
0000
0000
0001
0000
0000
0000
0010
0000
0001
0000
0100
0000
,  // measure 62
0001
1000
0001
0100
0010
1000
0100
1000
,  // measure 63
0001
0000
0000
0100
0000
0000
0020
0000
0000
0000
0130
0000
0010
0000
0100
0000
,  // measure 64
0001
0000
0000
1000
0000
0000
0001
0000
0100
0000
0000
0010
0000
0000
1000
0000
,  // measure 65
0100
0010
0001
0100
0010
1000
0001
1000
,  // measure 66
1001
0000
0001
0100
0101
0000
0010
0000
,  // measure 67
1001
0000
0000
0000
;

//---------------dance-single - ----------------
#NOTES:
     dance-single:
     :
     Medium:
     5:
     0.388,0.479,0.261,0.135,0.000:
0000
0000
0000
0000
,
0000
0000
0000
0000
,
0000
0000
0000
0000
,
0000
0000
0000
0000
,
0000
0000
0000
0000
,
0000
0000
0000
0000
,
0000
0000
0000
0000
,
0000
0000
0000
0000
,
0000
0000
0000
0000
,
1000
0001
0010
0001
,
0100
0001
1000
0100
,
1000
0010
0100
0001
,
2000
0000
0000
0000
,
3001
0001
0100
0001
,
0010
0010
0100
0010
,
0001
0100
0001
1000
,
1001
0000
1010
0000
,
0010
1000
0010
0000
0100
0000
0001
0000
,
1000
0100
0010
0001
,
0100
0001
0100
0000
0010
0000
1000
0000
,
0100
1000
0001
0101
,
0001
0000
1000
0100
0000
0100
1000
0000
,
1000
0000
0010
0100
0000
0100
0001
0000
,
1000
0000
0100
1000
0000
1000
0001
1000
,
0001
0100
0001
0100
,
0010
1000
0100
1000
,
1001
0001
0100
0010
,
2000
3100
0010
0001
,
1001
0000
0000
0000
,
1001
0000
0001
0000
0100
0000
0010
1000
,
0100
1000
0100
1000
,
0010
0000
0100
0000
0001
0100
0010
0000
,
1000
0100
0010
0001
,
2002
0000
0000
3003
,
0001
1000
0001
0000
1000
0001
1000
0000
,
0001
0100
0010
1000
0100
0000
1100
0000
,
1000
0100
1000
0000
0001
0100
0001
0000
,
0001
0100
0010
1000
0100
0000
1100
0000
,
1000
0100
1000
0000
0010
0100
0010
0000
,
0100
0001
0010
0100
0010
0000
0011
0000
,
0001
0100
0001
0000
1000
0100
1000
0000
,
0001
0100
1000
0100
0001
0000
0011
0000
,
0101
1010
1100
1000
,
0001
0100
0001
0010
,
0011
0001
0100
0001
,
1001
1000
0100
1000
,
2020
0000
0000
3030
,
2002
0000
0000
3003
,
0202
0303
0011
0000
,
0101
1001
1010
1100
,
1000
0100
1000
0000
0001
0000
0100
0000
,
0001
0000
0010
0000
0100
0010
0100
0000
,
0010
0001
1000
0100
,
1000
0010
1000
0000
0010
0000
0100
0000
,
0001
1000
0100
1000
,
0002
0103
0020
1030
,
0200
1000
0320
0001
,
0130
0000
0000
0000
0001
0010
0001
0000
,
0100
0001
1000
0100
,
1000
0010
1000
0000
0010
0000
0100
0000
,
0001
0000
1000
0000
0100
1000
0100
0000
,
1000
0000
0001
0000
0010
0100
0010
0000
,
0001
0100
1000
0100
,
0001
0010
0100
1000
,
0001
1000
0001
0100
,
0101
0001
1001
1000
,
1010
0000
0000
0000
;

//---------------dance-single - ----------------
#NOTES:
     dance-single:
     :
     Easy:
     3:
     0.268,0.319,0.087,0.145,0.000:
0000
0000
0000
0000
,
0000
0000
0000
0000
,
0000
0000
0000
0000
,
0000
0000
0000
0000
,
0000
0000
0000
0000
,
0000
0000
0000
0000
,
0000
0000
0000
0000
,
0000
0000
0000
0000
,
0000
0000
0000
0000
,
1000
0001
0000
0001
,
0100
0010
0000
0010
,
0100
0001
0000
0001
,
1000
0100
0000
0100
,
1000
0010
0000
0010
,
0100
0010
0000
0010
,
1000
0001
0000
1000
,
1100
0000
0101
0000
,
0001
0001
1000
0001
,
0000
0100
0100
0010
,
0000
0100
0010
1000
,
0100
1000
0001
1000
,
2001
0000
3001
0000
,
0201
0000
0301
0000
,
2010
0000
3010
0000
,
1000
0100
0010
0001
,
1000
1000
1000
0001
,
0010
0010
0001
0100
,
0010
1000
0100
0001
,
0202
0000
0000
0303
,
0100
1000
0100
1000
,
0010
1000
0010
0100
,
0001
1000
0100
1000
,
0001
1000
0001
1000
,
2002
0000
0000
3003
,
1000
0100
1000
0100
,
0010
0001
0010
0000
,
0001
0100
0001
0100
,
0010
1000
0010
0000
,
1000
0010
0100
0001
,
0010
0100
1000
0000
,
0100
0010
0001
0100
,
0010
1000
0001
0000
,
2000
0000
3010
0000
,
0200
0000
0301
0000
,
0020
0000
0031
0000
,
0200
0000
0310
0000
,
2000
0000
0000
0000
,
3002
0000
0000
0000
,
0203
0000
0320
0000
,
1030
0100
0010
0001
,
1000
1000
0001
0000
,
0100
0100
0001
0000
,
0010
0001
0010
0100
,
1000
0100
1000
0000
,
0001
0000
0100
0000
,
0001
0010
0001
0000
,
0001
1000
0010
0100
,
0001
0000
1000
0100
,
1000
1000
0010
0000
,
0010
0100
0001
1000
,
0100
0100
1000
0000
,
0010
0100
0001
1000
,
0100
0100
1000
0000
,
0010
0000
0100
0000
,
0001
0000
1000
0000
,
1001
0000
1001
0000
,
1000
0000
0000
0000
;

//---------------dance-single - ----------------
#NOTES:
     dance-single:
     :
     Beginner:
     1:
     0.163,0.224,0.019,0.068,0.000:
0000
0000
0000
0000
,
0000
0000
0000
0000
,
0000
0000
0000
0000
,
0000
0000
0000
0000
,
0000
0000
0000
0000
,
0000
0000
0000
0000
,
0000
0000
0000
0000
,
0000
0000
0000
0000
,
0000
0000
0000
0000
,
1000
0000
1000
0000
,
0001
0000
0001
0000
,
0010
0000
0010
0000
,
0001
0000
0001
0000
,
0100
0000
0100
0000
,
0010
0000
0010
0000
,
1000
0000
1000
0000
,
0002
0000
2003
0000
,
3001
0000
0001
0000
,
0010
0000
0010
0000
,
0001
0000
0100
0000
,
0010
0000
0100
0000
,
0001
0000
0010
0000
,
0010
0000
0001
0000
,
0100
0000
0010
0000
,
1000
2000
0000
0000
,
3001
0000
0001
0000
,
1000
0000
1000
0000
,
0100
0000
0100
0000
,
1000
0000
0000
0000
,
0010
0000
0010
0000
,
0100
0000
0100
0000
,
0001
0000
1000
0000
,
0100
0000
1000
0000
,
1001
0000
0000
0000
,
0001
0001
0001
0000
,
0100
0000
0100
0000
,
0010
0010
0010
0000
,
1000
0000
0100
0000
,
1000
1000
1000
0000
,
0001
0000
0010
0000
,
0100
0100
0100
0000
,
0010
0000
0001
0000
,
1000
2000
0000
0000
,
3002
0000
0000
0000
,
0203
0000
0000
0000
,
0320
0000
0000
0000
,
1030
0000
0000
0000
,
0001
0000
0000
0000
,
1000
0000
0000
0001
,
0000
0000
0000
0000
,
1000
1000
0000
0000
,
0010
0010
0000
0000
,
0100
0100
0000
0000
,
0001
0001
0000
0000
,
1000
0000
0100
0000
,
1000
0000
0010
0000
,
0100
0000
0100
0000
,
0100
0000
0000
0000
,
0001
0001
0000
0010
,
0010
0000
0000
0100
,
0100
0000
1000
1000
,
0000
0000
0001
0001
,
0000
0000
0000
0000
,
0100
0000
0100
0000
,
0010
0000
0010
0000
,
1000
0000
1000
0000
,
1001
0000
0000
0000
;
