#TITLE:Lucky;
#SUBTITLE:;
#ARTIST:Britney Spears;
#TITLETRANSLIT:;
#SUBTITLETRANSLIT:;
#ARTISTTRANSLIT:;
#CREDIT:;
#BANNER:lucky-BN.png;
#BACKGROUND:Lucky-BG.png;
#LYRICSPATH:;
#CDTITLE:;
#MUSIC:Britney Spears - Lucky.mp3;
#OFFSET:1.120;
#SAMPLESTART:39.780;
#SAMPLELENGTH:12.000;
#SELECTABLE:YES;
#BPMS:0.000=95.000;
#STOPS:126.000=1.240
;
#BGCHANGES:0.500=Lucky.avi=1.000=1=0=1,
99999=-nosongbg-=1.000=0=0=0 // don't automatically add -songbackground-
;

//---------------dance-single - ----------------
#NOTES:
     dance-single:
     :
     Easy:
     3:
     0.193,0.256,0.125,0.008,0.000:
0000
0000
0000
0000
,
0000
0000
0000
0000
,
0000
0000
0000
0000
,
0000
0000
0000
0000
,
0000
0000
1001
0000
,
0000
0000
1000
1000
,
1000
0001
0001
0001
,
0100
0001
0010
0010
,
0010
0010
0001
1000
,
0100
1000
1000
0010
,
0100
0001
0001
0010
,
0100
1000
0100
0010
,
0001
1000
0001
0010
,
0001
0000
0010
0000
0001
0010
0001
0000
,
0010
0100
1000
0100
,
1000
0000
0100
1000
0100
0000
0000
0000
,
0000
0000
1000
1010
,
0010
0100
0001
1000
,
0100
0010
0011
0011
,
0011
0000
1100
1100
,
1100
0000
1000
0001
,
0100
0000
0001
0000
0010
0001
0010
0000
,
0001
1000
0100
1000
,
0001
0100
1001
0000
,
0000
0000
1000
0010
,
0001
0010
0010
1000
,
0100
0010
0001
0100
,
1000
0100
0001
0001
,
0001
0010
0100
0010
,
0001
0001
1000
0100
,
1000
0001
0100
0010
,
1000
0100
1000
0000
,
1000
0100
1000
0100
,
1000
0100
1000
0000
0001
0000
0100
0000
,
0001
0000
0100
0000
0001
0000
0100
0001
,
0100
0001
0001
1000
,
0100
1000
0010
0100
,
0100
0001
0010
0100
,
1100
1100
1100
0000
,
0011
0011
0011
0000
,
0001
0100
0001
0010
,
0100
0010
0001
1000
,
0100
1000
0001
0100
,
0020
0000
0000
0000
,
1030
0000
0000
0000
;

//---------------dance-single - ----------------
#NOTES:
     dance-single:
     :
     Medium:
     4:
     0.240,0.274,0.125,0.058,0.000:
0000
0000
0000
0000
,
0000
0000
0000
0000
,
0000
0000
0000
0000
,
0000
0000
0000
0000
,
0000
0000
1001
0000
,
0000
0000
0001
1000
0100
0000
1000
0000
,
0010
0100
0002
1000
,
1003
1000
0110
0001
,
0001
1000
0001
1000
,
0100
0000
1000
0001
0010
0000
0001
0100
,
0010
0100
0001
0010
,
1000
0000
0010
0000
0001
0000
0001
0100
,
0000
0100
0001
0000
1000
1000
0100
0000
,
1000
0000
0010
0000
0100
0100
0001
0000
,
0010
0000
0001
0000
0100
0100
0001
0000
,
0010
0000
0100
1000
0001
0000
0000
0000
,
0000
0000
0001
1000
0100
0000
1000
0010
,
0200
0000
0001
0000
0301
0000
0001
0100
,
0010
0000
1000
0100
1000
0000
1100
0000
,
0101
0000
0001
0100
0010
0000
0110
0000
,
1010
0000
1000
0100
2000
0000
3001
0100
,
0001
0000
0001
0000
0010
0001
0010
0000
,
0001
0100
0020
1000
,
0100
1030
1001
0000
,
0000
0000
1000
0100
,
1000
0000
0010
0100
0001
0000
0001
0000
,
0010
1000
0010
0001
,
0100
0000
0010
1000
0001
0000
1000
0100
,
0000
0100
1000
0000
0020
0000
0100
0000
,
1030
0100
0010
0001
,
0100
0110
0010
1000
,
0001
1000
1001
0000
,
0001
0001
0010
0000
0100
0000
0010
0000
,
0001
0001
0100
0000
0010
0000
1000
0000
,
0100
0100
1000
0000
0001
0000
1000
0000
,
0002
0000
0100
0000
0103
0000
0001
0100
,
0010
0000
1000
0100
1000
0000
0010
0100
,
0001
0000
0001
1000
0100
0000
0010
0001
,
0010
0000
0011
0000
0101
0000
0001
0100
,
0010
0000
1010
0000
1001
0000
1000
1000
,
0001
0000
0100
0010
0100
0000
0001
0000
,
1000
0100
0010
0001
1000
0000
1000
0000
,
0200
1000
0010
1300
,
1001
0000
0000
0000
,
1001
0000
0000
0000
;

//---------------dance-single - Copied from Copied f----------------
#NOTES:
     dance-single:
     Copied from Copied f:
     Hard:
     7:
     0.344,0.329,0.208,0.150,0.000: // measure 1
0000
0000
0000
0000
,  // measure 2
0000
0000
0000
0000
,  // measure 3
0000
0000
0000
0000
,  // measure 4
0000
0000
0000
0000
,  // measure 5
0000
0000
1001
0000
,  // measure 6
0000
0000
0001
1000
0100
0000
0100
0010
,  // measure 7
0002
0000
1003
0001
0011
0000
1010
0000
,  // measure 8
1001
0000
0001
0010
0200
0000
0010
0000
,  // measure 9
0310
0000
0001
0100
0010
1000
0100
0001
,  // measure 10
0100
1000
0010
0010
0100
0000
0001
0100
,  // measure 11
0020
0000
1030
0100
1100
0000
0101
0000
,  // measure 12
1001
0000
0001
1000
0200
0000
0310
0001
,  // measure 13
0000
0001
0100
0000
0010
1000
0010
1000
,  // measure 14
0100
0010
0001
1000
0001
0010
0001
0010
,  // measure 15
0100
1000
0001
0100
0010
1000
0010
1000
,  // measure 16
0100
0010
0001
1000
0002
0000
0000
0000
,  // measure 17
0000
0000
1003
0001
1001
1000
0100
1000
,  // measure 18
0001
0100
0010
1000
0200
0000
1300
0100
,  // measure 19
0001
0100
1000
0010
0110
0000
0101
0000
,  // measure 20
1001
0000
0010
1000
1010
0000
0011
0000
,  // measure 21
1001
0000
0010
0100
0101
0100
0010
1000
,  // measure 22
0001
0100
0010
1000
0001
0010
1000
0010
,  // measure 23
0002
0000
1003
0000
0001
0100
0010
1000
,  // measure 24
0000
1000
0001
0000
0220
0000
0000
0000
,  // measure 25
0330
0000
1000
0001
1001
0001
0010
0100
,  // measure 26
0010
0001
1000
1000
0100
0000
1000
0010
,  // measure 27
0200
0000
0301
0100
0101
0000
0011
0000
,  // measure 28
1001
0001
0010
0100
2000
0000
3001
0010
,  // measure 29
0000
0010
0001
0200
0000
0000
0310
0000
,  // measure 30
1000
1000
0010
0100
0001
0000
2000
0000
,  // measure 31
3001
0100
0010
1000
0100
0010
0000
0001
,  // measure 32
1000
0001
0010
0100
1001
0000
0000
0000
,  // measure 33
0001
0010
0001
0010
0100
1000
0010
0100
,  // measure 34
0001
1000
0001
1000
0001
0010
1000
0010
,  // measure 35
0001
0100
0001
0100
0001
1000
0100
0010
,  // measure 36
0002
0000
1000
0000
1003
0000
0001
0100
,  // measure 37
0101
0010
1000
0100
0001
0100
1000
1000
,  // measure 38
0010
0000
1000
0001
0200
0000
0310
1000
,  // measure 39
0001
0010
0001
0100
0001
1000
0001
0100
,  // measure 40
0010
1000
0010
0100
0010
1000
0010
0100
,  // measure 41
0101
0001
1000
0010
0100
0001
1000
1000
,  // measure 42
0001
0100
1000
0100
0002
0000
0013
0001
,  // measure 43
0010
0100
0010
0001
0100
0010
1000
0001
,  // measure 44
2002
0000
0000
3003
,  // measure 45
1001
0000
0000
0000
;

//---------------dance-single - Copied from----------------
#NOTES:
     dance-single:
     Copied from:
     Beginner:
     1:
     0.103,0.128,0.008,0.000,0.000:
0000
0000
0000
0000
,
0000
0000
0000
0000
,
0000
0000
0000
0000
,
0000
0000
0000
0000
,
0000
0000
1000
0000
,
0000
0000
0001
0000
,
0001
0000
0001
0000
,
0001
0000
1000
0000
,
1000
0000
1000
0000
,
0010
0000
0010
0000
,
0010
0000
0100
0000
,
0100
0000
0100
0000
,
0000
0000
0001
0001
,
0001
0000
1000
1000
,
1000
0000
0001
0000
,
0010
0000
0100
0000
,
0000
0000
0000
1000
,
1000
0000
0000
0001
,
0001
0000
0100
0100
,
0100
0000
0010
0010
,
0010
0000
1000
1000
,
0000
0100
0100
0100
,
0000
0010
0001
1000
,
0000
1000
1100
0000
,
0000
0000
1000
1000
,
1000
0000
0000
0001
,
0001
0000
0100
0000
,
0001
0000
0100
0000
,
0010
0000
1000
1000
,
1000
0000
0001
0001
,
0001
0000
1000
0000
,
0100
0000
1000
0000
,
1000
0000
1000
0000
,
1000
0000
0001
0000
,
0001
0000
0001
0000
,
1000
0000
0000
0000
,
0000
1000
0100
0000
,
0000
0100
0100
0000
,
0010
0010
0010
0000
,
0001
0001
0001
0000
,
1000
0000
1000
0000
,
0001
0000
0001
0000
,
0100
0000
0001
0000
,
0100
0000
0000
0000
,
0010
0000
0000
0000
;
