#TITLE:LOVE BAZOOKA!;
#SUBTITLE:;
#ARTIST:DJ YOSHITAKA feat. Nanacchi;
#TITLETRANSLIT:;
#SUBTITLETRANSLIT:;
#ARTISTTRANSLIT:;
#CREDIT:;
#BANNER:Love Bazooka-bn.png;
#BACKGROUND:Love Bazooka-BG.png;
#LYRICSPATH:;
#CDTITLE:;
#MUSIC:LOVEBAZOOKA!.mp3;
#OFFSET:0.198;
#SAMPLESTART:45.710;
#SAMPLELENGTH:12.000;
#SELECTABLE:YES;
#BPMS:0.000=180.000;
#STOPS:;
#BGCHANGES:;

//---------------dance-single - ----------------
#NOTES:
     dance-single:
     :
     Easy:
     4:
     0.153,0.253,0.057,0.057,0.000:
0000
0000
0000
0000
,
0000
0000
0000
0000
,
0000
0000
0000
0000
,
0000
0000
0000
0000
,
0000
0000
0000
0000
,
1000
0000
0000
0000
,
0001
0000
0000
0000
,
1000
0000
0001
0000
,
1001
1001
1001
1001
,
0001
0100
0010
1000
,
0200
0000
0000
0300
,
0010
0001
1000
0100
,
1000
0100
0100
0100
,
0010
0010
0001
1000
,
1000
0100
1000
0001
,
0100
0100
0100
0100
,
0010
0010
0010
0010
,
1000
1000
0001
0001
,
2000
0000
0000
0000
,
3000
0001
0000
0001
,
0000
1000
0000
1000
,
0000
0100
0000
0100
,
0000
0010
0000
0010
,
0000
0001
0000
0001
,
0000
0100
0000
0100
,
0110
0000
1010
0000
,
0002
0000
0000
0000
,
0003
1000
1000
0000
,
0000
0001
0100
0010
,
0000
1000
1000
0000
,
0100
1000
0100
0010
,
0001
0001
0001
0001
,
1000
1000
1000
1000
,
0002
0000
0000
0000
,
1003
0000
0000
0000
,
1000
1000
0001
0001
,
0200
0000
0310
0010
,
0010
1000
0100
1000
,
0002
0000
1000
1003
,
0100
1000
0001
0100
,
0100
0001
1000
0100
;

//---------------dance-single - ----------------
#NOTES:
     dance-single:
     :
     Medium:
     6:
     0.422,0.494,0.239,0.076,0.005:
0000
0000
0000
0000
,
0000
0000
0000
0000
,
0000
0000
0000
0000
,
0000
0000
0000
0000
,
0000
0000
0000
0000
,
1001
0000
0000
0000
,
1001
0000
0000
0000
,
1001
0000
1001
0000
,
1001
1001
1001
1001
,
0001
1000
0100
1000
,
0001
0000
0100
0010
0000
1000
0000
1001
,
0000
0000
0001
0000
0100
0010
1000
0100
,
0000
0100
0010
0000
0001
0000
0100
0000
,
1000
0000
0100
0000
0001
0100
0010
1000
,
0000
1000
0010
0000
0001
0000
1000
0000
,
0011
1100
0011
1100
,
1010
0101
1010
0101
,
0001
0000
1000
0000
0100
0000
1000
0001
,
0000
0001
0100
0000
0010
0000
1000
0200
,
0000
1300
0100
0001
,
1000
0010
0001
0100
,
0100
1000
0001
1000
,
0100
0001
1000
0010
,
0100
0001
1000
0001
,
0100
0010
1000
0001
,
0100
0100
0010
0010
,
1000
0001
0000
0000
0000
0000
0000
0000
,
0000
0000
1001
0000
0001
0100
0000
0010
,
0000
1000
0010
0100
,
0001
0000
1000
0000
0100
1000
0000
0100
,
0000
1000
0100
1000
,
0001
0000
0001
0000
1000
0100
0001
0000
,
0100
0000
0100
0000
0010
0001
1000
0000
,
0010
1000
0100
0010
,
0022
0000
0033
0000
,
1001
0000
0001
0100
0000
0010
0000
2000
,
0000
0000
0000
3000
,
0001
0000
1000
0000
0100
1000
0000
0001
,
0000
0001
0100
0010
,
1000
0000
0100
0000
0001
0100
1000
0100
,
0000
0100
1000
0000
0001
0010
1000
0010
,
0000
0001
1000
0000
0100
0000
0001
0000
,
0100
1000
0010
0100
,
0010
0000
0100
0000
0001
0010
0100
1000
,
0000
0001
0100
0000
0010
0000
1000
0000
,
0010
0000
0100
0000
0001
0000
1000
0100
,
0000
0100
1000
0000
0001
0000
0100
0000
,
0200
0010
0010
0010
,
0310
0010
1000
0100
,
0020
0100
0100
0130
,
0100
1000
0001
0100
,
1100
0000
0100
0000
1000
0001
0000
0200
,
0000
0000
0310
0100
,
0001
0000
0100
0000
0010
1000
0100
1000
,
0000
1000
0001
0000
0100
0000
0010
0000
,
1000
0000
0010
0100
0000
0100
0001
1000
,
0100
0000
0100
1000
0000
1000
0001
0100
,
0000
0000
0110
0000
0010
0010
0000
1010
,
0000
0000
0000
0000
0000
0000
0000
0000
1000
0000
0000
0001
0000
0000
0100
0000
,
0010
1000
0010
0001
,
0010
1000
0010
0001
,
0010
1000
0010
1000
,
0010
0000
0100
0000
0001
1000
0100
1000
,
0000
1000
0100
0000
0010
0000
0001
0000
,
1000
0000
0100
0000
1000
1000
0001
0000
,
0100
0000
0010
0000
1000
0000
0010
0100
,
0000
0100
0001
0000
1000
0000
1000
0100
,
1000
0001
0100
0010
,
1010
0010
0100
0001
,
1100
0000
0100
0000
0100
0000
0100
1000
,
0000
1000
0001
0000
0100
0000
0010
2000
,
0000
0000
0000
0000
,
0000
3000
0000
0000
,
0010
0000
0000
0010
0000
0000
0010
0010
;

//---------------dance-single - Copied from Copied f----------------
#NOTES:
     dance-single:
     Copied from Copied f:
     Hard:
     9:
     0.607,0.639,0.545,0.057,0.005: // measure 1
0000
0000
0000
0000
,  // measure 2
0000
0000
0000
0000
,  // measure 3
0000
0000
0000
0000
,  // measure 4
0000
0000
0000
0000
,  // measure 5
0000
0000
0000
0000
,  // measure 6
0011
0000
0000
0000
,  // measure 7
1100
0000
0000
0000
,  // measure 8
0101
0000
1010
0000
,  // measure 9
0110
0000
1001
0000
0001
0010
0001
0010
,  // measure 10
0100
1000
0100
1000
0010
0100
0001
1000
,  // measure 11
0100
0000
0010
0000
0001
1000
0001
1001
,  // measure 12
0000
0000
0101
0000
0001
0100
0010
1000
,  // measure 13
0000
1000
0001
0100
0001
0010
0001
1000
,  // measure 14
1100
0000
0011
0000
0010
0001
1000
0100
,  // measure 15
0000
1000
0001
0010
0001
1000
0010
0100
,  // measure 16
0101
0000
1010
0000
1000
0100
0010
0001
,  // measure 17
0000
0001
0001
0000
0001
0010
0100
1000
,  // measure 18
0010
1000
0001
0000
0001
0000
1000
0001
,  // measure 19
0000
0001
0100
0000
0001
0000
1000
0200
,  // measure 20
0000
0000
1300
0000
0001
0100
1000
0000
,  // measure 21
0100
0000
0001
0000
0010
0001
0100
0001
,  // measure 22
1000
0000
0010
0000
1000
0100
0001
0000
,  // measure 23
0100
0000
1000
0000
0010
0100
0001
1000
,  // measure 24
0100
0000
0010
0000
0001
0010
1000
0000
,  // measure 25
0010
0000
0001
0000
0100
0010
1000
0001
,  // measure 26
1001
1000
1100
0001
,  // measure 27
0101
0101
0000
0000
0000
0000
0000
0000
,  // measure 28
0000
0000
1001
0000
0011
0011
0000
1100
,  // measure 29
0000
0000
1000
0000
0001
1000
0001
0000
,  // measure 30
0000
0000
0101
0000
0110
0110
0000
1010
,  // measure 31
0000
0000
1000
0010
1000
1000
1000
1000
,  // measure 32
0001
0010
0100
1000
0001
0100
0010
0100
,  // measure 33
0001
0100
0010
1000
0100
1000
0010
0100
,  // measure 34
0101
0011
1010
1001
,  // measure 35
0110
0000
0010
0000
0010
0010
0010
0000
,  // measure 36
1001
0000
0001
0000
1000
0010
1000
0100
,  // measure 37
0000
1000
0010
0001
0010
1000
0100
0010
,  // measure 38
0001
0000
1000
0000
0011
0011
0000
0101
,  // measure 39
0000
1100
0011
1001
,  // measure 40
0001
0000
0010
0000
0100
0010
0001
1001
,  // measure 41
0000
1000
0001
0100
0010
1000
0001
1001
,  // measure 42
0000
1000
0001
0100
0001
1000
0020
0000
,  // measure 43
0030
0100
0010
0000
1000
0100
0001
0100
,  // measure 44
1000
0000
1000
0000
0001
0010
0100
0010
,  // measure 45
0000
0010
0001
1000
0001
0010
0001
1000
,  // measure 46
0100
0000
0010
0000
0001
1000
0100
1000
,  // measure 47
0000
1000
0100
0010
0001
1000
0010
0100
,  // measure 48
0001
0100
1000
0100
0001
0100
1000
0100
,  // measure 49
0001
0100
1000
0100
0001
0100
1000
0100
,  // measure 50
0001
0010
1000
0010
0001
0010
1000
0010
,  // measure 51
0001
0010
1000
0010
0001
0010
0001
0000
,  // measure 52
1001
0000
0010
0000
1000
0001
0100
0010
,  // measure 53
0000
1000
0010
0001
0010
1000
0100
0010
,  // measure 54
0001
0000
0100
0000
0010
0100
0001
0101
,  // measure 55
0000
1010
0101
1001
,  // measure 56
1000
0010
0100
0001
0000
0001
0100
0010
,  // measure 57
1000
0100
0010
0001
0000
0001
1000
0001
,  // measure 58
0000
0000
1001
0000
0011
0011
0000
1100
,  // measure 59
0000
0000
0000
0000
0000
0000
0000
0000
0001
0000
0000
0001
0000
0000
0001
0000
,  // measure 60
1000
0100
0001
0100
1000
0100
0001
0100
,  // measure 61
1000
0100
0001
0100
1000
0100
0001
0100
,  // measure 62
1000
0010
0001
0010
1000
0010
0001
0010
,  // measure 63
1000
0010
1000
0000
1000
0010
0100
0101
,  // measure 64
0000
0000
0011
0000
0001
0100
0010
1000
,  // measure 65
0000
1000
0100
0001
0100
1000
0010
0100
,  // measure 66
0001
0000
1001
0000
0001
0100
0010
1000
,  // measure 67
0000
0001
0010
1000
0010
0001
1000
0001
,  // measure 68
0011
0000
0101
0000
0100
0010
0100
0010
,  // measure 69
0000
1000
0100
0000
0010
0100
0010
0001
,  // measure 70
1000
0100
0010
0000
0100
0000
0010
0001
,  // measure 71
0000
0001
1000
0000
0010
0000
1000
2002
,  // measure 72
0000
0000
0000
0000
,  // measure 73
0000
0000
0000
3003
,  // measure 74
0110
0000
0000
1010
0000
0000
0011
0022
,  // measure 75
0000
0033
0000
0000
;

//---------------dance-single - Copied from----------------
#NOTES:
     dance-single:
     Copied from:
     Beginner:
     2:
     0.180,0.248,0.029,0.010,0.000:
0000
0000
0000
0000
,
0000
0000
0000
0000
,
0000
0000
0000
0000
,
0000
0000
0000
0000
,
0000
0000
0000
0000
,
1000
0000
0000
0000
,
1000
0000
0000
0000
,
0001
0000
0000
0000
,
0001
0000
0000
0000
,
0000
0000
0000
0000
,
0000
0000
0000
0000
,
0001
0001
0001
0000
,
0000
0000
0000
0000
,
1000
1000
1000
0000
,
0000
0000
0000
0000
,
0100
0100
0100
0000
,
0010
0010
0010
0000
,
0001
1000
0001
0000
,
0000
0000
0000
2000
,
0000
3000
0100
0000
,
0010
0000
0001
0000
,
0010
0000
0100
0000
,
0010
0000
0001
0000
,
1000
0000
0001
0000
,
1000
0000
0100
0000
,
1000
0000
0010
0000
,
0010
0000
0000
0000
,
0000
0000
0100
0100
,
0100
0000
0000
0001
,
0000
0001
0001
0001
,
0000
0000
1000
0000
,
0001
0000
0001
0000
,
0001
0000
1000
0000
,
1000
0000
1000
0000
,
1001
0000
0000
0000
,
1000
1000
1000
0000
,
0001
0001
0001
0000
,
0010
0000
0001
0000
,
0010
0010
0010
0100
,
1000
0000
0100
0000
,
1000
0000
0100
0000
,
0010
0000
0001
0000
,
0001
0000
1000
1000
,
1000
0000
0001
0000
,
1000
0000
0001
0001
,
0001
0000
0100
0000
,
0001
0000
0100
0000
,
0010
0000
0010
0000
,
0010
0000
0010
0000
,
0010
0000
0010
0000
,
0010
0000
0010
0000
,
0010
0000
1000
0000
,
0001
0001
0001
0000
,
1000
0000
0100
0000
,
1000
1000
1000
0000
,
0010
0000
0001
0000
,
0010
0000
1000
0000
,
0100
0000
0000
0000
,
0000
0000
0000
0000
,
0010
0000
0010
0000
,
0010
0000
0010
0000
,
0010
0000
0010
0000
,
0001
0000
0001
0000
,
1000
0000
0100
0000
,
1000
0000
0100
0000
,
0010
0000
0001
0000
,
1000
0000
0001
0000
,
1000
0000
1000
0000
,
0001
0000
0001
0000
,
1000
0000
0100
0000
,
1000
0000
0001
0000
,
1001
0000
0000
0000
,
0000
0000
0000
0000
,
0000
0000
0000
0000
,
1001
0000
0000
0000
;
