#TITLE:Judas;
#SUBTITLE:;
#ARTIST:Lady Gaga;
#TITLETRANSLIT:;
#SUBTITLETRANSLIT:;
#ARTISTTRANSLIT:;
#CREDIT:;
#BANNER:judas-BN.png;
#BACKGROUND:JUDAS-BG.png;
#LYRICSPATH:;
#CDTITLE:;
#MUSIC:Lady_gaga_-Judas.mp3;
#OFFSET:-0.060;
#SAMPLESTART:65.860;
#SAMPLELENGTH:12.000;
#SELECTABLE:YES;
#BPMS:0.000=131.000;
#STOPS:;
#BGCHANGES:1.000=Judas.avi=1.000=1=0=1,
99999=-nosongbg-=1.000=0=0=0 // don't automatically add -songbackground-
;

//---------------dance-single - ----------------
#NOTES:
     dance-single:
     :
     Easy:
     3:
     0.226,0.288,0.065,0.130,0.000:
0000
0000
0000
0000
,
0000
0000
0000
0000
,
0000
0000
0000
0000
,
0000
0000
0000
0000
,
0000
0000
0000
0000
,
0000
0000
0000
0000
,
0000
0000
0000
0000
,
0000
0000
0000
0000
,
0000
0000
0000
0000
,
0000
0000
0000
0000
,
0000
0000
0000
0000
,
0000
0000
0000
0000
,
0000
1000
0001
1000
,
0000
0100
0010
0100
,
0000
0010
0001
0010
,
0000
0002
0000
2003
,
0000
3001
0010
0001
,
0000
0100
0001
0100
,
0000
0010
1000
0010
,
0000
2000
0000
3002
,
0000
1003
0100
0001
,
0100
2000
0010
0010
,
3010
0010
0100
0001
,
0100
0020
1000
1000
,
1030
1000
0100
0001
,
0100
2000
0001
0001
,
3001
0001
0100
0010
,
1000
0002
0000
2003
,
0000
3100
0000
1000
,
1001
0001
0000
0100
,
0110
0010
1000
0100
,
1000
0010
0100
0001
,
0010
0001
0000
0100
,
0101
0001
0000
1000
,
1100
1000
0010
0100
,
0001
1000
1001
0000
,
0000
0001
0001
0001
,
0001
1000
1000
1000
,
1000
0001
1000
0001
,
0100
0001
0010
0011
,
1100
1000
1000
1000
,
1000
0001
0001
0001
,
0001
0010
0001
0100
,
0010
1000
0100
1000
,
0001
0100
0100
0100
,
0100
0100
0100
0001
,
0010
0100
1000
0100
,
0000
1000
0010
0100
,
0000
0001
0001
0001
,
0001
0001
0001
1000
,
0100
1000
0010
0010
,
0000
0100
0001
0001
,
0000
1000
0001
2000
,
0000
3001
0100
0002
,
0000
0103
0010
2000
,
0000
3200
0000
0320
,
0000
0030
0000
0000
;

//---------------dance-single - ----------------
#NOTES:
     dance-single:
     :
     Medium:
     5:
     0.296,0.365,0.196,0.177,0.000:
0000
0000
0000
0000
,
0000
0000
0000
0000
,
0000
0000
0000
0000
,
0000
0000
0000
0000
,
0000
0000
0000
0000
,
0000
0000
0000
0000
,
0000
0000
0000
0000
,
0000
0000
0000
0000
,
0000
0000
0000
0000
,
0000
0000
0000
0000
,
0000
0000
0000
0000
,
0000
0000
0000
0000
,
0000
1000
0001
2000
,
0000
3010
0100
0002
,
0000
1003
0100
2000
,
3000
0101
0000
1010
,
0000
1000
0100
2000
,
0000
3001
0010
0002
,
0000
0103
0010
2000
,
3000
0100
0010
0001
,
1001
0000
0001
0000
0100
0000
0010
1000
,
0100
0000
0010
0000
0001
0000
0001
0100
,
1000
0000
0100
0000
0001
0000
0010
0100
,
1000
1001
0001
1000
,
0001
0000
0100
0000
0010
0000
1000
0100
,
0010
0000
0001
0000
0100
0000
0001
1000
,
0100
0000
1000
0000
0001
0000
0100
0010
,
1000
2002
3003
0220
,
0330
0000
0002
0000
1000
0000
0010
0010
,
0013
0000
2000
0000
0100
0000
0010
0010
,
0010
3000
0001
0100
1000
0000
1000
0100
,
0001
1000
0100
0010
,
0001
0000
2000
0000
0010
0000
0010
0010
,
3010
0000
0200
0000
0001
0000
0010
0010
,
0310
0000
0010
1000
0001
0000
1000
0000
,
0100
0000
0010
0001
1000
0000
0001
0000
,
0000
0000
1000
0000
0100
0000
1000
0010
,
0100
0000
0001
0000
0100
0000
0001
0100
,
0010
2010
3001
0102
,
1003
0000
0001
0000
1000
0000
0100
1000
,
0010
0000
0100
0000
0001
0000
0100
0001
,
0100
0000
0010
0000
1000
0000
0100
1000
,
0100
0000
1000
0000
0001
0000
1000
0001
,
1000
0001
0100
0010
,
1000
1100
0011
1100
,
0000
0101
1010
0101
,
0000
0000
1000
0000
0001
0000
1000
0001
,
1000
0000
0001
0000
0100
0000
0010
0100
,
0010
1010
0101
1010
,
0000
1100
0011
1001
,
0000
0000
0001
0100
0001
0000
1000
0000
,
0100
0000
1000
0100
1000
0000
0001
0000
,
0100
0020
0000
1000
,
1000
0030
2000
0000
0000
0000
0001
0000
,
3001
0002
0000
0100
,
0103
0010
1000
0001
,
1001
0000
0000
0000
;

//---------------dance-single - Copied from Copied f----------------
#NOTES:
     dance-single:
     Copied from Copied f:
     Hard:
     8:
     0.417,0.497,0.289,0.112,0.200: // measure 1
0000
0000
0000
0000
,  // measure 2
0000
0000
0000
0000
,  // measure 3
0000
0000
0000
0000
,  // measure 4
0000
0000
0000
0000
,  // measure 5
0000
0000
0000
0000
,  // measure 6
0000
0000
0000
0000
,  // measure 7
0000
0000
0000
0000
,  // measure 8
0000
0000
0000
0000
,  // measure 9
0000
0000
0000
0000
,  // measure 10
0000
0000
0000
0000
,  // measure 11
0000
0000
0000
0000
,  // measure 12
0000
0000
0000
0000
,  // measure 13
0000
0000
0000
0000
0011
0000
0000
0000
1001
0000
0000
0000
0001
0000
0000
0100
,  // measure 14
0000
0010
0000
1000
0100
0000
0000
0000
1010
0000
0000
0000
1000
0000
0000
0010
,  // measure 15
0000
0100
0000
0001
0010
0000
0000
0000
0011
0000
0000
0000
0010
0000
0000
0001
,  // measure 16
0000
0000
0000
1000
0000
0000
0000
0000
0000
0100
0000
0000
1000
0000
0000
0000
0001
0000
0000
0000
1000
0000
0000
0000
0001
0000
0000
0000
0000
0000
1000
0000
0000
0000
0000
0000
0010
0000
0000
0000
1000
0000
0000
0000
0010
0000
0000
0000
,  // measure 17
1000
0000
0010
0000
1010
0000
0000
0000
0101
0000
0000
0000
0010
0000
0000
0100
,  // measure 18
0000
0001
0000
1000
0100
0000
0000
0000
1100
0000
0000
0000
0001
0000
0000
0010
,  // measure 19
0000
0001
0000
1000
0100
0000
0000
0000
1100
0000
0000
0000
1000
0000
0000
0010
,  // measure 20
0000
0000
0000
0100
0000
0000
0000
0000
0000
0001
0000
0000
0100
0000
0000
0000
0010
0000
0000
0000
0100
0000
0000
0000
0010
0000
0000
0000
0000
0000
0100
0000
0000
0000
0000
0000
0010
0000
0000
0000
1000
0000
0000
0000
0010
0000
0000
0000
,  // measure 21
1000
0010
1000
0001
1000
0100
0001
0100
,  // measure 22
1000
0010
0100
0000
0101
0000
0001
0000
,  // measure 23
1000
0010
0100
1000
0100
0001
0010
0100
,  // measure 24
1000
0001
0100
0000
1010
0000
0001
0000
,  // measure 25
1000
0010
0001
0010
0100
0001
0010
0100
,  // measure 26
1000
0001
1000
0000
1001
0000
1000
0000
,  // measure 27
0010
0100
0001
0010
0001
1000
0100
0010
,  // measure 28
0001
0000
0000
0100
0000
0000
0010
0000
0100
0000
0010
0000
0100
0000
0000
0010
0000
0000
1000
0000
0001
0000
1000
0000
,  // measure 29
0001
1000
1002
0000
0000
0103
1000
0100
,  // measure 30
0001
0000
2010
0000
0000
3100
0001
0100
,  // measure 31
1000
0000
0001
0000
0101
0000
0001
0100
,  // measure 32
0010
0000
0100
0000
1010
0000
0010
1000
,  // measure 33
0001
0000
1002
0000
0000
1003
0010
0001
,  // measure 34
0010
0000
0102
0000
0000
0013
1000
0010
,  // measure 35
0001
0000
1000
0000
0011
0000
0001
0100
,  // measure 36
1000
0100
0202
0000
,  // measure 37
0303
0000
1000
0001
0100
0001
1000
0001
,  // measure 38
0010
0200
0000
1300
0010
0001
0010
1000
,  // measure 39
0100
0100
0010
0001
1000
0001
0200
0000
,  // measure 40
0310
1000
0002
0000
1003
0000
0011
0000
,  // measure 41
1100
0000
0001
0100
0010
1000
0100
0010
,  // measure 42
0001
0200
0000
0301
0100
1000
0100
0001
,  // measure 43
0010
0010
0001
1000
0100
0010
0002
0000
,  // measure 44
0103
0010
2000
0000
3001
0000
0011
0000
,  // measure 45
1100
1001
0101
1010
,  // measure 46
1000
0100
0010
0000
0001
0100
0010
0000
,  // measure 47
1010
0000
1000
0000
0100
0000
0001
0100
,  // measure 48
1000
0000
0010
0000
0100
0000
0010
1000
,  // measure 49
0001
0011
0101
1001
,  // measure 50
0001
0010
0100
0000
1000
0010
0100
0000
,  // measure 51
0011
0000
0001
0000
0010
0000
1000
0010
,  // measure 52
0001
0000
1000
0000
0001
0000
1000
0010
,  // measure 53
0100
0000
0000
0000
0001
0000
0000
0000
0100
0000
0000
0000
0010
0000
0000
1000
,  // measure 54
0000
0001
0000
1000
0100
0000
0000
0000
1000
0000
0000
0000
0001
0000
0000
0100
,  // measure 55
0000
0010
0000
1000
0010
0000
0000
0000
0100
0000
0000
0000
0001
0000
0000
1000
,  // measure 56
0000
0000
0000
0100
0000
0000
0000
0000
0000
1000
0000
0000
0001
0000
0000
0000
0100
0000
0000
0000
0001
0000
0000
0000
0100
0000
0000
0000
0000
0000
0001
0000
0000
0000
0000
0000
1000
0000
0000
0000
0100
0000
0000
0000
1000
0000
0000
0000
,  // measure 57
0100
1000
0000
0000
0000
0000
0000
0000
;

//---------------dance-single - Copied from----------------
#NOTES:
     dance-single:
     Copied from:
     Beginner:
     1:
     0.115,0.129,0.000,0.037,0.000:
0000
0000
0000
0000
,
0000
0000
0000
0000
,
0000
0000
0000
0000
,
0000
0000
0000
0000
,
0000
0000
0000
0000
,
0000
0000
0000
0000
,
0000
0000
0000
0000
,
0000
0000
0000
0000
,
0000
0000
0000
0000
,
0000
0000
0000
0000
,
0000
0000
0000
0000
,
0000
0000
0000
0000
,
0000
0001
0000
0000
,
0000
0001
0000
0000
,
0000
0001
0000
0000
,
0000
0001
0000
0000
,
0000
1000
0000
0000
,
0000
1000
0000
0000
,
0000
1000
0000
0000
,
0000
1000
0000
0000
,
0000
0010
0010
0010
,
0010
0010
0000
0000
,
0000
0100
0100
0100
,
0100
0100
0000
0000
,
0000
0001
0001
0001
,
0001
0001
0000
0000
,
0000
1000
1000
1000
,
1000
1000
0000
0000
,
0000
0002
0000
0000
,
0003
2000
0000
0000
,
3000
0001
0100
0000
,
0100
0010
0010
0000
,
0000
2000
0000
0000
,
3000
0200
0000
0000
,
0300
0010
0010
0010
,
0001
0000
0001
0000
,
0000
1000
1000
1000
,
0000
0010
0000
0010
,
0000
0100
0100
0100
,
0000
0001
0000
0001
,
0000
0100
0100
0100
,
0000
0001
0000
0001
,
0000
0010
0010
0010
,
0000
0100
0000
0100
,
0000
1000
0000
1000
,
0000
1000
0000
0001
,
0000
0001
0000
0001
,
0000
0100
0000
0100
,
0000
0100
0000
0001
,
0000
0001
0000
0001
,
0000
0010
0000
0010
,
0000
0010
0000
0100
,
0000
1000
0000
0000
,
0000
0001
0000
0000
,
0000
1000
0000
0000
,
0000
0001
0000
0000
;
