#TITLE:Infinity of Our Love;
#SUBTITLE:;
#ARTIST:Nekomata Master;
#TITLETRANSLIT:;
#SUBTITLETRANSLIT:;
#ARTISTTRANSLIT:;
#CREDIT:Chewphoria~;
#BANNER:infinity of our love-bn.png;
#BACKGROUND:infinity of our love-bg.png;
#LYRICSPATH:;
#CDTITLE:Dancemania TRANCE Z.png;
#MUSIC:Infinity of Our Love.mp3;
#OFFSET:-0.813;
#SAMPLESTART:82.710;
#SAMPLELENGTH:15.000;
#SELECTABLE:YES;
#BPMS:0.000=114.000;
#STOPS:;
#BGCHANGES:;

//---------------dance-single - ----------------
#NOTES:
     dance-single:
     :
     Hard:
     5:
     0.337,0.374,0.104,0.476,0.004:
0000
0000
0000
0000
,
0000
0000
0000
0000
,
0000
0000
0000
0000
,
0000
0000
0000
0000
,
0000
0000
0000
0000
,
0000
0000
0000
0000
,
0011
2001
0001
0001
,
0010
3020
2030
3002
,
0023
0230
1000
0010
,
0310
0000
0001
0000
1000
0000
0010
0000
0100
0000
0002
0000
0000
0000
0103
0010
,
0100
2010
0001
0001
,
0100
3200
2300
3020
,
0230
0302
0100
0100
,
1003
0100
1000
0010
0100
0002
0000
0000
,
0000
1003
0001
0010
,
0001
1000
0100
0000
1000
0000
0010
0000
,
0100
0001
0010
0000
0100
0000
1000
0000
,
0001
0200
0301
2000
,
3100
0010
0001
0000
0100
0000
0001
0000
,
0010
0100
1000
0000
0001
0000
1000
0000
,
0001
0010
1000
0000
0010
0000
0001
0000
,
0100
1000
0100
0010
,
1000
0001
0010
0000
0100
0000
1000
0000
,
0001
0100
1000
0000
0100
0000
0001
0000
,
0100
0010
1000
0000
0100
0000
1000
0000
,
0010
0100
0001
0000
1000
0000
0001
0000
,
0100
0001
0010
0000
0100
0000
1000
0000
,
0100
1000
0200
0000
1300
0000
0001
0000
,
0200
0310
1000
0001
,
0010
0000
0100
1000
0100
0000
1000
0000
,
0001
0100
0020
0000
0001
0000
0130
0000
,
0010
2000
0010
3100
,
1000
0002
1000
0013
,
0001
0200
0010
1300
,
0100
0002
1000
0103
,
0001
0000
0010
0000
0100
0000
1000
0100
,
0010
0001
2002
0000
0000
0000
0000
0000
,
3003
1010
0100
0010
,
0001
0210
0010
0310
,
1010
0000
0201
0000
0301
0100
0020
0000
,
1030
0100
2000
0000
3002
0000
0203
0000
,
0301
0000
2100
0000
3001
1000
0020
0000
,
1030
0000
0001
0010
0100
2000
0000
3200
,
0000
0300
2001
0000
3001
1000
0200
0000
,
1300
0001
0020
0000
0031
0100
0020
0000
,
1030
0000
0002
0000
0103
0001
2000
0000
,
3010
0100
0002
0023
,
0130
0000
2010
0000
3010
1000
0200
0000
,
0310
0001
2000
0000
3200
0000
0320
0000
,
0031
0000
0201
0000
0301
0100
0020
0000
,
1030
0100
1000
0001
0010
0200
0000
2300
,
0000
3000
2001
0000
3001
0010
0200
0000
,
1300
0010
0200
0000
0301
1000
0020
0000
,
0130
0000
0002
0000
1003
0100
0010
0000
,
0001
0100
0002
0203
,
0320
2030
0000
3002
,
0000
0203
0000
0310
,
1000
0002
0000
0000
,
0000
1003
0000
0000
,
0000
1001
0000
0000
;

//---------------dance-single - ----------------
#NOTES:
     dance-single:
     :
     Medium:
     4:
     0.253,0.308,0.111,0.290,0.000:
0000
0000
0000
0000
,
0000
0000
0000
0000
,
0000
0000
0000
0000
,
0000
0000
0000
0000
,
0000
0000
0000
0000
,
0000
0000
0000
0000
,
0000
2000
0010
0010
,
0010
3002
0023
0230
,
2300
3002
0100
0100
,
0100
0013
1000
0100
,
1100
0002
0100
0100
,
0103
2000
3200
0320
,
0032
2003
0001
0001
,
3001
0000
0001
1001
,
0000
1000
0100
1000
,
0010
2000
3001
0100
,
0001
0010
0200
1300
,
0001
1001
0000
0101
,
0000
0001
0010
0100
,
0010
0002
0103
0010
,
1000
0200
1300
0010
,
0100
0101
0000
1001
,
0000
1000
0100
1000
,
0001
0001
0010
0100
,
0010
0010
0001
0100
,
0010
1000
0100
1000
,
1001
1000
0010
0100
,
0001
0101
0001
0100
,
0010
1010
1000
0100
,
1000
0001
0100
0010
,
1000
0200
0000
0000
,
0300
1000
0001
0100
,
0001
0020
0000
0031
,
0100
0000
0002
0000
0000
0003
1000
0000
,
0100
2000
0000
3010
,
0000
0100
0000
0001
,
0100
0220
0000
0000
,
0330
1001
0000
0000
,
0000
1000
1000
1000
,
0001
0200
0310
2000
,
3100
1000
0100
1100
,
0001
0200
0301
0020
,
0031
0100
0010
1000
,
0100
2000
3001
0200
,
0301
0010
0100
1000
,
0001
0100
0101
0001
,
1001
1000
0010
0010
,
0010
0210
0310
1000
,
0100
2000
3001
1000
,
0010
0200
0301
2000
,
3100
1000
0010
0100
,
0001
0020
0031
2000
,
3001
1000
0100
1000
,
0010
0200
0001
0010
,
0001
0010
0001
0310
,
1000
0200
0000
2300
,
0000
3002
0000
0103
,
0100
0200
0000
0000
,
0000
0310
0000
0000
,
0000
0010
0000
0000
;

//---------------dance-single - ----------------
#NOTES:
     dance-single:
     :
     Easy:
     3:
     0.140,0.164,0.082,0.089,0.000:
0000
0000
0000
0000
,
0000
0000
0000
0000
,
0000
0000
0000
0000
,
0000
0000
0000
0000
,
2000
0000
0000
3000
,
0001
0000
0000
0000
,
0002
0000
0000
0003
,
1000
0000
0000
0000
,
0220
0000
0000
0330
,
0001
0100
0001
0100
,
1000
0100
1000
0100
,
1000
0010
1000
0010
,
0001
0010
0001
0010
,
1000
0100
1000
0100
,
0001
0100
0001
0100
,
0001
0010
0001
0010
,
1000
0010
1000
0010
,
2000
0000
0000
3000
,
0001
0001
0001
0000
,
0002
0000
0000
0003
,
1000
1000
1000
0000
,
0020
0000
0000
0030
,
0100
0100
0100
0000
,
0200
0000
0000
0300
,
0010
0010
0010
0000
,
1000
0000
0100
0000
,
0001
0000
0010
0000
,
1001
0000
0100
0000
,
0110
0000
1000
1000
,
0001
0100
0001
0000
,
1001
0000
1000
0000
,
1000
0100
1000
0000
,
1001
0000
0001
0000
,
0010
1000
0010
0000
,
1010
0000
0001
0000
,
0001
0010
0001
0000
,
0001
0000
0011
0000
,
0002
0000
0000
0003
,
1000
1000
1000
0000
,
2000
0000
0000
3000
,
0001
0001
0001
0000
,
0200
0000
0000
0300
,
0010
0010
0010
0000
,
0020
0000
0000
0030
,
0100
0100
0100
0000
,
0010
1000
0010
0000
,
0101
0000
1100
0000
,
0010
0001
0010
0000
,
0011
0000
1010
0000
,
0100
0000
0000
0000
;

//---------------dance-single - ----------------
#NOTES:
     dance-single:
     :
     Beginner:
     1:
     0.097,0.127,0.022,0.000,0.000:
0000
0000
0000
0000
,
0000
0000
0000
0000
,
0000
0000
0000
0000
,
0000
0000
0000
0000
,
1001
0000
0000
0000
,
1000
0000
0000
0000
,
0001
0000
0000
0000
,
0010
0000
0000
0000
,
0110
0000
0000
0000
,
1000
0000
1000
0000
,
1000
0000
1000
0000
,
0001
0000
0001
0000
,
0001
0000
0001
0000
,
0010
0000
0010
0000
,
0010
0000
0010
0000
,
0100
0000
0100
0000
,
0100
0000
0100
0000
,
1000
0000
1000
0000
,
1000
0000
1000
0000
,
0001
0000
0001
0000
,
0001
0000
0001
0000
,
0010
0000
0010
0000
,
0010
0000
0010
0000
,
0100
0000
0100
0000
,
0100
0000
0100
0000
,
1001
0000
0000
0000
,
1000
0000
0000
0000
,
0010
0000
0001
0000
,
0010
0000
1000
0000
,
0001
0000
0100
0000
,
1000
0000
0010
0000
,
0001
0000
0010
0000
,
1000
0000
0100
0000
,
1000
0000
0001
0000
,
1000
0000
0001
0000
,
0010
0000
0100
0000
,
0010
0000
0100
0000
,
1000
0000
1000
0000
,
0001
0000
0001
0000
,
0100
0000
0100
0000
,
0010
0000
0010
0000
,
0001
0000
0001
0000
,
1000
0000
1000
0000
,
0010
0000
0010
0000
,
0100
0000
0100
0000
,
0001
0001
0001
0000
,
1000
1000
1000
0000
,
0100
0100
0100
0000
,
0010
0010
0010
0010
;
