#TITLE:E.T.;
#SUBTITLE:;
#ARTIST:Katy Perry;
#TITLETRANSLIT:;
#SUBTITLETRANSLIT:;
#ARTISTTRANSLIT:;
#CREDIT:Chewphoria~;
#BANNER:E.T.-BN.png;
#BACKGROUND:E.T.-BG.png;
#LYRICSPATH:;
#CDTITLE:Dancemania TRANCE Z.png;
#MUSIC:08. E.T. - Katy Perry.mp3;
#OFFSET:-2.673;
#SAMPLESTART:45.030;
#SAMPLELENGTH:15.000;
#SELECTABLE:YES;
#BPMS:0.000=75.000;
#STOPS:;
#BGCHANGES:0.000=E.T..avi=1.000=1=1=0,
99999=-nosongbg-=1.000=0=0=0 // don't automatically add -songbackground-
;

//---------------dance-single - ----------------
#NOTES:
     dance-single:
     :
     Hard:
     7:
     0.383,0.363,0.394,0.039,0.098: // measure 1
0000
0000
0000
0000
,  // measure 2
0000
0000
0000
0000
1000
0000
0100
0000
1000
0000
0000
0000
0001
0100
0001
0000
,  // measure 3
0010
0000
0001
0100
0110
0010
1000
0100
,  // measure 4
1001
0000
1000
0000
0010
0000
0100
0000
0001
0000
0000
0000
1000
0100
1000
0000
,  // measure 5
0001
0000
0001
0100
0101
0001
1000
0010
,  // measure 6
1001
1000
0001
0100
0010
0000
1000
0001
,  // measure 7
0100
0000
0001
0010
0011
0001
1000
0010
,  // measure 8
0110
0100
0001
0010
0100
0000
1000
0100
,  // measure 9
0010
0000
0001
0100
1010
1000
0001
0100
,  // measure 10
0010
0000
1000
0100
0110
0000
0001
0100
,  // measure 11
0110
0000
1000
0100
1100
0000
0001
0100
,  // measure 12
0101
0000
1000
0100
0110
0100
1000
0010
,  // measure 13
0101
0001
1000
0100
1010
0010
1000
0100
,  // measure 14
1002
0000
0000
0000
1003
0000
0001
0000
0100
0000
0000
0000
0100
0001
0100
0000
,  // measure 15
0001
0000
0000
0001
1000
0100
0010
0001
1000
0000
1001
0000
1000
0010
0100
0001
,  // measure 16
1000
0000
1010
0000
1000
0000
0010
0000
0100
0000
0000
0000
0010
0100
0010
0000
,  // measure 17
1000
0000
0000
0000
0001
0100
0001
1000
0001
0000
1001
0000
1000
0100
1000
0010
,  // measure 18
0100
0101
0001
0010
0011
0001
0100
0010
,  // measure 19
1010
1000
0001
0100
0110
0001
0010
0100
,  // measure 20
1001
0001
1000
0100
1100
0100
1000
0010
,  // measure 21
1010
0100
0001
0100
0101
0001
1000
0100
,  // measure 22
1100
0001
0102
0100
0103
0000
2100
0100
,  // measure 23
3100
0000
0000
0000
1000
0000
0100
0000
1000
0000
0000
0000
0001
1000
0001
0000
,  // measure 24
0100
0000
0001
0100
0110
0010
1000
0100
,  // measure 25
1100
0001
1000
0001
0100
0000
0001
0010
,  // measure 26
0100
0000
1000
0010
0101
0001
1000
0100
,  // measure 27
1000
0000
0010
0100
0101
0000
1000
0100
,  // measure 28
1100
0000
0001
0010
0110
0000
0010
0001
,  // measure 29
1001
0000
1000
0100
1010
0100
0001
0010
,  // measure 30
0101
0010
0001
1000
0110
1000
0100
0010
,  // measure 31
2001
0000
0000
0000
3001
0000
0100
0000
0010
0000
0000
0000
1000
0010
0100
0000
,  // measure 32
0010
0000
0000
1000
0100
0010
0100
1000
0001
0000
0101
0000
0010
1000
0001
0100
,  // measure 33
0001
0000
1001
0000
0001
0000
1000
0000
0100
0000
1000
0000
0010
0100
0001
0000
,  // measure 34
0100
0000
0010
0000
1000
0100
1000
0001
0010
0000
0011
0000
0010
0001
0100
0010
,  // measure 35
1000
1001
0001
0100
0110
0001
0010
0001
,  // measure 36
1100
0010
0001
0100
0011
0100
1000
0010
,  // measure 37
0101
0010
1000
0001
1100
0100
1000
0001
,  // measure 38
0110
0100
0001
1000
0100
0010
0002
0000
,  // measure 39
0000
0000
0000
0003
0000
0000
0000
0000
;

//---------------dance-single - ----------------
#NOTES:
     dance-single:
     :
     Medium:
     5:
     0.319,0.312,0.189,0.260,0.000:
0000
0000
0000
0000
,
0000
0000
2000
0000
3001
0000
0100
0001
,
0101
0000
0001
0100
0020
1030
1000
0100
,
0020
0031
0002
0000
1003
0000
0100
1000
,
0010
0000
0100
0001
2000
3100
0010
0001
,
0200
0310
2000
0000
3001
0000
0100
0001
,
0100
0000
0001
0010
0002
1003
0100
1000
,
0020
0130
0002
0000
0013
0000
0001
1000
,
0100
0000
2000
3001
0100
0001
0100
0000
,
0101
1000
1100
0001
,
0101
1000
1010
0001
,
0101
0000
1000
0100
0001
0100
1000
0010
,
0001
0010
1000
0100
0010
0001
0100
0010
,
2000
0000
3001
0000
0101
0000
0001
1000
,
1100
0000
1000
0001
0101
1001
1000
0100
,
1100
1001
0100
0000
0101
0000
0001
1000
,
0100
0000
1000
0010
1010
1001
1000
0100
,
1100
0011
0001
0100
0002
0000
1003
0100
,
2000
0000
3010
0100
0002
0000
0103
0010
,
2000
0000
3100
1000
0002
0000
0013
0001
,
0200
0000
0310
1000
0002
0000
1003
0100
,
1000
0000
0001
1000
0001
0000
1000
0001
,
1000
0000
0200
0000
1300
0000
0010
0100
,
0001
0000
1000
0100
1000
1000
0001
0010
,
0100
0100
0010
0001
0100
0000
0001
1000
,
0100
0000
1000
1000
0001
0100
0001
1000
,
0100
0000
2000
0000
3001
0000
0100
0001
,
0100
0000
0002
0000
0103
0000
0010
1000
,
0010
0000
2000
0000
3100
0000
0010
0001
,
0010
0000
0001
0100
0010
1000
0100
0010
,
0002
0000
1003
0100
1000
0000
0001
0001
,
1001
0000
0001
0100
0010
1010
1000
0100
,
1000
1001
0001
0100
0020
0000
1030
0100
,
0020
0000
0031
0100
0101
1001
0001
1000
,
1100
1001
1000
0100
2000
0000
3001
0100
,
0002
0000
0013
0100
0020
0000
0031
0100
,
0020
0000
1030
0100
2000
0000
3001
0100
,
0020
0000
1030
0100
0002
0000
0103
0000
;

//---------------dance-single - ----------------
#NOTES:
     dance-single:
     :
     Easy:
     2:
     0.177,0.163,0.008,0.094,0.000:
0000
0000
0000
0000
,
0000
1000
0100
1000
,
1000
0001
0100
0001
,
0001
0010
0100
0010
,
0010
0001
0100
0100
,
0001
1000
0100
1000
,
0001
1000
1000
0100
,
1000
0010
0010
0001
,
0010
1000
1000
0100
,
1000
0002
0100
0010
,
0103
2000
0001
0100
,
3001
0200
0010
1000
,
0310
0001
0100
1000
,
0200
0301
0010
0001
,
0001
1000
0100
1100
,
0001
0100
0100
0010
,
0010
1000
0100
1000
,
0001
1000
1000
0001
,
0001
0100
0100
0010
,
0010
1000
1000
0100
,
0100
0010
0010
0001
,
1000
0100
0000
0000
,
0000
0010
0010
0002
,
1003
0100
1000
0010
,
0100
0002
0103
0010
,
0010
1000
0100
1000
,
0001
0200
0001
0010
,
0301
2000
0100
0010
,
3100
0020
1000
0100
,
0031
1000
0100
0001
,
0200
1300
0010
0100
,
0100
0001
0010
0100
,
0100
0010
0001
1000
,
1000
0100
1000
0010
,
0100
0002
0100
0010
,
0100
0013
1000
0100
,
1000
0020
0100
1000
,
0100
1030
0100
1000
;

//---------------dance-single - Copied from----------------
#NOTES:
     dance-single:
     Copied from:
     Beginner:
     1:
     0.108,0.134,0.000,0.063,0.000:
0000
0000
0000
0000
,
0000
1000
0000
1000
,
0000
0001
0000
0001
,
0000
0100
0000
0100
,
0000
0001
0000
0001
,
0000
0010
0000
0010
,
0000
0001
0000
0001
,
0000
1000
0000
1000
,
0000
0100
0000
0100
,
0000
2000
0000
0000
,
3000
0002
0000
0000
,
0003
0200
0000
0000
,
0300
0020
0000
0000
,
0030
1000
1000
0001
,
0001
0100
0000
0100
,
0000
0001
0001
0010
,
0010
0100
0000
0100
,
0000
1000
1000
0001
,
0001
1000
1000
0001
,
0001
1000
1000
0001
,
0001
1000
1000
0001
,
0001
0100
0000
0000
,
0000
0100
0000
0100
,
0000
0001
0000
0001
,
0000
0010
0000
0010
,
0000
0001
0000
0001
,
0000
2000
0000
0000
,
3000
0002
0000
0000
,
0003
0020
0000
0000
,
0030
0002
0000
0000
,
0003
1000
0010
1000
,
1000
0100
0000
0100
,
0000
0010
0010
0001
,
0001
0100
0000
0100
,
0000
0001
0001
0010
,
0010
0001
0001
0010
,
0010
0001
0001
0100
,
0100
0001
0001
1000
;

//---------------dance-single - Copied from----------------
#NOTES:
     dance-single:
     Copied from:
     Challenge:
     8:
     0.485,0.446,0.677,0.189,0.240:
0000
0000
0000
0000
,
0000
0000
0000
0000
1000
0000
0100
0000
1100
0000
0000
0000
0001
0100
0001
0000
,
1001
0000
0000
0000
0100
0001
1000
0010
0100
0000
0101
0000
0010
1000
0001
0100
,
0010
0000
1010
0000
1000
0000
0010
0000
0110
0000
0000
0000
0100
0001
1000
0000
,
1001
0000
0000
0000
1000
0001
0100
0010
0100
0000
1010
0000
1000
0001
0010
0001
,
0100
1001
0001
0100
0110
0000
1000
0100
,
1001
0000
0000
0000
1000
0001
0100
0010
1000
0000
1100
0000
0001
0100
0010
1000
,
0100
1001
0001
0100
0110
0000
1000
0100
,
0110
0000
0000
0000
0100
0010
0001
1000
0001
0000
1001
0000
0001
0000
0100
0000
,
0101
0000
1000
0100
1001
0000
0001
0100
,
1001
0000
0001
0100
0011
0000
1000
0010
,
1100
0000
0011
0001
1001
0100
0110
0010
,
1010
0100
1100
0010
0011
0001
1100
1001
,
0120
0000
0000
0000
1030
0000
0100
0000
2000
0000
3001
0000
0100
0001
0100
0000
,
0002
0000
1003
0001
0100
1000
0100
0001
0010
0000
0011
0000
0001
1000
0100
0001
,
0100
0000
1100
0000
1000
0000
0001
0000
0200
0000
0310
0000
1000
0100
0010
0000
,
0200
0000
0310
0000
0001
0010
1000
0010
0001
0000
1001
0000
1000
0010
0001
0010
,
1000
0000
1001
0000
0001
0100
0001
0100
0010
0000
1000
0000
1100
0000
1010
0000
,
0220
0000
0330
0000
0001
0100
0001
0100
0010
0000
1000
0000
1010
0000
1100
0000
,
2002
0000
3003
0000
0100
0010
0100
0010
1000
0000
0010
0000
1001
0000
0110
0000
,
0202
0000
0303
0000
1000
0100
1000
0100
0010
0000
0001
0000
0011
0000
0101
0000
,
0220
0330
1100
1100
1001
0000
0011
0011
,
1001
0000
0000
0000
0001
0000
0100
0000
0110
0000
0000
0000
1000
0100
0010
0000
,
0011
0000
0000
0000
0100
0010
1000
0001
0100
0000
0110
0000
1000
0001
0100
0010
,
1000
1010
0001
0100
0110
0000
1000
0100
,
0110
0000
0000
0000
0010
0001
1000
0100
1000
0000
1001
0000
0001
0000
1000
0000
,
1100
0000
1000
0100
1001
0000
0001
0100
,
1001
0000
0001
0010
0101
0000
1000
0100
,
1010
0000
1010
0010
0110
0001
1001
1000
,
0101
0001
0110
1000
1010
0010
1001
0110
,
1002
0000
0000
0000
1003
0000
0100
0000
2000
0000
3001
0000
0100
0001
0100
0000
,
0020
0000
1030
0010
0001
0010
1000
0100
0010
0000
1001
0000
0001
0100
1000
0100
,
0001
0000
0101
0000
0001
0000
1000
0000
0200
0000
1300
0000
0100
1000
0010
0000
,
0200
0000
0310
0000
0010
1000
0001
0100
0001
0000
0101
0000
0001
0010
1000
0010
,
0001
0000
1100
0000
1000
0010
1000
0010
0100
0000
0001
0000
0101
0000
1010
0000
,
2002
0000
3003
0000
1000
0001
1000
0001
0100
0000
0001
0000
0011
0000
1100
0000
,
2002
0000
3003
0000
0100
0010
0100
0010
1000
0000
0001
0000
0101
0000
1010
0000
,
0220
0000
0330
0000
0100
0001
0100
0001
1000
0000
0001
0000
1001
0000
0000
0000
;
