#TITLE:Curiosity;
#SUBTITLE:;
#ARTIST:Genki Rockets;
#TITLETRANSLIT:;
#SUBTITLETRANSLIT:;
#ARTISTTRANSLIT:;
#CREDIT:;
#BANNER:Curiosity-BN.png;
#BACKGROUND:Curiosity-BG.png;
#LYRICSPATH:;
#CDTITLE:;
#MUSIC:01 Curiocity 1.mp3;
#OFFSET:0.018;
#SAMPLESTART:50.900;
#SAMPLELENGTH:12.000;
#SELECTABLE:YES;
#BPMS:0.000=121.000;
#STOPS:;
#BGCHANGES:0.000=Curiosity.avi=1.000=1=1=0,
99999=-nosongbg-=1.000=0=0=0 // don't automatically add -songbackground-
;

//---------------dance-single - ----------------
#NOTES:
     dance-single:
     :
     Easy:
     4:
     0.256,0.256,0.094,0.103,0.000:
0000
0000
0000
0000
,
0000
0000
0000
0000
,
0000
0000
0000
0000
,
0000
0000
0000
0000
,
0000
1000
1000
1000
,
0002
0103
0100
0100
,
0200
0310
0010
0010
,
0020
1030
1000
0001
,
1000
2002
0000
3003
,
0000
0001
0001
1000
,
1000
0001
1000
0001
,
0100
0001
0010
0010
,
0001
0100
0100
0010
,
1000
0200
0000
1300
,
0001
0200
0000
0301
,
0010
0100
1000
0100
,
1000
0010
0100
0001
,
0100
0001
0101
0000
,
0010
1000
1100
0000
,
1000
0001
0001
0001
,
0001
1000
0010
0010
,
0010
0200
0301
0001
,
0010
0200
1300
1000
,
0010
0200
0301
0001
,
0010
0200
1300
0010
,
0100
1001
0000
1000
,
0100
1000
0010
1000
,
0100
1000
1001
0001
,
0010
0001
0100
0001
,
0010
0001
1001
0001
,
0100
1000
0100
0001
,
0100
1000
0100
0001
,
0010
0100
1000
1001
,
0000
0000
0000
1000
,
0010
1000
0100
1000
,
0001
1000
1100
0010
,
0001
0010
0001
0100
,
0010
1000
0100
1000
,
0010
0100
0001
0010
,
0100
1000
0001
1000
,
1001
0000
0000
0001
,
0010
0100
1000
0001
,
0001
0001
0001
0001
,
0001
0001
0001
1000
,
1000
1000
1000
1000
,
1000
1000
1000
0010
,
0100
0010
0100
0010
,
0100
0010
0100
0001
,
1000
0001
1000
0001
,
1000
0001
1000
1001
;

//---------------dance-single - ----------------
#NOTES:
     dance-single:
     :
     Medium:
     5:
     0.319,0.326,0.103,0.131,0.000:
0000
0000
0000
0000
,
0000
0000
0000
0000
,
0000
0000
0000
0000
,
0000
0000
0000
0000
,
0000
1000
1000
0001
,
0001
1000
1000
0100
,
0100
0010
0010
0001
,
0001
1000
1000
0001
,
0001
2002
0000
0000
,
3003
0000
1000
0000
0001
0100
0010
0000
,
1000
0000
0100
0000
1000
0010
0100
0000
,
0001
0001
0010
0000
0001
0000
0100
0000
,
0010
0000
1000
0100
1000
0000
0001
0000
,
1001
0000
0001
0100
0010
0000
1000
0000
,
0100
0000
1000
0100
1000
0000
0001
0000
,
0100
0000
0001
0010
1000
0000
0010
0000
,
0001
0000
0100
1000
0100
0000
0001
0000
,
0010
0100
2000
0000
3010
0000
1000
0000
,
1001
1000
0010
0100
,
0101
0000
0001
0010
0001
0010
0001
0100
,
0010
0000
1000
0010
1000
0010
1000
0100
,
0010
0000
0001
0000
0100
0000
0001
0100
,
0010
0000
1000
0000
0100
0000
1000
0100
,
0010
0000
0001
0000
1000
0000
0001
1000
,
0001
1000
0010
0220
,
0000
0000
0330
1000
,
0001
0000
1001
0000
0010
0000
1000
0100
,
0010
0002
0000
0000
1003
0000
0010
0000
,
1000
0100
1100
0001
,
0001
2000
0000
0000
3010
0000
0100
0000
,
0001
0000
1000
0000
0100
0000
1000
0010
,
0100
0002
0000
1003
0100
0000
0010
0000
,
0011
0000
0001
0000
1000
0002
0000
0103
,
0010
0100
0002
0000
0000
0000
1003
0000
,
0100
0000
1000
0000
1010
0000
0010
0100
,
0001
0200
0000
0000
0310
0000
1000
0000
,
0100
1000
0010
0100
,
0100
0002
0000
0000
1003
0000
0100
0000
,
0010
0000
0001
0000
1000
0000
0010
1000
,
0010
2000
0000
0000
3001
0000
0100
0000
,
0101
0000
0001
0000
1000
0020
0000
0130
,
0001
0000
1000
0000
0100
0000
0010
0010
,
0001
0000
0100
0000
0010
0000
1000
1000
,
0100
0000
1000
0000
0010
0000
0100
0100
,
0010
0000
1000
0000
0100
0000
0001
0001
,
0100
0000
1000
0000
0010
0000
0100
0100
,
0001
1000
0100
0000
1000
0000
0010
0010
,
0100
0001
1000
0000
1000
0000
0100
0100
,
0010
0000
0001
0000
1000
0000
0001
0100
,
0010
0000
1000
0100
0010
0000
1001
0000
;

//---------------dance-single - Copied from Copied f----------------
#NOTES:
     dance-single:
     Copied from Copied f:
     Hard:
     7:
     0.430,0.427,0.122,0.122,0.000:
0000
0000
0000
0000
,
0000
0000
0000
0000
,
0000
0000
0000
0000
,
0000
0000
0000
0000
,
0000
1000
0100
1000
,
0100
1000
0001
0000
0100
0000
0001
0000
,
0100
0001
0010
0000
0100
0000
0010
0000
,
0100
1000
0001
0000
0010
0000
0001
0000
,
0010
2002
0000
0000
,
3003
1000
0010
0100
0010
1000
0100
0010
,
0000
0001
0000
0100
0001
2000
0000
0000
,
3010
0100
0000
0000
0001
0000
1000
0100
,
0000
1000
0010
0001
0010
2000
0000
0000
,
3001
1000
0100
1000
0010
0100
0001
0010
,
0001
1000
0010
0010
0100
0002
0000
0103
,
0010
1000
0010
0100
0010
1000
0001
1000
,
0001
0010
0001
0100
0010
0100
0001
0100
,
0010
1000
0100
0010
0001
0200
0000
0310
,
0100
1000
0100
0001
0010
0002
0000
1003
,
0100
0000
1000
0010
1000
0100
1000
0000
,
1010
0000
0001
1000
0001
0100
0001
0000
,
0101
0000
0001
1000
0100
0000
1000
0001
,
0100
0000
0001
0100
0010
0010
0100
0001
,
0010
0000
0100
1000
0100
0100
0010
0001
,
1000
0000
1000
0001
1000
0100
0010
0001
,
1000
0010
0200
0000
0000
0000
0301
0100
,
0001
0100
0010
1000
0010
1000
0100
0010
,
0001
0100
0001
0000
1001
0000
1000
0100
,
1000
0100
0010
0001
0010
0001
1000
0100
,
1000
0010
0100
0000
0101
0000
0100
0010
,
0100
0010
1000
0001
1000
0001
0010
0001
,
1000
0200
0000
0310
0001
0100
0010
0000
,
1010
0000
0010
0000
1000
0002
0000
0013
,
0001
0100
0010
0000
1010
0000
1000
0001
,
0100
0010
1000
0100
0001
0100
1000
0010
,
0100
0001
0010
0000
0011
0000
0001
0100
,
0010
1000
0100
0010
0001
0010
1000
0010
,
0001
0100
0010
0000
1010
0000
0010
0100
,
0001
1000
0100
0001
0100
1000
0001
0010
,
0100
0020
0000
0031
0100
0010
1000
0000
,
1001
0000
0001
0000
1000
0200
0000
1300
,
0010
0100
0001
0010
0100
1000
0001
0100
,
0001
0010
0001
1000
0100
0001
0100
1000
,
0010
0100
0001
0000
1001
0000
1000
0100
,
1000
0010
1000
0100
0010
0001
0100
1000
,
0100
0001
1000
0000
1010
0000
1000
0010
,
0001
0010
1000
0001
0100
0010
1000
0010
,
0100
0001
1000
0000
0011
0000
0010
0001
,
0100
0010
0100
0001
1000
0010
0100
0001
,
1000
0001
0010
0100
1000
0001
0200
0000
,
0000
0000
0000
0000
,
0000
0000
0000
0000
,
0000
0000
0000
0000
,
0000
0000
0000
0000
0000
0300
0000
0000
;

//---------------dance-single - Copied from----------------
#NOTES:
     dance-single:
     Copied from:
     Beginner:
     1:
     0.141,0.163,0.009,0.019,0.000:
0000
0000
0000
0000
,
0000
0000
0000
0000
,
0000
0000
0000
0000
,
0000
0000
0000
0000
,
0000
1000
0000
0000
,
0000
0001
0000
0000
,
0000
1000
0000
0000
,
0000
0001
0000
0000
,
0000
0200
0000
0000
,
0300
0001
0001
0001
,
0000
0001
0000
0100
,
0000
0010
0000
1000
,
0000
1000
0000
1000
,
0000
0010
0010
0010
,
0000
0100
0000
0100
,
0000
0100
0000
0100
,
0000
0010
0000
0010
,
0000
1000
1000
1000
,
0000
0100
0000
0100
,
0000
1000
1000
1000
,
0000
0001
0001
0001
,
0000
0100
0000
0000
,
0000
0010
0000
0000
,
0000
0100
0000
0000
,
0000
0001
0000
0000
,
1000
0002
0000
1003
,
0100
1000
0000
0000
,
0010
0100
0000
0001
,
0100
0001
0000
0000
,
0010
0100
0000
1000
,
0100
0010
0000
0000
,
0001
0001
0000
0100
,
0000
0001
0000
1000
,
0000
0100
0000
1000
,
1000
1000
0000
0001
,
0001
0001
0000
0010
,
0010
0010
0000
0001
,
0001
0001
0000
0100
,
0010
0100
0000
0010
,
1000
0010
0000
1000
,
0000
0001
0000
1000
,
0000
0001
0000
1000
,
0100
1000
0000
0001
,
0100
0001
0000
0001
,
0100
0001
0000
1000
,
0100
1000
0000
0010
,
0000
0010
0000
0010
,
0000
0010
0000
0100
,
0000
0100
0000
0100
,
0000
0100
0000
1001
;
