#TITLE:CAT'S EYE;
#SUBTITLE:;
#ARTIST:E-ROTIC;
#TITLETRANSLIT:;
#SUBTITLETRANSLIT:;
#ARTISTTRANSLIT:;
#CREDIT:;
#BANNER:CAT'S EYE.png;
#BACKGROUND:CAT'S EYE-bg.png;
#LYRICSPATH:;
#CDTITLE:;
#MUSIC:10.cat's eye.mp3;
#OFFSET:-0.562;
#SAMPLESTART:49.161;
#SAMPLELENGTH:12.000;
#SELECTABLE:YES;
#BPMS:0.000=147.000;
#STOPS:;
#BGCHANGES:;

//---------------dance-single - Blank----------------
#NOTES:
     dance-single:
     Blank:
     Hard:
     8:
     0.495,0.490,0.096,0.067,0.082: // measure 1
0000
0000
0000
0000
,  // measure 2
0000
0000
0000
0000
,  // measure 3
0000
0000
0000
0000
,  // measure 4
0000
0000
0000
0000
,  // measure 5
1000
0000
0001
0000
0100
0000
0000
0010
0000
0000
1000
0000
0100
0000
0010
0000
,  // measure 6
0001
0000
1000
0000
0100
0000
0000
1000
0000
0000
0001
0000
0010
0000
0100
0000
,  // measure 7
1000
0000
0001
0000
1000
0000
0000
0001
0000
0000
1000
0000
0010
0000
0100
0000
,  // measure 8
0001
0000
0010
0000
0001
0000
0000
1000
0000
0000
0001
0000
0100
0000
0010
0000
,  // measure 9
1000
0000
0100
0000
0010
0000
0000
0100
0000
0000
1000
0000
0100
0000
0001
0000
,  // measure 10
0100
0000
1000
0000
0001
0000
0000
0100
0000
0000
0001
0000
0010
0000
1000
0000
,  // measure 11
0010
0000
0001
0000
1000
0000
0000
0100
0000
0000
1000
0000
0001
0000
1000
0000
,  // measure 12
0002
0000
0000
0000
0000
0000
0000
0000
0000
0000
0000
0000
0000
0000
0000
0000
0000
0000
0000
0000
0000
0000
0000
0000
0000
0000
0000
0000
0000
0000
0000
0000
0000
0000
0000
0000
0000
0000
0000
0000
0000
0000
0000
0000
0000
0000
0000
0000
1000
0000
0000
0000
0000
0000
0000
0000
0000
0000
0000
0000
0000
0000
0000
0000
0000
0000
0000
0000
0000
0000
0000
0000
0000
0000
0000
0000
0000
0000
0000
0000
0000
0000
0000
0000
0000
0000
0000
0000
0000
0000
0000
0000
0000
0000
0000
0000
1000
0000
0000
0000
0000
0000
0000
0000
0000
0000
0000
0000
0000
0000
0000
0000
0000
0000
0000
0000
0000
0000
0000
0000
0000
0000
0000
0000
0000
0000
0000
0000
0000
0000
0000
0000
0000
0000
0000
0000
0000
0000
0000
0000
0000
0000
0000
0000
1000
0003
0000
0000
0000
0000
0000
0000
0000
0000
0000
0000
0000
0000
0000
0000
0000
0000
0000
0000
0000
0000
0000
0000
0000
0000
0000
0000
0000
0000
0000
0000
0000
0000
0000
0000
0000
0000
0000
0000
0000
0000
0000
0000
0000
0000
0000
0000
,  // measure 13
0001
0100
1000
0000
0100
0000
0100
0000
,  // measure 14
0010
1000
0001
0000
1000
0000
0001
0000
,  // measure 15
1000
0010
0001
0000
0010
0000
0010
0000
,  // measure 16
1000
0100
0010
0000
0001
0000
0100
0000
,  // measure 17
0010
0100
1000
0000
0100
0000
0100
0000
,  // measure 18
0010
1000
0100
0000
1000
0000
0001
0000
,  // measure 19
0010
0100
0001
0000
0100
0000
0100
0000
,  // measure 20
0010
0001
1000
0000
0001
0000
1001
0000
,  // measure 21
0001
0000
0000
0000
0001
0000
0000
0000
1000
0000
0000
1000
0000
0000
1000
0000
,  // measure 22
0100
0000
0100
1000
0000
1000
0001
0000
,  // measure 23
0010
0000
0010
0001
0000
0001
0100
0000
,  // measure 24
0001
0100
0001
0000
1000
0100
1000
0000
,  // measure 25
0001
0100
1000
0100
0010
1000
0001
0000
,  // measure 26
1000
0000
1000
0001
0000
0001
1000
0000
,  // measure 27
0010
0000
0100
0001
0000
0001
0100
0000
,  // measure 28
0010
1000
0100
0000
0010
0001
0100
0000
,  // measure 29
0001
0010
1000
0010
0100
1000
0100
0010
,  // measure 30
0001
0000
0000
0000
0000
0000
0000
0000
1000
0000
0000
0100
0000
0000
0010
0000
,  // measure 31
0001
1000
0010
0100
0001
1000
0010
1000
,  // measure 32
0100
0010
0001
0100
0001
0010
0100
1000
,  // measure 33
0010
0100
0001
1000
0100
0010
0100
2000
,  // measure 34
0000
0000
0000
3001
0000
0000
1001
0000
,  // measure 35
0100
0001
0100
0001
1000
0100
1000
0100
,  // measure 36
1000
0010
0100
0001
1000
0010
0100
0001
,  // measure 37
1000
0010
1000
0010
0100
0001
0100
0002
,  // measure 38
0000
0000
1003
0000
1000
0001
0010
0100
,  // measure 39
0020
0000
0000
0130
,  // measure 40
0011
0000
0000
0000
1100
0000
0000
0000
0010
0000
0000
1000
0000
0000
0001
0000
,  // measure 41
0100
0010
0100
1000
0100
0001
0010
0100
,  // measure 42
1000
0010
0001
0010
1000
0100
0010
0001
,  // measure 43
1000
0010
1000
0001
0100
1000
0100
0002
,  // measure 44
0000
0000
0000
1003
0000
0000
1001
0000
,  // measure 45
1000
0100
0010
0100
0001
0100
1000
0010
,  // measure 46
0100
0001
0010
1000
0010
0001
1000
0100
,  // measure 47
0010
0100
1000
0010
0001
0010
1000
0020
,  // measure 48
0000
0000
0130
0000
0010
1000
0100
0010
,  // measure 49
0001
0100
0001
1000
0100
0000
1010
0000
,  // measure 50
1000
0001
0010
0001
0100
0000
0110
0000
,  // measure 51
0001
1000
0010
1000
0100
0000
1100
0000
,  // measure 52
1000
0010
0100
0001
0010
0000
0110
0000
,  // measure 53
0001
0000
0010
0000
0100
0000
0000
0010
0000
0000
0001
0000
0100
0000
0010
0000
,  // measure 54
1000
0000
0001
0000
0100
0000
0000
0001
0000
0000
1000
0000
0010
0000
0100
0000
,  // measure 55
0001
0000
1000
0000
0100
0000
0000
1000
0000
0000
0001
0000
0010
0000
0100
0000
,  // measure 56
1000
0000
0001
0000
0100
0000
0000
0001
0000
0000
1000
0000
0100
0000
0001
0000
,  // measure 57
0100
0000
1000
0000
0010
0000
0000
0100
0000
0000
0001
0000
0010
0000
1000
0000
,  // measure 58
0010
0000
0001
0000
0100
0000
0000
0001
0000
0000
1000
0000
0010
0000
0001
0000
,  // measure 59
0010
0000
1000
0000
0001
0000
0000
0100
0000
0000
0001
0000
0100
0000
1000
0000
,  // measure 60
0200
0010
0010
0310
,  // measure 61
1001
0000
0000
0000
;

//---------------dance-single - Blank----------------
#NOTES:
     dance-single:
     Blank:
     Medium:
     5:
     0.376,0.375,0.058,0.211,0.014:
0000
0000
0000
0000
,
0000
0000
0000
0000
,
0000
0000
0000
0000
,
0000
0000
0000
0000
,
1000
0000
0100
0000
1000
0000
0001
1000
,
0100
0000
0010
0000
0001
0000
0100
0010
,
1000
0000
0010
0000
0001
0000
0010
1000
,
0001
0000
0100
0000
0001
0000
0010
0100
,
0001
0000
0100
0000
1000
0000
0001
0100
,
0010
0000
1000
0000
0100
0000
1000
0001
,
0010
0000
0100
0000
1000
0000
0001
1000
,
0002
0000
0000
0000
,
1003
0001
0010
1000
,
0010
0001
0010
0100
,
0000
1000
0001
0100
,
0010
0001
0010
1000
,
0000
0001
1000
0100
,
0001
0100
0010
0001
,
0000
0100
0001
1000
,
0100
0010
0001
1000
,
1001
0000
0000
0000
0001
0000
0000
0000
0100
0000
0000
0001
0000
0000
0100
0000
,
0001
0000
0100
0020
0000
0000
1030
0000
,
1000
0000
0010
0200
0000
0000
0301
0000
,
1000
0000
0100
2000
0000
0000
3100
0000
,
0001
0000
0100
0002
0000
0000
0103
0000
,
0001
0000
1000
0002
0000
0000
1003
0000
,
0001
0000
0001
2000
0000
0000
3001
0000
,
0100
1000
0100
0001
,
0010
1000
0001
0010
,
1001
0000
0000
0000
0000
0000
0000
0000
0001
0000
0000
0001
0000
0000
0001
0000
,
1000
0000
0100
0000
1000
0020
0000
0130
,
0000
0001
1000
0000
0100
2000
0000
3010
,
0000
0010
0100
0001
1000
0000
1000
0200
,
0000
0000
0000
1300
0000
0000
1001
0000
,
0001
0000
0100
0000
0010
0200
0000
0310
,
0000
1000
0100
0000
0001
0200
0000
1300
,
0000
1000
0001
0100
0010
0000
1000
0200
,
0000
0000
0310
0000
0001
1000
0000
2002
,
0000
0000
0000
3003
,
0001
0000
0000
0000
1000
0000
0000
0000
0001
0000
0000
1000
0000
0000
0001
0000
,
1000
0000
0100
0000
0001
0200
0000
1300
,
0000
0010
0100
0000
0001
2000
0000
3010
,
0000
1000
0100
0010
0001
0000
0001
2000
,
0000
0000
0000
3010
0000
0000
0110
0000
,
1000
0000
0001
0000
0010
2000
0000
3010
,
0000
0001
0100
0000
0010
0200
0000
0310
,
0000
1000
0100
0010
0001
1000
0100
0020
,
0000
0000
0031
0000
0001
0100
0000
0010
,
0100
0001
1000
0000
0001
0100
0000
0100
,
0000
1000
0100
0000
0100
0010
0000
1000
,
0000
0001
0100
0000
0010
0100
0000
1001
,
0000
0010
1000
0000
0100
0001
0000
0100
,
1000
0000
0100
0000
1000
0000
0010
0100
,
0001
0000
1000
0000
0100
0000
0010
0001
,
1000
0000
0001
0000
0100
0000
0010
1000
,
0100
0000
1000
0000
0010
0000
0001
0010
,
1000
0000
0001
0000
0100
0000
0010
1000
,
0100
0000
1000
0000
0100
0000
0001
0100
,
1000
0000
0001
0000
0100
0000
0010
0100
,
0020
0000
0000
0000
,
0130
0000
0000
0000
;

//---------------dance-single - Blank----------------
#NOTES:
     dance-single:
     Blank:
     Easy:
     2:
     0.178,0.202,0.048,0.019,0.000:
0000
0000
0000
0000
,
0000
0000
0000
0000
,
0000
0000
0000
0000
,
0000
0000
0000
0000
,
1000
0000
0000
0001
,
0100
0000
0000
0010
,
1000
0000
0000
1000
,
0100
0000
0000
0001
,
0100
0000
0000
1000
,
0010
0000
0000
0100
,
0010
0000
0000
1000
,
0001
0000
0000
0000
,
0001
0000
0001
0000
,
1000
0000
1000
0000
,
0010
0000
0010
0000
,
0100
0000
0100
0000
,
0001
0000
0001
0000
,
1000
0000
1000
0000
,
0010
0000
0010
0000
,
0100
0000
0100
0000
,
2002
0000
0000
3003
,
0001
0000
0000
0001
,
1000
0000
0000
1000
,
0001
0000
0000
0001
,
1000
0000
0000
1000
,
0001
0000
0000
0001
,
1000
0000
0000
1000
,
0000
0100
0000
0010
,
0000
0001
0000
0000
,
1001
0000
0000
0000
,
1000
1000
1000
0000
,
0010
0010
0010
0000
,
0100
0100
0100
0000
,
0010
0000
0100
0000
,
0010
0010
0010
0000
,
0100
0100
0100
0000
,
0001
0000
0010
0000
,
0100
0000
1000
0000
,
1001
0000
0000
0000
,
0000
0000
0000
0000
,
0001
0001
0001
0000
,
0100
0100
0100
0000
,
0010
0010
0010
0000
,
1000
0000
1001
0000
,
1000
1000
1000
0000
,
0100
0100
0100
0000
,
0010
0010
0010
0000
,
0001
0000
0001
0000
,
1000
1000
0000
1000
,
0010
0010
0000
0010
,
0000
0010
0000
0010
,
0000
0100
0000
0100
,
0001
1000
0000
1000
,
0000
0001
0000
0001
,
0100
0010
0000
0010
,
0000
0010
0000
0010
,
1000
0100
0000
0010
,
0000
0001
0000
1000
,
0001
0100
0000
0100
,
0000
0100
0000
0100
,
0110
0000
0000
0000
;

//---------------dance-double - Copied from Blank----------------
#NOTES:
     dance-double:
     Copied from Blank:
     Hard:
     8:
     0.513,0.490,0.115,0.134,0.082:
00000000
00000000
00000000
00000000
,
00000000
00000000
00000000
00000000
,
00000000
00000000
00000000
00000000
,
00000000
00000000
00000000
00000000
,
10000000
00000000
01000000
00000000
00010000
00000000
00000000
00010000
00000000
00000000
00001000
00000000
00000100
00000000
00000010
00000000
,
00001000
00000000
00000001
00000000
00000100
00000000
00000000
00000010
00000000
00000000
00010000
00000000
00001000
00000000
00010000
00000000
,
01000000
00000000
00100000
00000000
00010000
00000000
00000000
10000000
00000000
00000000
01000000
00000000
10000000
00000000
00010000
00000000
,
01000000
00000000
00001000
00000000
00010000
00000000
00000000
00001000
00000000
00000000
00000100
00000000
00000010
00000000
00001000
00000000
,
00000001
00000000
00000100
00000000
00000010
00000000
00000000
00000100
00000000
00000000
00001000
00000000
00000100
00000000
00000001
00000000
,
00001000
00000000
00000100
00000000
00010000
00000000
00000000
00001000
00000000
00000000
00010000
00000000
01000000
00000000
00100000
00000000
,
00010000
00000000
00100000
00000000
01000000
00000000
00000000
00100000
00000000
00000000
00010000
00000000
01000000
00000000
00100000
00000000
,
10000000
01100000
01010000
00110000
,
00001000
00000000
00010000
00000100
00000010
00000000
00000101
00000000
,
00000010
00001000
00000000
00002000
00000000
00000000
00003100
00000000
,
00001000
00000000
00000001
00000100
00001000
00000000
00010000
00001000
,
00100000
01000000
10000000
00020000
00000000
00000000
10030000
00000000
,
01000000
10000000
00100000
10000000
00100000
00000000
00100000
01000000
,
00001000
00000000
00001000
00020000
00000000
00000000
00031000
00000000
,
00000100
00000010
00001000
00000100
00010000
00000000
00010000
00001000
,
01000000
00000000
00100000
20000000
00000000
00000000
30100000
00000000
,
10000000
00000000
00000000
00000000
01000000
00000000
00000000
00000000
00010000
00000000
00000000
00001000
00000000
00000000
00010000
00000000
,
00000100
00000010
00000001
00000200
00000000
00000010
00000310
00000000
,
00001000
00000100
00001000
00000020
00000000
00010000
00010030
00000000
,
00001000
00010000
00001000
00200000
00000000
00300000
01000000
10000000
,
00010000
10000000
00010000
02000000
00000000
00001000
03001000
00000000
,
00010000
00001000
00010000
00000200
00000000
00000010
00000310
00000000
,
00000001
00000100
00000010
00002000
00000000
00000100
00003100
00000000
,
00000100
00010000
00001000
00000000
01000000
00010000
01000000
00000000
,
00010000
10000000
01000000
00010000
00001000
00000100
00000001
00000010
,
00000100
00000000
00000000
00000000
00000000
00000000
00000000
00000000
00001000
00000000
00000000
00001000
00000000
00000000
00001000
00000000
,
00000001
00000010
00000001
00000010
00000100
00001000
00000100
00001000
,
00000100
00010000
00000100
00010000
00001000
00010000
00001000
01000000
,
00100000
01000000
00100000
10000000
00010000
01000000
00100000
20000000
,
00000000
00000000
00000000
30010000
00000000
00000000
10010000
00000000
,
10000000
00100000
10000000
00100000
01000000
00010000
01000000
00010000
,
01000000
00001000
01000000
00001000
00010000
00001000
00010000
00001000
,
00000100
00000010
00000100
00000010
00001000
00000100
00000010
00000002
,
00000000
00000000
00001003
00000000
00000001
00000100
00000010
00001000
,
00001001
00000000
00000000
00000000
,
00000001
00000000
00000000
00000000
00000001
00000000
00000000
00000000
00001000
00000000
00000000
00001000
00000000
00000000
00001000
00000000
,
00000001
00000100
00001000
00000100
00000001
00000100
00001000
00010000
,
00001000
00100000
00001000
00010000
00001000
01000000
00100000
10000000
,
00100000
00010000
00100000
10000000
00100000
00010000
00100000
20000000
,
00000000
00000000
00000000
30010000
00000000
00000000
10010000
00000000
,
10000000
01000000
00010000
01000000
10000000
01000000
00010000
00001000
,
00010000
00000010
00010000
00001000
00010000
00000100
00000010
00000001
,
00000010
00001000
00000010
00000001
00000010
00001000
00000010
00000002
,
00000000
00000000
00001003
00000000
00001000
00000100
00000001
00000100
,
00001000
00000100
00010000
00000000
00001000
01000000
00000000
00100000
,
10000000
01000000
00100000
00000000
00100000
00001000
00000000
00010000
,
00001000
00100000
00010000
00000000
00010000
01000000
00000000
00100000
,
00000000
10000000
00100000
10000000
01000000
10000000
00000000
10000000
,
01000000
00000000
00010000
00000000
00001000
00000000
00000000
00010000
00000000
00000000
00000100
00000000
00000010
00000000
00000001
00000000
,
00001000
00000000
00000100
00000000
00001000
00000000
00000000
00000010
00000000
00000000
00000100
00000000
00000010
00000000
00000100
00000000
,
00000001
00000000
00000100
00000000
00001000
00000000
00000000
00010000
00000000
00000000
00010000
00000000
00001000
00000000
01000000
00000000
,
00100000
00000000
10000000
00000000
00100000
00000000
00000000
10000000
00000000
00000000
00010000
00000000
01000000
00000000
00010000
00000000
,
00100000
00000000
10000000
00000000
00100000
00000000
00000000
00100000
00000000
00000000
00001000
00000000
00010000
00000000
00001000
00000000
,
00100000
00000000
00001000
00000000
00010000
00000000
00000000
00000100
00000000
00000000
00000010
00000000
00000001
00000000
00001000
00000000
,
00000100
00000000
00001000
00000000
00000001
00000000
00000000
00000001
00000000
00000000
00000001
00000000
00000100
00000000
00001000
00000000
,
00011000
00101000
00010100
00011000
,
00011000
00000000
00000000
00000000
;

//---------------dance-double - Copied from Blank----------------
#NOTES:
     dance-double:
     Copied from Blank:
     Medium:
     5:
     0.376,0.375,0.058,0.211,0.014:
00000000
00000000
00000000
00000000
,
00000000
00000000
00000000
00000000
,
00000000
00000000
00000000
00000000
,
00000000
00000000
00000000
00000000
,
10000000
00000000
00010000
00000000
01000000
00000000
00001000
00010000
,
00001000
00000000
00010000
00000000
00000100
00000000
00000010
00000001
,
00001000
00000000
00000100
00000000
00010000
00000000
00001000
00010000
,
00001000
00000000
01000000
00000000
00100000
00000000
00100000
01000000
,
00010000
00000000
01000000
00000000
00100000
00000000
10000000
01000000
,
00010000
00000000
00001000
00000000
00000100
00000000
00000010
00001000
,
00000001
00000000
00000010
00000000
00001000
00000000
00010000
00001000
,
00020000
00000000
00000000
00000000
,
00031000
00010000
01000000
10000000
,
00100000
00010000
00100000
01000000
,
00000000
00001000
00010000
00000100
,
00001000
00000001
00000100
00000010
,
00000000
00010000
00001000
00100000
,
01000000
10000000
00010000
01000000
,
00000000
00001000
00010000
00000100
,
00000010
00000001
00000100
00000010
,
00001010
00000000
00000000
00000000
00000100
00000000
00000000
00000000
00010000
00000000
00000000
00010000
00000000
00000000
00010000
00000000
,
00001000
00000000
01000000
00200000
00000000
00000000
10300000
00000000
,
10000000
00000000
00100000
02000000
00000000
00000000
03010000
00000000
,
10000000
00000000
01000000
20000000
00000000
00000000
31000000
00000000
,
00010000
00000000
00001000
00020000
00000000
00000000
00031000
00000000
,
00010000
00000000
00000100
00000020
00000000
00000000
00000130
00000000
,
00001000
00000000
00000001
00002000
00000000
00000000
00003100
00000000
,
00010000
01000000
10000000
01000000
,
00010000
00001000
00010000
00001000
,
00011000
00000000
00000000
00000000
00000000
00000000
00000000
00000000
00010000
00000000
00000000
00010000
00000000
00000000
00010000
00000000
,
00001000
00000000
00000100
00000000
00000010
00002000
00000000
00003100
,
00000000
00000010
00000001
00000000
00000100
00000020
00000000
00001030
,
00000000
00000100
00010000
00001000
00010000
00000000
01000000
00200000
,
00000000
00000000
00000000
01300000
00000000
00000000
10010000
00000000
,
00010000
00000000
01000000
00000000
00100000
02000000
00000000
03100000
,
00000000
10000000
01000000
00000000
00010000
00002000
00000000
00013000
,
00000000
00000100
00000010
00000001
00001000
00000000
00000001
00000200
,
00000000
00000000
00000310
00000000
00001000
00000100
00000000
00022000
,
00000000
00000000
00033000
00000000
,
00010000
00000000
00000000
00000000
00001000
00000000
00000000
00000000
00010000
00000000
00000000
00001000
00000000
00000000
00010000
00000000
,
01000000
00000000
00100000
00000000
00010000
02000000
00000000
03100000
,
00000000
00100000
10000000
00000000
00010000
20000000
00000000
30100000
,
00000000
10000000
01000000
00010000
00001000
00000000
00010000
00002000
,
00000000
00000000
00000000
00013000
00000000
00000000
00011000
00000000
,
00000010
00000000
00001000
00000000
00000001
00002000
00000000
00003100
,
00000000
00000010
00000001
00000000
00000100
00000020
00000000
00000130
,
00000000
00000010
00001000
00000100
00010000
00001000
01000000
00200000
,
00000000
00000000
10300000
00000000
10000000
01000000
00000000
00100000
,
00010000
10000000
00010000
00000000
00010000
01000000
00000000
01000000
,
00000000
00001000
00010000
00000000
00010000
00001000
00000000
00000100
,
00000000
00000010
00001000
00000000
00000001
00000100
00000000
00001001
,
00000000
00000001
00000100
00000000
00001000
00010000
00000000
01000000
,
00100000
00000000
01000000
00000000
10000000
00000000
00100000
01000000
,
00001000
00000000
00010000
00000000
00001000
00000000
00010000
00001000
,
00000100
00000000
00000010
00000000
00001000
00000000
00000100
00000010
,
00000001
00000000
00000100
00000000
00001000
00000000
00010000
00001000
,
01000000
00000000
00010000
00000000
01000000
00000000
00100000
10000000
,
01000000
00000000
10000000
00000000
01000000
00000000
00010000
00001000
,
00000100
00000000
00000010
00000000
00001000
00000000
00000100
00010000
,
00002000
00000000
00000000
00000000
,
00013000
00000000
00000000
00000000
;

//---------------dance-double - Copied from Blank----------------
#NOTES:
     dance-double:
     Copied from Blank:
     Easy:
     2:
     0.180,0.230,0.048,0.019,0.000:
00000000
00000000
00000000
00000000
,
00000000
00000000
00000000
00000000
,
00000000
00000000
00000000
00000000
,
00000000
00000000
00000000
00000000
,
10000000
00000000
00000000
00010000
,
01000000
00000000
00000000
00001000
,
00010000
00000000
00000000
00000100
,
00000010
00000000
00000000
00000001
,
00000100
00000000
00000000
00000010
,
00001000
00000000
00000000
00001000
,
00010000
00000000
00000000
10000000
,
00010000
00000000
00000000
00000000
,
00010000
00000000
00010000
00000000
,
10000000
00000000
10000000
00000000
,
00100000
00000000
00100000
00000000
,
00010000
00000000
00010000
00000000
,
00001000
00000000
00001000
00000000
,
00000100
00000000
00000100
00000000
,
00000010
00000000
00000010
00000000
,
00000001
00000000
00000001
00000000
,
00002002
00000000
00000000
00003003
,
00001000
00000000
00001000
00000100
,
00000100
00000000
00000000
00010000
,
00001000
00000000
00000000
00010000
,
01000000
00000000
00000000
01000000
,
00100000
00000000
00000000
00010000
,
10000000
00000000
00000000
10000000
,
00000000
00100000
00000000
00010000
,
00000000
00001000
00000000
00000000
,
00011000
00000000
00000000
00000000
,
00001000
00001000
00001000
00000000
,
00010000
00010000
00010000
00000000
,
00000100
00000100
00000100
00000000
,
00000010
00000000
00000001
00000000
,
00000100
00000100
00000100
00000000
,
00001000
00001000
00001000
00000000
,
00010000
00000000
01000000
00000000
,
00100000
00000000
00010000
00000000
,
10010000
00000000
00000000
00000000
,
00000000
00000000
00000000
00000000
,
00010000
00010000
00010000
00000000
,
01000000
01000000
01000000
00000000
,
00001000
00001000
00001000
00000000
,
00010000
00000000
00011000
00000000
,
00001000
00001000
00001000
00000000
,
00000100
00000100
00000100
00000000
,
00000010
00000010
00000010
00000000
,
00001000
00000000
00001000
00000000
,
01000000
01000000
00000000
10000000
,
00100000
00100000
00000000
00100000
,
00000000
00100000
00000000
00001000
,
00000000
00010000
00000000
00001000
,
00010000
00000100
00000000
00000010
,
00000000
00000001
00000000
00000100
,
00000010
00010000
00000000
00010000
,
00000000
00010000
00000000
00010000
,
00001000
01000000
00000000
00100000
,
00000000
10000000
00000000
01000000
,
00010000
00001000
00000000
00010000
,
00000000
00001000
00000000
00010000
,
00011000
00000000
00000000
00000000
;

//---------------dance-single - Copied from Blank----------------
#NOTES:
     dance-single:
     Copied from Blank:
     Beginner:
     1:
     0.150,0.202,0.010,0.000,0.000:
0000
0000
0000
0000
,
0000
0000
0000
0000
,
0000
0000
0000
0000
,
0000
0000
0000
0000
,
1000
0000
0000
0000
,
1000
0000
0000
0000
,
0001
0000
0000
0000
,
0001
0000
0000
0000
,
0010
0000
0000
0000
,
0010
0000
0000
0000
,
0010
0000
0000
0000
,
0010
0000
0000
0000
,
0100
0000
1000
0000
,
0100
0000
1000
0000
,
0100
0000
0010
0000
,
0001
0000
0010
0000
,
0001
0000
1000
0000
,
0001
0000
1000
0000
,
0001
0000
1000
0000
,
0100
0000
0010
0000
,
0001
0000
0000
0000
,
1000
0000
0000
0001
,
0010
0000
0000
0010
,
0100
0000
0000
0100
,
0010
0000
0000
0001
,
0001
1000
0000
0000
,
1000
1000
0000
0001
,
0000
0100
0000
0001
,
0000
0010
0000
0100
,
0000
0000
0000
0000
,
1000
1000
1000
0000
,
0001
0001
0001
0000
,
1000
1000
1000
0000
,
0001
0001
0001
0000
,
0010
0010
0010
0000
,
0100
0100
0100
0000
,
0010
0010
0010
0000
,
0100
0100
0100
0000
,
0010
0000
0000
0000
,
0000
0000
0000
0000
,
0001
0100
0001
0000
,
1000
0100
1000
0000
,
0001
0100
0001
0000
,
1000
0100
1000
0000
,
0010
0010
0010
0000
,
0100
0100
0100
0000
,
0001
0001
0001
0000
,
1000
1000
1000
0000
,
0001
0000
0001
0000
,
0001
0000
0001
0000
,
1000
0000
1000
0000
,
1000
0000
1000
0000
,
0010
0000
0000
0000
,
0010
0000
0000
0000
,
0100
0000
0000
0000
,
0100
0000
0000
0000
,
0001
0000
0000
0000
,
0001
0000
0000
0000
,
1000
0000
0000
0000
,
1000
0000
0000
0000
,
1001
0000
0000
0000
;
