#TITLE:Blow;
#SUBTITLE:;
#ARTIST:Ke$ha;
#TITLETRANSLIT:;
#SUBTITLETRANSLIT:;
#ARTISTTRANSLIT:;
#CREDIT:;
#BANNER:Blow-BN.png;
#BACKGROUND:Blow-BG.png;
#LYRICSPATH:;
#CDTITLE:;
#MUSIC:Ke$ha - Blow.mp3;
#OFFSET:-0.782;
#SAMPLESTART:60.220;
#SAMPLELENGTH:12.000;
#SELECTABLE:YES;
#BPMS:0.000=120.000;
#STOPS:;
#BGCHANGES:0.000=Blow.avi=1.000=1=1=0,
99999=-nosongbg-=1.000=0=0=0 // don't automatically add -songbackground-
;

//---------------dance-single - ----------------
#NOTES:
     dance-single:
     :
     Easy:
     2:
     0.178,0.202,0.012,0.048,0.000:
0000
0000
0000
0000
,
0000
0000
0000
0000
,
0000
0000
0000
0000
,
0000
0000
0000
0000
,
0000
0000
0000
0000
,
0000
0000
0000
1000
,
0000
1000
1000
0010
,
0000
0010
0010
0100
,
0000
0100
0100
0001
,
0000
0001
0001
1000
,
0100
1000
0010
0100
,
0000
0100
0100
0001
,
0010
0000
0001
1000
,
0100
0000
1000
0010
,
0010
0010
0010
0000
,
0100
0000
0100
0010
,
0010
0010
0010
0000
,
0100
0000
0001
1000
,
1000
1000
1000
0001
,
0000
0001
0000
0001
,
1000
0001
1000
0010
,
0100
0010
1000
0002
,
0000
0000
0000
1000
,
1000
1003
0000
2000
,
0000
0000
0000
0001
,
0001
3001
0000
0002
,
0000
0000
0000
1000
,
1000
1003
0000
2000
,
0000
0000
0001
0001
,
3001
0000
0000
0010
,
0010
0010
0010
0100
,
0100
0100
0100
0001
,
0001
0001
0001
1000
,
1000
1000
1000
0100
,
0100
0100
0100
1000
,
1000
1000
1000
0010
,
0010
0010
0010
0100
,
0100
0100
0100
1001
;

//---------------dance-single - ----------------
#NOTES:
     dance-single:
     :
     Medium:
     5:
     0.258,0.247,0.202,0.036,0.000:
0000
0000
0000
0000
,
0000
0000
0000
0000
,
0000
0000
0000
0000
,
0000
0000
0000
0000
,
0000
0000
0000
0000
,
0000
0000
0000
1000
,
0010
0000
1000
0000
0010
0000
0100
0001
,
0100
0001
0101
0010
,
1000
0010
1000
0100
,
0010
0000
0001
0000
0001
1000
1000
0000
,
0100
0000
1000
0000
0010
0000
0100
0001
,
0100
0010
0110
0100
,
0001
1000
0100
1000
,
0010
0000
0100
0000
0001
0001
1000
0100
,
1000
0010
0100
0001
,
1000
0001
1001
1000
,
0010
0100
0001
1000
,
1001
0000
0010
0000
0100
0000
0001
0100
,
0010
1000
0100
1000
,
0010
0100
0101
0010
,
1000
0100
1000
0001
,
0100
0010
1000
0200
,
0000
0000
0310
0011
,
1001
0110
0000
0200
,
0000
0000
0301
1010
,
1001
1100
0000
2000
,
0000
0000
3001
0101
,
0110
1010
0000
1000
,
0010
0100
0001
1000
,
1000
0000
0100
0000
1000
0000
0010
0100
,
0001
0000
1000
0000
0100
0000
1000
0010
,
0100
0000
0101
0000
0000
0000
0010
1000
,
0010
0000
0100
0000
0001
0000
1000
0001
,
1000
1001
0000
1000
,
0100
0000
1000
0000
0010
0100
0001
0000
,
1000
0000
0100
0010
0001
0000
1000
0000
,
0010
0000
0100
0001
0100
0000
0010
1000
,
0010
0100
0010
1001
;

//---------------dance-single - Copied from Copied f----------------
#NOTES:
     dance-single:
     Copied from Copied f:
     Hard:
     7:
     0.397,0.381,0.297,0.083,0.036: // measure 1
0000
0000
0000
0000
,  // measure 2
0000
0000
0000
0000
,  // measure 3
0000
0000
0000
0000
,  // measure 4
0000
0000
0000
0000
,  // measure 5
0000
0000
0000
0000
,  // measure 6
0000
0000
0000
0101
,  // measure 7
0110
0000
1010
0000
1001
0000
1000
0100
,  // measure 8
0010
0002
0000
0000
1003
0010
0100
0001
,  // measure 9
1000
0200
0000
0000
1300
0001
0010
0100
,  // measure 10
1000
0000
0001
0000
1000
0000
0000
0001
0100
0000
0010
0000
1010
0000
0000
0000
,  // measure 11
0101
0000
0110
0000
1001
0000
1000
0010
,  // measure 12
0100
0002
0000
0000
0013
0100
1000
0001
,  // measure 13
0100
0020
0000
0000
1030
0001
0010
0001
,  // measure 14
1000
0000
0010
0000
0100
0000
0000
0001
0100
0000
0010
0000
1000
0000
0100
0000
,  // measure 15
1000
0000
0001
0100
0001
0000
0100
0010
,  // measure 16
1000
0100
0001
0100
1000
0000
0010
0100
,  // measure 17
0010
0000
0100
0001
0010
0000
0001
0010
,  // measure 18
1000
0010
0001
1000
0010
0100
0001
0010
,  // measure 19
0001
0000
0001
1000
0001
0000
0010
0001
,  // measure 20
0100
0010
0001
0010
1000
0000
1000
0100
,  // measure 21
1000
0000
0001
0100
0001
0000
1000
0010
,  // measure 22
0100
0001
0010
1000
0010
0001
1001
0000
,  // measure 23
1000
0100
0000
0100
1000
0001
0011
0000
,  // measure 24
1100
2001
3001
0101
,  // measure 25
0100
0010
0000
0010
1000
0001
1001
0000
,  // measure 26
1010
2100
3010
0101
,  // measure 27
0001
0010
0000
0010
0001
1000
1100
0000
,  // measure 28
0110
0201
0301
0110
,  // measure 29
0010
0000
1000
0000
0100
0000
0000
0100
0000
0000
0010
0000
0001
0000
0000
0001
,  // measure 30
0000
1000
0100
0001
0100
1000
0010
0100
,  // measure 31
0001
0100
0010
1000
0001
0010
0100
0100
,  // measure 32
1000
0001
0100
0000
0101
0000
0001
0100
,  // measure 33
0010
1000
0100
0010
0001
0100
0010
0010
,  // measure 34
1000
0100
1000
0000
1010
0000
1000
0001
,  // measure 35
0100
0010
0100
0001
1000
0001
0010
0010
,  // measure 36
0100
1000
0001
0000
1001
0000
0010
0100
,  // measure 37
0001
0000
0010
0000
0001
0000
0000
0001
0000
0000
0100
0000
0010
0000
0000
0010
,  // measure 38
0000
1000
0100
0010
0001
1000
1001
0000
;

//---------------dance-single - Copied from----------------
#NOTES:
     dance-single:
     Copied from:
     Beginner:
     1:
     0.134,0.135,0.000,0.071,0.000:
0000
0000
0000
0000
,
0000
0000
0000
0000
,
0000
0000
0000
0000
,
0000
0000
0000
0000
,
0000
0000
0000
0000
,
0000
0000
0000
1000
,
0000
0001
0000
1000
,
1000
0010
0000
0100
,
0000
0001
0000
0100
,
0100
0010
0000
1000
,
0000
0100
0000
1000
,
0100
0010
0000
0001
,
0000
0100
0000
0001
,
0100
0010
0000
2000
,
0000
0000
3001
0100
,
0001
0000
1000
0000
,
0010
0000
0100
0000
,
0001
0000
0001
0002
,
0000
0000
1003
0000
,
0100
0000
1000
0000
,
0010
0000
0100
0000
,
0001
0000
0000
2000
,
0000
0000
0000
3001
,
0001
0001
0000
0200
,
0000
0000
0000
0310
,
0010
0010
0000
2000
,
0000
0000
0000
3100
,
0100
0100
0000
0020
,
0000
0000
0000
0031
,
0001
0001
0000
0100
,
0100
0000
0100
0000
,
0010
1000
0100
0000
,
0100
0000
0100
0000
,
1000
0001
0010
0000
,
0010
0000
0010
0000
,
0010
0000
0001
0000
,
0100
0000
0010
0000
,
1000
0001
1000
0001
;
