#TITLE:BRIDAL FESTIVAL!!;
#SUBTITLE:;
#ARTIST:S.S.D. with Nanacchi;
#TITLETRANSLIT:;
#SUBTITLETRANSLIT:;
#ARTISTTRANSLIT:;
#CREDIT:;
#BANNER:BRIDAL FESTIVAL!!!-bn.png;
#BACKGROUND:BRIDAL FESTIVAL-BG.png;
#LYRICSPATH:;
#CDTITLE:;
#MUSIC:19 - S.S.D. with ‚ȂȂÁ‚¿ - BRIDAL FESTIVAL!!!.mp3;
#OFFSET:1.322;
#SAMPLESTART:7.400;
#SAMPLELENGTH:12.000;
#SELECTABLE:YES;
#BPMS:0.000=138.000;
#STOPS:;
#BGCHANGES:0.000=BRIDAL FESTIVAL.avi=1.000=1=1=0,
99999=-nosongbg-=1.000=0=0=0 // don't automatically add -songbackground-
;

//---------------dance-single - ----------------
#NOTES:
     dance-single:
     :
     Easy:
     4:
     0.225,0.281,0.041,0.091,0.000:
0000
0000
0000
0000
,
0000
0000
0000
0000
,
0000
0000
0000
0000
,
0000
0000
0000
0000
,
0000
0000
0000
0000
,
1000
0100
1000
0100
,
0010
0001
0010
0001
,
2000
0000
3000
0001
,
0200
0000
0000
0300
,
0001
0010
0001
0010
,
0100
1000
0100
1000
,
0002
0000
0000
0103
,
0002
0000
0000
0103
,
0010
1000
0100
0001
,
0100
1000
0010
0100
,
0001
0010
1000
0010
,
0001
0100
0010
1000
,
1000
0100
0001
0100
,
1000
0010
0001
0010
,
1000
0100
0010
0001
,
1000
0001
1000
0000
,
0002
0000
0000
0003
,
0200
0000
0000
0300
,
0020
0000
0000
0030
,
2000
0000
0000
3000
,
0001
0001
0001
0000
,
0100
0100
0100
0000
,
0010
0010
0010
0000
,
1000
0010
0001
0010
,
2000
0000
0000
0000
,
0000
0000
3000
0000
,
0001
0001
0001
0000
,
0100
0001
0100
0000
,
0010
0010
0010
0000
,
1000
0010
1000
0000
,
0100
0100
0100
0000
,
1000
0001
1000
0000
,
0100
0000
0000
0000
,
0100
0000
0000
0010
,
0001
0000
0000
0000
,
0001
0000
0000
0001
,
0100
0000
0000
0000
,
0001
0000
0000
0000
,
1000
0000
0000
0100
,
1000
0000
0000
0001
,
0100
0100
0100
0000
,
0100
0100
0100
0000
,
0010
0010
0010
0000
,
0010
0010
0010
0000
,
1001
0000
0000
0000
,
0001
1000
0001
1000
,
2002
0000
3003
0000
,
0000
0000
0000
0000
,
0001
0100
1000
0100
,
0001
0100
1000
0100
,
0001
0010
1000
0010
,
0001
1000
0100
1000
,
0010
0010
0010
0100
,
0001
0001
0001
1000
,
0100
0010
0001
1000
,
0100
1000
0010
0100
,
0001
0001
0001
0000
,
1000
1000
1000
0000
,
0001
0001
0001
0000
,
1000
1000
1000
0000
,
0010
0100
0101
0000
,
0001
1000
1001
0000
,
1000
0100
0010
0001
,
1001
0000
0000
0000
;

//---------------dance-single - ----------------
#NOTES:
     dance-single:
     :
     Medium:
     5:
     0.313,0.421,0.083,0.107,0.178:
0000
0000
0000
0000
,
0000
0000
0000
0000
,
0000
0000
0000
0000
,
0000
0000
0000
0000
,
0000
0000
0000
0000
,
1000
0000
0000
0100
0000
0000
1000
0000
0000
0010
0000
0010
,
0100
0000
0100
0001
0000
0001
0010
0000
0000
0010
0000
0010
,
0001
0000
0001
0100
0000
0100
0010
0000
0000
0010
0000
0010
,
1000
0000
1000
0100
0000
0100
1000
0000
0000
1000
0000
0000
,
0001
0000
0000
0010
0000
0000
0001
0000
0000
0100
0000
0100
,
0010
0000
0010
1000
0000
1000
0100
0000
0000
1000
0000
1000
,
0001
0000
0001
0100
0000
0100
0001
0000
0000
0001
0000
0001
,
0010
0000
0010
0001
0000
0001
1000
0000
0000
1000
0000
0000
,
0100
0001
0100
1000
,
0010
0000
0000
0100
0000
0000
0001
0000
1000
0001
0000
0000
,
0001
0100
1000
0100
,
0001
0000
0000
0010
0000
0000
0001
0000
1000
0001
0000
0000
,
1000
0100
0001
0100
,
1000
0000
0000
0010
0000
0000
0001
0000
0010
1000
0000
0000
,
1000
0100
0010
0001
,
1000
0000
0000
0001
1000
0001
1000
0000
0000
0000
0000
0000
,
2000
0000
0000
0000
,
3002
0000
0000
0000
,
0203
0000
0000
0000
,
0320
0000
0000
0030
,
1000
1000
1000
0000
,
0001
0001
0001
0000
,
0100
0100
0100
0000
,
0020
2030
3200
0302
,
0023
0000
0000
0000
,
0000
0000
0000
0000
,
1030
0100
1000
0000
,
0010
0010
0010
0000
,
0100
0001
0100
0000
,
0010
0010
0010
0000
,
1000
0100
1000
0000
,
0001
0001
0001
0000
,
0101
0000
1000
0100
,
1100
0000
0010
0100
,
0101
0000
0001
1000
,
1001
0000
1000
1000
,
1100
0000
0001
0100
,
0101
0000
0001
0010
,
0011
0000
0010
0100
,
1100
0000
1000
0001
,
1000
1000
1000
0000
,
0001
0001
0001
0000
,
1000
0100
1000
0000
,
0001
0100
0001
0000
,
1000
0000
0010
0000
,
1000
0100
0010
0001
,
2002
0000
0000
0000
,
3003
0000
0000
0000
,
0001
0000
0001
0100
0000
0100
0010
0000
0000
0010
0000
0000
,
0010
0000
0010
1000
0000
1000
0100
0000
0000
0100
0000
0000
,
1000
0000
1000
0010
0000
0010
0100
0000
0000
0100
0000
0000
,
0001
0000
0001
0010
0000
0010
0001
0000
0000
0001
0000
0000
,
1000
0000
1000
0100
0000
0100
1000
0000
0000
0001
0000
0000
,
0100
0000
0100
0001
0000
0001
0100
0000
0000
0100
0000
0000
,
0010
0000
0010
1000
0000
1000
0100
0000
0100
0010
0000
0010
,
0001
0000
0001
1000
0000
1000
0001
0000
0001
1000
0000
1000
,
0001
1000
0001
0000
,
0100
0010
0100
0000
,
0010
1000
0100
0010
,
0001
0100
1000
0100
,
0002
1000
1000
0000
,
2003
0001
0001
0000
,
3001
0100
0010
1000
,
1001
0000
0000
0000
;

//---------------dance-single - Copied from Copied f----------------
#NOTES:
     dance-single:
     Copied from Copied f:
     Hard:
     7:
     0.444,0.505,0.182,0.008,0.566: // measure 1
0000
0000
0000
0000
,  // measure 2
0000
0000
0000
0000
,  // measure 3
0000
0000
0000
0000
,  // measure 4
0000
0000
0000
0000
,  // measure 5
0000
0000
0000
0000
,  // measure 6
1010
0000
0000
0101
0000
0000
1001
0000
0000
0010
0001
1000
,  // measure 7
0100
0000
1000
0010
0000
0010
0100
0000
0000
0001
0000
0001
,  // measure 8
0010
0000
0010
0100
0000
0100
1000
0000
0000
1000
0000
1000
,  // measure 9
0010
0000
0010
0100
0000
0100
0001
0000
0000
0100
0000
0000
,  // measure 10
0011
0000
0000
1100
0000
0000
1010
0000
0000
1000
0100
0010
,  // measure 11
0001
0000
0001
1000
0000
1000
0010
0000
0000
0100
0000
0100
,  // measure 12
0001
0000
0001
1000
0000
1000
0100
0000
0000
1000
0000
1000
,  // measure 13
0001
0000
0001
0100
0000
0100
0010
0000
0000
1000
0000
1000
,  // measure 14
0100
0000
0100
0001
0000
0001
0100
0000
0100
1000
0000
1000
,  // measure 15
0010
0000
0010
0100
0000
0100
0001
0000
0001
1000
0000
0000
,  // measure 16
0001
0000
0001
0010
0000
0010
1000
0000
1000
0010
0000
0010
,  // measure 17
0001
0000
0001
0010
0000
0010
0100
0000
0100
1000
0000
0000
,  // measure 18
0001
0000
0001
0100
0000
0100
1000
0000
1000
0100
0000
0100
,  // measure 19
0001
0000
0001
1000
0000
1000
0100
0000
0100
1000
0000
0000
,  // measure 20
1000
0000
1000
0010
0000
0010
0001
0000
0001
0010
0000
0010
,  // measure 21
1000
0000
1000
0001
0000
0001
0100
0000
0000
0000
0000
0000
,  // measure 22
0101
0000
0000
0000
,  // measure 23
1010
0000
0000
0000
,  // measure 24
1100
0000
0000
0000
,  // measure 25
0011
0000
0000
0000
,  // measure 26
0010
0000
0010
0001
0000
0001
0100
0000
0000
0000
0000
0000
,  // measure 27
0010
0000
0010
1000
0000
1000
0100
0000
0000
0000
0000
0000
,  // measure 28
1000
0000
1000
0001
0000
0001
1000
0000
0000
0000
0000
0000
,  // measure 29
0011
0101
1010
1100
,  // measure 30
1001
0000
0001
1000
0000
1000
0001
0000
0000
0010
0000
0010
,  // measure 31
0100
0000
0100
0010
0000
0010
0001
0000
0000
1000
0000
1000
,  // measure 32
0100
0000
0100
1000
0000
1000
0001
0000
0000
0001
0000
0001
,  // measure 33
0010
0000
0010
0001
0000
0001
1000
0000
0000
1000
0000
1000
,  // measure 34
0100
0000
0100
0010
0000
0010
0001
0000
0000
0001
0000
0001
,  // measure 35
0100
0000
0100
0010
0000
0010
1000
0000
0000
0100
0000
0100
,  // measure 36
1000
0000
1000
0001
0000
0001
0010
0000
0000
0100
0000
0100
,  // measure 37
1000
0010
0100
0001
0000
1000
0100
0000
0000
0000
0000
0000
,  // measure 38
0010
0000
0000
0000
0000
0000
0010
0000
0000
0001
0000
1000
,  // measure 39
0001
0000
0000
0000
0000
0010
0001
0000
0000
0010
0000
0010
,  // measure 40
0100
0000
0000
0000
0000
0000
1000
0000
0000
0010
0000
1000
,  // measure 41
0100
0000
0000
0000
0000
1000
0001
0000
0000
0100
0000
0100
,  // measure 42
0010
0000
0000
0000
0000
0000
1000
0000
0000
0001
0000
0010
,  // measure 43
0001
0000
0000
0000
0000
0100
0001
0000
0000
1000
0000
0010
,  // measure 44
0100
0000
0000
0000
0000
0000
0100
0000
0000
0001
0000
0100
,  // measure 45
0010
0000
0000
0000
0000
1000
0100
0000
0000
0100
0000
1000
,  // measure 46
0001
0010
0001
0000
,  // measure 47
0100
0001
0010
0000
,  // measure 48
0100
1000
0100
0000
,  // measure 49
1000
0010
0100
0100
,  // measure 50
1001
0000
0000
0000
0000
0000
1000
0001
1000
0000
0000
0000
0000
0000
0000
0000
,  // measure 51
0011
0000
0000
0101
0000
0000
1010
0000
0000
1000
0100
0010
,  // measure 52
0002
0000
0003
0000
,  // measure 53
0011
0000
0000
0101
0000
0000
1010
0000
0000
1000
0010
0100
,  // measure 54
0001
0000
0001
0010
0000
0010
0100
0000
0100
1000
0000
1000
,  // measure 55
0010
0000
0010
1000
0000
1000
0001
0000
0001
0010
0000
0010
,  // measure 56
0001
0000
0001
0100
0000
0100
1000
0000
1000
0100
0000
0100
,  // measure 57
0001
0000
0001
0010
0000
0010
0100
0000
0100
1000
0000
1000
,  // measure 58
0010
0000
0010
0100
0000
0100
0010
0000
0010
1000
0000
1000
,  // measure 59
0001
0000
0001
0100
0000
0100
0001
0000
0001
0010
0000
0010
,  // measure 60
0001
0000
0001
0010
0000
0010
1000
0000
1000
0010
0000
0010
,  // measure 61
0001
0000
0001
1000
0000
1000
0010
0000
0010
0100
0000
0100
,  // measure 62
0001
0010
0100
0000
,  // measure 63
1000
0010
0100
0000
,  // measure 64
0010
1000
0001
0000
,  // measure 65
0100
0000
0000
0001
0000
0000
0010
0000
0000
0001
0010
0100
,  // measure 66
1000
0000
1000
0010
0000
0010
0100
0000
0000
0000
0000
0000
,  // measure 67
0001
0000
0001
1000
0000
1000
0010
0000
0000
0000
0000
0000
,  // measure 68
1000
0000
1000
0010
0000
0010
0100
0000
0100
0001
0000
0001
,  // measure 69
1000
0000
0000
0000
;

//---------------dance-single - Copied from----------------
#NOTES:
     dance-single:
     Copied from:
     Beginner:
     2:
     0.139,0.253,0.017,0.000,0.000:
0000
0000
0000
0000
,
0000
0000
0000
0000
,
0000
0000
0000
0000
,
0000
0000
0000
0000
,
0000
0000
0000
0000
,
0010
0010
0010
0000
,
0100
0000
0000
0001
,
0001
0000
0000
0100
,
0100
0000
0000
0000
,
1000
1000
1000
0000
,
0001
0000
0000
0001
,
0001
0000
0000
0010
,
0010
0000
0000
0100
,
1000
0000
1000
0000
,
0001
0000
0001
1000
,
0100
0000
0100
0000
,
0100
0000
0100
0010
,
0001
0000
0001
0000
,
0001
0000
0001
1000
,
0001
0000
0001
0000
,
0001
0100
0001
0000
,
0100
0000
0000
0000
,
0100
0000
0000
0000
,
0100
0000
0000
0000
,
0100
0000
0000
0000
,
0100
0100
0100
0000
,
0001
0001
0001
0000
,
1000
1000
1000
0000
,
0000
0000
0000
0000
,
1000
0000
0000
0000
,
0000
0000
0000
0000
,
0100
0000
0000
0000
,
0000
0000
0000
0000
,
0010
0000
0000
0000
,
0000
0000
0000
0000
,
0001
0000
0000
0000
,
0000
0000
0000
0000
,
0001
0000
0000
0001
,
0001
0000
0000
1000
,
1000
0000
0000
1000
,
1000
0000
0000
0001
,
0001
0000
0000
0100
,
0100
0000
0000
0001
,
0001
0000
0000
0010
,
0010
0000
0000
0100
,
1000
0000
0000
0000
,
1000
0000
0000
0000
,
0001
0000
0000
0000
,
0001
0000
0000
0000
,
1001
0000
0000
0000
,
0000
0000
0000
0000
,
0000
0000
0000
0000
,
0000
0000
0000
0000
,
1000
1000
1000
0000
,
0001
0001
0001
0000
,
0001
0001
0001
0000
,
1000
1000
1000
0000
,
0010
0010
0010
0000
,
0100
0100
0100
0000
,
0001
0100
0010
1000
,
0100
0100
0100
0010
,
0001
0000
0000
0000
,
1000
0000
0000
0000
,
0001
0000
0000
0000
,
1000
0000
0000
0000
,
0100
0100
0100
0000
,
0100
0100
0100
0000
,
0100
0100
0100
0010
,
1001
0000
0000
0000
;
