#TITLE:A Thousand Miles;
#SUBTITLE:(Speedo Mix) (The New Attack Mix);
#ARTIST:DJ Speedo feat, Wildside;
#TITLETRANSLIT:;
#SUBTITLETRANSLIT:;
#ARTISTTRANSLIT:;
#CREDIT:;
#BANNER:AThousandMilesSpeedoMixTheNewAttack.png;
#BACKGROUND:AThousandMilesSpeedoMixTheNewAtt-1.png;
#LYRICSPATH:;
#CDTITLE:./CDTITLES/Dance Dance Revolution HOTTEST PARTY.png;
#MUSIC:DJ Speedo feat. Wildside - A Thousand Miles (Speedo Mix) (The New Attack Mix).mp3;
#OFFSET:1.164;
#SAMPLESTART:63.700;
#SAMPLELENGTH:15.000;
#SELECTABLE:YES;
#BPMS:0.000=190.000;
#STOPS:;
#BGCHANGES:;

//---------------dance-single - Copied from Blank----------------
#NOTES:
     dance-single:
     Copied from Blank:
     Hard:
     9:
     0.515,0.611,0.264,0.088,0.000:
0000
0000
0000
0000
,
0000
0000
0000
0000
,
0000
0000
0000
0000
,
0000
0000
0000
0000
,
0000
0000
0000
0000
,
0000
0000
0000
0000
,
0000
0000
0000
0000
,
0000
0000
0000
0000
,
0000
0000
0000
0000
,
0000
0000
0000
0000
,
0000
0000
0000
0000
,
0000
0000
0000
0000
,
0000
0000
0000
0000
,
0000
0000
0000
0000
,
0000
0000
0000
0000
,
0000
0000
0000
0000
,
0000
0000
0000
0000
,
0000
0000
0000
0000
,
0000
0000
2002
0000
,
0000
0000
3003
0000
1000
0000
0001
1000
,
0000
1000
0001
0000
1000
0000
0100
0010
,
0001
0100
0010
1000
0001
0000
1000
0100
,
0000
0100
1000
0000
0001
0000
1000
0010
,
0100
0010
1000
0001
0100
0000
0001
0010
,
0000
0010
0001
0000
1000
0000
0001
1000
,
0001
0010
0001
1000
0001
0000
1000
0100
,
0000
0100
1000
0000
0010
0000
1000
0010
,
0100
0001
0010
0100
1000
0000
0001
0000
,
0010
0001
1000
0000
0010
0000
0100
0000
,
0001
0010
0100
0000
1000
0000
0001
0000
,
0100
0010
1000
0000
0001
0000
1000
0000
,
0100
0010
0100
1000
0100
0000
1000
0010
,
0000
0010
0100
0000
0001
0000
1000
0100
,
0001
0100
1000
0010
0100
0000
0010
1000
,
0000
1000
0100
0000
0010
0000
0001
1000
,
0001
0010
1000
0010
0001
0000
1000
0000
,
0010
0100
0001
0000
1000
0000
0100
0000
,
1000
0001
0100
0000
0001
0000
0010
0000
,
0100
0010
0001
0000
1000
0000
0001
0000
,
0100
0001
0100
0010
1000
0000
0001
0100
,
0000
0100
0010
0000
1000
0000
0100
1000
,
0010
0001
0010
1000
0001
0000
0100
0001
,
0000
0001
0010
0000
0100
0000
1000
0001
,
1000
0001
1001
0000
0001
0010
0001
1000
,
0001
0100
0001
0100
0010
0100
0020
0000
,
1030
0000
1001
0000
1000
0100
1000
0001
,
1000
0100
1000
0010
0100
0010
0200
0000
,
0301
0000
1001
0000
0010
0100
0010
1000
,
0010
0001
0010
1000
0001
1000
0020
0000
,
0130
1001
0200
0000
,
0000
0000
0020
0000
,
0000
0330
1000
0100
,
1000
0001
0100
0000
0001
0000
0101
0000
,
1010
1001
0101
0001
,
0010
0100
1000
0000
0001
0010
0000
0010
,
0001
1000
0010
1000
0001
0000
1000
0000
,
0100
1000
0001
0000
1000
0000
1010
0000
,
1100
0110
1001
1000
,
0001
1000
0100
0000
1000
0100
0001
0100
,
1000
0010
0001
0010
1000
0000
0010
0000
,
0100
0001
1000
0000
0001
0000
0101
0000
,
0011
1001
0101
1000
,
0001
0100
0010
0000
1000
0000
0100
0000
,
0100
1000
0001
0000
1001
0000
0001
0000
,
0100
0101
0010
1000
,
1010
0000
0100
0000
1000
0010
0001
0010
,
1000
0100
0001
0100
1000
0010
0100
0001
,
1000
0100
1000
0001
2000
0000
0000
0000
,
0000
3200
0000
0000
,
0320
0000
0000
0000
,
0000
0000
0000
0000
,
0000
0000
0030
0000
1001
0000
1000
0100
,
0000
0010
0001
0000
1000
0000
1000
0100
,
1000
0001
0010
0100
1000
0000
1000
0001
,
0000
0001
0100
0000
0001
0000
1000
0010
,
0100
0001
1000
0001
0100
0000
0010
1000
,
0000
0001
0100
0000
0010
0000
1000
0100
,
0001
0100
1000
0010
0100
0000
0001
0010
,
0000
0100
1000
0000
1000
0000
0001
0010
,
1000
0010
0001
0100
0010
0000
1000
0010
,
0000
0100
0001
0000
0001
0000
1000
0001
,
0010
0100
1000
0001
0100
0000
0010
0100
,
0000
0001
0100
0000
0010
0000
1000
0001
,
1000
0100
0010
0001
1000
0000
1000
0010
,
0000
0010
1000
0000
0100
0000
0010
0000
,
0100
0010
0001
0000
0100
0000
0010
0000
,
0010
1000
0001
0000
1000
0000
0001
0000
,
0010
0100
1000
0000
0011
0000
1001
0000
,
0100
0001
0100
0000
1001
0000
1010
0000
,
0010
1000
0010
0000
0101
0000
1001
0000
,
1000
0100
0010
0000
0101
0000
0011
0000
,
0001
1000
0001
1000
1100
0000
1010
0000
,
0010
0100
0010
0000
0110
0000
1001
0000
,
1000
0100
1000
0000
1000
0100
0010
0001
,
0010
0100
1000
0100
0010
0001
0010
0100
,
2000
0000
0001
0001
3001
0000
0000
0000
;

//---------------dance-double - Copied from----------------
#NOTES:
     dance-double:
     Copied from:
     Hard:
     9:
     0.569,0.611,0.296,0.216,0.000:
00000000
00000000
00000000
00000000
,
00000000
00000000
00000000
00000000
,
00000000
00000000
00000000
00000000
,
00000000
00000000
00000000
00000000
,
00000000
00000000
00000000
00000000
,
00000000
00000000
00000000
00000000
,
00000000
00000000
20000000
00000000
,
00000000
00000000
32000000
00000000
,
00000000
00000000
03000000
00020000
,
00032000
00000000
00003200
00000000
00000320
00000000
00000000
00000100
,
00000000
00000130
00000002
00000000
,
00000000
00000000
00000203
00000000
,
00000000
00000300
00000000
00002000
,
00023000
00000000
02030000
00000000
03200000
00000000
00000000
01000000
,
00000000
01300000
20000000
00000000
,
00000000
00000000
30020000
00000000
,
00000000
02030000
00000000
00000000
,
00000000
00000000
03000000
00000000
,
00000000
00010000
00022000
00000000
,
00000000
00000000
00000000
00033000
00011000
00000000
00001000
00000100
,
00000000
00000100
00000010
00000000
00000100
00000000
00000001
00000100
,
00001000
00010000
01000000
00100000
00010000
00000000
10000000
00010000
,
00000000
00010000
10000000
00000000
00100000
00000000
10000000
01000000
,
00010000
00001000
00000100
00000010
00001000
00000000
00000001
00000100
,
00000000
00000100
00000010
00000000
00001000
00000000
00000001
00000010
,
00001000
00010000
01000000
10000000
01000000
00000000
10000000
00100000
,
00000000
00100000
01000000
00000000
00010000
00000000
10000000
01000000
,
00010000
00001000
00010000
00001000
00010000
00001000
00100000
00000000
,
00010000
10000000
00100000
00000000
01000000
00100000
01000000
00010000
,
10000000
01000000
00100000
00000000
00010000
00100000
01000000
00000000
,
10000000
00100000
01000000
00100000
10000000
00010000
10000000
01000000
,
10000000
00100000
10000000
01000000
00100000
00000000
00100000
01000000
,
00000000
01000000
10000000
00000000
01000000
00000000
10000000
01000000
,
00010000
00001000
00000100
00000010
00000100
00000000
00000010
00001000
,
00000000
00001000
00000100
00000000
00000010
00000000
00000001
00001000
,
00000001
00001000
00000001
00001000
00000100
00000010
00000001
00000000
,
00001000
00000010
00000100
00000000
00000001
00000010
00000001
00000100
,
00000010
00000100
00000001
00000000
00000001
00001000
00000100
00000000
,
00000010
00000001
00001000
00000000
00001000
00000100
00001000
00000010
,
00000100
00000010
00001000
00000010
00000100
00000000
00000001
00001000
,
00000000
00001000
00000001
00000000
00000100
00000000
00001000
00010000
,
01000000
00100000
01000000
10000000
00010000
00000000
10000000
00010000
,
00000000
00010000
10000000
00000000
00100000
00000000
10000000
01000000
,
00010000
00001000
00011000
00000000
00010000
00001000
00010000
00000000
,
00001000
00010000
01000000
00000000
01000000
10000000
01000000
00000000
,
10010000
00000000
10010000
00000000
10000000
00100000
00010000
00000000
,
00001000
00010000
00001000
00000000
00010000
00001000
00000100
00000000
,
00001001
00000000
00001001
00000000
00000001
00000010
00001000
00000000
,
00010000
00001000
00010000
00000000
00001000
00010000
00001000
00000000
,
00101000
00010100
00020000
00000000
,
00000000
00000000
00002000
00000000
,
00000000
00000000
00033000
00000000
00001000
00010000
00001000
00010000
,
01000000
00100000
00010000
00000000
10000000
00000000
11000000
00000000
,
00110000
00000000
00011000
00000000
00001000
00010000
00001000
00000100
,
00000010
00001000
00000001
00000000
00000001
00001000
00000000
00000010
,
00000100
00000010
00001000
00000001
00000100
00001000
00010000
01000000
,
00100000
00010000
10000000
00000000
01000000
00000000
10100000
00000000
,
01100000
00000000
01010000
00000000
10000000
00010000
10000000
00000000
,
01000000
10000000
00010000
00000000
10000000
00100000
00010000
00001000
,
00000100
00000010
00000100
00000001
00000100
00001000
00011000
00000000
,
00010000
00001000
00000100
00000000
00000010
00000100
00000110
00000000
,
00001100
00000000
00011000
00000000
00110000
00000000
00100000
00010000
,
10000000
00010000
10000000
00000000
10000000
00000000
01000000
00100000
,
00010000
10000000
00010000
00000000
20020000
00000000
00000000
00000000
,
30030000
22000000
00000000
33000000
,
01020000
00000000
00000000
00000000
10030000
01000000
00010000
01000000
,
10000000
01000000
00010000
00001000
00000100
00000010
00000100
00000001
,
00001000
00000001
00000010
00000100
00002000
00000000
00000000
00000000
,
00000000
02003000
00000000
00000000
,
03200000
00000000
00000000
00000000
,
00000000
00000000
00000000
00000000
,
00000000
00000000
00000000
00000000
00310000
00000000
01000000
00100000
,
00000000
00100000
10000000
00000000
00010000
00000000
10000000
00100000
,
00010000
00001000
00010000
00001000
00000100
00000000
00000001
00000100
,
00000000
00000100
00000010
00000000
00001000
00000000
00000001
00000010
,
00001000
00010000
00001000
00010000
01000000
00000000
01000000
00100000
,
00000000
00100000
00010000
00000000
10000000
00000000
01000000
00010000
,
00001000
00010000
00001000
00000100
00000010
00000000
00001000
00000001
,
00000000
00000010
00000100
00000000
00001000
00000000
00000001
00000100
,
00001000
00010000
01000000
00100000
00010000
00000000
00100000
00010000
,
00000000
10000000
00010000
00000000
10000000
00000000
10000000
01000000
,
00010000
00001000
00000100
00000010
00001000
00000000
00000001
00001000
,
00000000
00000100
00000010
00000000
00000001
00000000
00001000
00000100
,
00000010
00000001
00001000
00000001
00001000
00000000
00001010
00000000
,
00001000
00011000
00010000
01001000
,
01000000
01010000
10000000
10010000
,
01000000
11000000
00010000
00011000
,
00001000
00000000
00010100
00000000
00000100
00000100
00001000
00000000
,
00001000
00000000
00000101
00000000
00000001
00000001
00000100
00000000
,
00001000
00000000
00101000
00000000
00100000
00100000
00010000
00000000
,
01000000
00000000
10010000
00000000
10000000
10000000
01000000
00000000
,
00010000
00000000
00011000
00000000
00001000
00001000
00000100
00000000
,
00000010
00000000
00001001
00000000
00000001
00000001
00001000
00000000
,
00000100
00000000
00000110
00000000
00000001
00000001
00000100
00000000
,
00001000
00000000
00010000
00001000
00010000
00001000
01000000
00100000
,
10000000
01000000
00010000
00001000
00010000
00000000
00000000
00000000
;

//---------------dance-single - ----------------
#NOTES:
     dance-single:
     :
     Medium:
     7:
     0.428,0.535,0.240,0.296,0.000:
0000
0000
0000
0000
,
0000
0000
0000
0000
,
0000
0000
0000
0000
,
0000
0000
0000
0000
,
0000
0000
0000
0000
,
0000
0000
0000
0000
,
0000
0000
0000
0000
,
0000
0000
0000
0000
,
0000
0000
0000
0000
,
0000
0000
0000
0000
,
0000
0000
0000
0000
,
0000
0000
0000
0000
,
0000
0000
0000
0000
,
0000
0000
0000
0000
,
0000
0000
0000
0000
,
0000
0000
0000
0000
,
0000
0000
0000
0000
,
0000
0000
0000
0000
,
0000
0000
0000
0000
,
0000
0000
0000
0000
1000
0000
0100
0010
,
0000
0010
0001
0000
1000
0000
0001
0000
,
0100
0000
0010
1000
0010
0000
0100
0001
,
0000
0001
1000
0000
0100
0000
0010
0000
,
0001
0000
1000
0100
1000
0000
0001
0100
,
0000
0100
0010
0000
1000
0000
0010
0000
,
0100
0000
0001
1000
0100
0000
1000
0001
,
0000
0001
0100
0000
0010
0000
1000
0000
,
0010
0000
0100
0000
0001
0100
0001
0000
,
0100
0010
1000
0100
,
1000
0001
0100
0010
,
1000
0100
0010
0001
,
1000
0000
0100
1000
1000
0000
0001
0100
,
0000
0100
0010
0000
1000
0000
0100
0000
,
1000
0000
0001
0100
0010
0000
1000
0010
,
0000
0010
0100
0000
0001
0000
1000
0000
,
0100
0000
0010
0010
0001
0000
0100
0000
,
0010
1000
0010
0100
,
0001
1000
0100
1000
,
0001
0100
0010
1000
,
0010
0000
0100
0100
0001
0000
1000
0100
,
0000
0100
1000
0000
0001
0000
0100
0000
,
0010
0000
1000
0010
1000
0000
0010
0100
,
0000
0100
0001
0000
1000
0000
0100
0000
,
0010
0001
1000
0000
0002
0000
0000
0203
,
0000
0320
0000
1030
,
1010
0000
0110
0000
0002
0000
0000
2003
,
0000
3200
0000
0310
,
0110
0000
1001
0000
2000
0000
0000
3200
,
0000
0320
0000
0130
,
0110
1100
0220
0000
,
0000
0330
2002
0000
,
0000
0000
3003
0000
0002
0000
0000
0203
,
0000
0302
0000
1003
,
1000
0000
1000
0000
2000
0000
0000
3200
,
0000
2300
0000
3001
,
0001
0000
0010
0000
0020
0000
0000
0032
,
0000
2003
0000
3100
,
0100
0000
0100
0000
2000
0000
0000
3002
,
0000
0023
0000
0031
,
0010
0000
0001
0010
0001
0000
0100
0000
,
1000
0100
0001
0010
,
1000
0010
1001
1000
,
0100
1000
0001
0100
,
0010
0100
2020
0000
,
3030
0202
0000
0303
,
0220
0000
0000
0330
1000
0100
1000
0000
,
1000
0001
1000
0000
0010
0001
0010
0001
,
0100
0001
0100
0000
0202
0000
0000
0000
,
0303
0220
0000
0330
,
2002
0000
0000
0000
,
0000
0000
0000
0000
,
0000
0000
3003
0000
1000
0000
0100
1000
,
0000
1000
0001
0000
0100
0000
0010
0000
,
1000
0000
0010
0100
0010
0000
1000
0010
,
0000
0010
0100
0000
0001
0000
1000
0000
,
0100
0000
0010
0001
0010
0000
0001
0100
,
0000
0100
0010
0000
0010
0000
1000
0000
,
0010
0000
1000
0100
0010
0000
0100
0010
,
0000
0010
0001
0000
0100
0000
1000
0000
,
0100
0000
0001
1000
0001
0000
0010
0001
,
0000
0001
0010
0000
0100
0000
1000
0000
,
0010
0000
1000
0100
1000
0000
0100
0010
,
0000
0010
0001
0000
0100
0000
0001
0000
,
1000
0000
0100
0010
0100
0000
0110
0000
,
0001
1001
1000
0100
,
0010
0001
1000
1100
,
0001
0101
0001
0100
,
1000
0100
0001
0011
,
0001
0011
0001
0011
,
0001
0011
1000
1100
,
1000
1100
1000
1100
,
1000
0000
0001
0001
0100
0000
0110
0000
,
1000
1001
0010
0110
,
1000
1001
1000
0100
,
0010
0000
0001
0000
1000
0001
1000
0001
,
1000
0001
1000
0001
1000
0000
0000
0000
;

//---------------dance-single - ----------------
#NOTES:
     dance-single:
     :
     Easy:
     5:
     0.315,0.382,0.184,0.152,0.000:
0000
0000
0000
0000
,
0000
0000
0000
0000
,
0000
0000
0000
0000
,
0000
0000
0000
0000
,
0000
0000
0000
0000
,
0000
0000
0000
0000
,
0000
0000
0000
0000
,
0000
0000
0000
0000
,
0000
0000
0000
0000
,
0000
0000
0000
0000
,
0000
0000
2000
3000
,
0000
0000
0000
0000
,
0000
0000
0000
0000
,
0000
0000
0000
0000
,
0000
0000
0000
0000
,
0000
0000
0000
0000
,
0000
0000
0000
0000
,
0000
0000
0000
0000
,
0000
0000
0000
0000
,
0000
0000
1000
0100
,
0010
0001
1000
0100
,
1000
0001
0101
0001
,
0100
0010
1000
0010
,
0100
0001
0110
0010
,
1000
0100
1000
0001
,
0100
0010
1001
1000
,
0100
0010
0001
0001
,
0001
0001
1000
0100
,
1000
0100
0010
0001
,
0010
0001
1000
0001
,
1000
0010
0100
0010
,
0100
0001
0010
0010
,
0000
0100
0000
0100
,
0000
0100
0010
0010
,
0000
0010
0000
0010
,
0000
0010
0001
0010
,
0001
0100
0001
0001
,
1000
0001
1000
1000
,
0010
0010
0100
0100
,
0001
1000
0100
0100
,
0000
1000
0000
0001
,
0000
0100
0010
0010
,
0000
1000
0000
0010
,
0110
1001
1000
1000
,
1000
1000
1000
0000
,
1001
1001
0001
0001
,
0001
0001
0001
0000
,
1001
1001
0010
0010
,
0010
0010
0010
0000
,
0110
1001
2002
0000
,
0000
3003
0220
0000
,
0330
0000
0001
0010
,
0001
0010
0000
0100
,
0100
0100
1000
0010
,
1000
0010
0000
0100
,
0100
0100
0001
0010
,
0001
0010
0000
0100
,
0100
0100
1000
0010
,
1000
0010
2002
0000
,
0000
3003
0002
1000
,
0000
1000
0000
1000
,
0000
1003
2000
0001
,
0000
0001
0000
0001
,
0000
3001
0022
0000
,
0033
0202
0000
0303
,
2002
0000
0000
0000
,
3003
0000
0000
0000
,
0000
0000
0200
0000
,
0000
0320
0000
0000
,
0230
0000
0000
0000
,
0300
0000
0000
0000
,
0000
0000
1000
1000
,
0100
0100
1000
0001
,
0100
0110
0010
0010
,
0100
0100
0001
0010
,
0001
0101
0100
0100
,
1000
1000
0100
0100
,
0001
1001
1000
0100
,
0010
0001
1000
0100
,
1000
0101
1000
0010
,
0100
0001
0100
0010
,
1000
0110
0001
1000
,
0100
1000
0001
0100
,
0010
1000
0010
0100
,
0000
0100
0000
0100
,
0000
0100
0000
0010
,
0000
0010
0000
0010
,
0000
0010
1001
0001
,
0000
0001
0000
0001
,
0000
0001
0000
1000
,
0000
1000
0000
1000
,
0000
1000
1000
0001
,
0100
0010
1000
0010
,
0100
0001
1000
0100
,
1000
0010
0200
0010
,
0010
0010
0310
0000
;

//---------------dance-double - Copied from----------------
#NOTES:
     dance-double:
     Copied from:
     Medium:
     7:
     0.382,0.458,0.208,0.128,0.000:
00000000
00000000
00000000
00000000
,
00000000
00000000
00000000
00000000
,
00000000
00000000
00000000
00000000
,
00000000
00000000
00000000
00000000
,
00000000
00000000
00000000
00000000
,
00000000
00000000
00000000
00000000
,
00000000
00000000
00000000
00000000
,
00000000
00000000
00000000
00000000
,
00000000
00000000
00000000
00000000
,
00000000
00000000
00000000
00000000
,
00000000
00000000
20000000
00000000
,
00000000
00000000
32000000
00000000
,
00000000
00000000
00000000
03000000
00000000
00000000
00010000
00000000
,
00001000
00000000
01000000
00000000
00100000
00000000
00000000
00100000
,
00000000
00100000
02000000
00000000
,
00000000
00000000
03200000
00000000
,
00300000
20020000
00000000
00000000
,
00000000
30030000
00000000
00000000
,
00000000
00000000
00022000
00000000
,
00000000
00000000
00033000
00000000
00000010
00000000
00000100
00000001
,
00000000
00000001
00000100
00000000
00001000
00000000
00010000
00000000
,
01000000
00000000
00100000
00000000
00001000
00000000
00010000
00001000
,
00000000
00001000
00010000
00000000
00000100
00000000
00000010
00000000
,
00000001
00000000
00001000
00000000
00000001
00000000
00000100
00001000
,
00000000
00001000
00010000
00000000
01000000
00000000
00100000
00000000
,
00010000
00000000
01000000
00000000
00001000
00000000
01000000
00100000
,
00000000
00100000
10000000
00000000
00010000
00000000
01000000
00000000
,
00010000
01000000
00100000
10000000
01000000
00000000
00010000
00000000
,
00001000
00010000
00000100
00000010
,
00000001
00001000
00000100
00000001
,
00000100
00001000
01000000
00100000
,
00010000
00000000
01000000
00000000
10000000
00000000
01000000
00010000
,
00000000
00010000
00100000
00000000
01000000
00000000
00100000
00000000
,
00010000
00000000
10000000
00000000
01000000
00000000
00010000
00001000
,
00000000
00001000
00000100
00000000
00000010
00000000
00001000
00000000
,
00000001
00001000
00000100
00010000
,
00001000
01000000
00001000
00010000
,
01000000
00100000
00010000
00100000
,
01000000
10000000
00100000
00010000
,
00001000
00000000
00000100
00000000
00000001
00000000
00000010
00000100
,
00000000
00000100
00001000
00000000
01000000
00000000
00100000
00000000
,
01000000
00000000
10000000
00000000
00010000
00000000
01000000
10000000
,
00000000
10000000
01000000
00000000
00010000
00000000
00001000
00000000
,
00010000
00001000
00010000
00000000
00011000
00000000
00000000
00010100
,
00000000
00101000
00000000
01010000
,
10010000
00000000
10100000
00000000
00110000
00000000
00000000
00011000
,
00000000
00010100
00000000
00000011
,
00000101
00000000
00001100
00000000
00011000
00000000
00000000
01001000
,
00000000
00010100
00000000
00011000
,
01001000
10010000
02100000
00000000
,
00000000
00000000
03200000
00000000
,
00000000
00000000
00300000
00000000
10000000
00000000
00000000
00100000
,
00000000
00010000
00000000
00001000
,
00001000
00000000
00001000
00000000
01000000
00000000
00000000
00100000
,
00000000
00000000
10000000
00000000
00100000
00010000
00000000
00010000
,
00001000
00000000
00000100
00000000
00000001
00000000
00000000
00000010
,
00000000
00000100
00000000
00010000
,
00001000
00000000
00010000
00000000
00001000
00000000
00000000
01000000
,
00000000
00100000
10000000
01000000
,
00010000
00000000
01000000
00000000
00100000
00010000
01000000
00000000
,
00001000
00000000
00010000
00000000
00000100
00000010
00000001
00000000
,
00000100
00000000
00001000
00000000
00100000
00010000
10000000
00000000
,
01000000
00000000
00100000
00000000
00010000
01000000
10000000
00000000
,
01000000
00010000
02000000
00000000
,
00000000
03002000
00000000
00000000
,
00003200
00000000
00000001
00000001
,
00000301
00000001
00000001
00000001
,
00000001
00000001
00000200
00000000
,
00000000
00002300
00000000
00000000
,
00023000
00000000
00000000
00000000
,
00000000
00000000
00000000
00000000
,
00000000
00000000
00000000
00000000
01030000
00000000
01000000
00010000
,
00000000
00010000
01000000
00000000
00100000
00000000
00010000
00000000
,
01000000
00000000
00001000
00000000
01000000
00000000
00001000
00010000
,
00000000
00010000
00001000
00000000
00000100
00000000
00000010
00000000
,
00001000
00000000
00000001
00000000
00000010
00000000
00000100
00001000
,
00000000
00001000
00000100
00000000
00010000
00000000
00001000
00000000
,
01000000
00000000
00100000
00000000
10000000
00000000
00010000
01000000
,
00000000
01000000
10000000
00000000
01000000
00000000
00010000
00000000
,
00100000
00000000
00001000
00000000
00010000
00000000
00001000
00010000
,
00000000
00010000
00001000
00000000
00000100
00000000
00000001
00000000
,
00000010
00000000
00000100
00000000
00001000
00000000
00000100
00000010
,
00000000
00000010
00000001
00000000
00000100
00000000
00001000
00000000
,
00010000
01000000
00100000
00100000
,
00010000
00010000
10000000
10000000
,
00100000
00100000
01000000
01000000
,
00010000
00010000
00100000
00100000
,
00001000
00001000
00000100
00000000
,
00000100
00000000
00000010
00000000
,
00000010
00000000
00001000
00000000
,
00001000
00000000
00000100
00000000
,
00000100
00000001
00000100
00010000
,
00000000
00010000
00000000
01000000
,
00000000
01000000
00000000
00110000
,
00010000
00101000
00001000
00010100
,
00000100
00011000
00011000
00000000
;

//---------------dance-double - Copied from----------------
#NOTES:
     dance-double:
     Copied from:
     Easy:
     6:
     0.350,0.420,0.280,0.216,0.000:
00000000
00000000
00000000
00000000
,
00000000
00000000
00000000
00000000
,
00000000
00000000
00000000
00000000
,
00000000
00000000
00000000
00000000
,
00000000
00000000
00000000
00000000
,
00000000
00000000
00000000
00000000
,
00000000
00000000
00000000
00000000
,
00000000
00000000
00000000
00000000
,
00000000
00000000
00000000
00000000
,
00000000
00000000
00000000
00000000
,
00000000
00000000
20000000
00000000
,
00000000
00000000
30020000
00000000
,
00000000
00000000
00030000
00000000
,
00000000
00000000
00000000
00000000
,
00000000
00000000
00200000
00000000
,
00000000
00300000
02000000
00000000
,
03000000
20020000
00000000
00000000
,
30030000
00000000
00000000
00000000
,
00000000
00000000
00000000
00000000
,
00000000
00000000
00001000
00010000
,
00000100
00000010
00000001
00000100
,
00001000
00010000
00011000
00010000
,
01000000
00100000
00010000
10000000
,
00100000
10000000
01010000
01000000
,
00010000
01000000
00001000
00010000
,
00000100
00000010
00001001
00000001
,
00000010
00000100
00001000
00001000
,
00001000
00000000
00001000
00000000
00000100
00001000
00000100
00010000
,
00000000
00001000
00000000
01000000
00000000
00000000
00000000
10100000
,
00000000
10010000
00000000
01010000
00000000
00000000
00000000
11000000
,
00000000
10010000
00000000
00110000
00000000
00010000
01000000
00010000
,
00000000
01000000
00000000
00000000
00001000
00000000
00010000
00000000
,
00000100
00000010
00000001
00000100
,
00001000
00010000
01000000
01000000
,
10000000
01000000
00100000
00010000
,
00100000
00000000
00001000
00000000
00010000
00001000
00010000
00000100
,
00000000
00000010
00000001
00001000
00000000
00000000
00000000
00001001
,
00000000
00001100
00000000
00001001
00000000
00000000
00000000
00000011
,
00000000
00001001
00000000
00001100
00000000
00000000
00000100
00000000
,
00001000
01000000
00100000
00100000
,
00010000
10000000
10000000
00010000
,
01000000
01000000
00010000
00100000
,
00001000
00010000
00001000
00010000
,
00011000
00011000
00000010
00000000
,
00000010
00000000
00000010
00000000
,
00001001
00001001
00001000
00000000
,
00001000
00000000
00001000
00000000
,
00001100
00001100
00010000
00000000
,
00010000
00000000
00010000
00000000
,
01100000
10010000
20020000
00000000
,
00000000
30030000
02200000
00000000
,
03300000
00000000
00010000
00100000
,
00001000
00020000
00000000
00030100
,
00000100
00000100
00000010
00000001
,
00000100
00000010
00002000
00000100
,
00000100
00003100
00010000
00001000
,
00010000
00002000
00000000
01000000
,
01000000
01003000
00100000
10000000
,
00010000
10000000
20020000
00000000
,
00000000
30030000
00020000
01000000
,
00000000
01000000
00000000
01000000
,
00000000
01030000
02000000
00001000
,
00000000
00001000
00000000
00001000
,
00000000
03001000
00022000
00000000
,
00033000
00202000
00000000
00303000
,
00220000
00000000
00000000
00330000
,
00000000
00000000
00000000
00000000
,
00000000
00000000
00002000
00000000
,
00000000
00023000
00000000
00000000
,
00032000
00000000
00000000
00003000
,
00000000
00000000
00000000
00000000
,
00000000
00000000
00000100
00000010
,
00001000
00000001
00000100
00001000
,
00010000
00011000
01000000
01000000
,
00100000
00100000
00010000
10000000
,
01000000
11000000
10000000
01000000
,
00010000
00001000
00010000
00000100
,
00000010
00000110
00000001
00000100
,
00000010
00001000
00000100
00010000
,
00001000
00011000
01000000
00100000
,
10000000
01000000
00100000
00100000
,
00010000
10010000
00010000
00100000
,
00001000
00010000
00001000
00000100
,
00000010
00001000
00000001
00000001
,
00000000
00000001
00000000
00000001
,
00000000
00000001
00000000
00001000
,
00000000
00001000
00000000
00001000
,
00000000
00001000
01000000
01000000
,
00000000
01000000
00000000
01000000
,
00000000
01000000
00000000
10000000
,
00000000
10000000
00000000
10000000
,
00000000
10000000
10000000
00010000
,
01000000
00001000
00010000
00001000
,
00000100
00000010
00001000
00000001
,
00001000
00000100
00020000
00001000
,
00001000
00001000
00031000
00000000
;

//---------------dance-single - Copied from ----------------
#NOTES:
     dance-single:
     Copied from:
     Beginner:
     2:
     0.143,0.229,0.008,0.000,0.000: // measure 1
0000
0000
0000
0000
,  // measure 2
0000
0000
0000
0000
,  // measure 3
0000
0000
0000
0000
,  // measure 4
0000
0000
0000
0000
,  // measure 5
0000
0000
0000
0000
,  // measure 6
0000
0000
0000
0000
,  // measure 7
0000
0000
0000
0000
,  // measure 8
0000
0000
0000
0000
,  // measure 9
0000
0000
0000
0000
,  // measure 10
0000
0000
0000
0000
,  // measure 11
0000
0000
0000
0000
,  // measure 12
0000
0000
0000
0000
,  // measure 13
0000
0000
0000
0000
,  // measure 14
0000
0000
0000
0000
,  // measure 15
0000
0000
0000
0000
,  // measure 16
0000
0000
0000
0000
,  // measure 17
0000
0000
0000
0000
,  // measure 18
0000
0000
0000
0000
,  // measure 19
0000
0000
0000
0000
,  // measure 20
0000
0000
1000
0100
,  // measure 21
1000
0000
0001
0000
,  // measure 22
0001
0000
0100
0001
,  // measure 23
0100
0000
0010
0000
,  // measure 24
0010
0000
1000
0001
,  // measure 25
1000
0000
0100
0000
,  // measure 26
0100
0000
0010
0001
,  // measure 27
0010
0000
0001
0000
,  // measure 28
0001
0000
0100
0000
,  // measure 29
0100
0000
0010
0000
,  // measure 30
0010
0000
1000
0000
,  // measure 31
1000
0000
0100
0000
,  // measure 32
0100
0000
0001
0000
,  // measure 33
0001
0000
0100
0000
,  // measure 34
0100
0000
1000
0000
,  // measure 35
1000
0000
0010
0000
,  // measure 36
0010
0000
0100
0000
,  // measure 37
0100
0000
0010
0000
,  // measure 38
0010
0000
0100
0000
,  // measure 39
0100
0000
0001
0000
,  // measure 40
0001
0000
0010
0000
,  // measure 41
1000
0000
0010
0000
,  // measure 42
0001
0000
0001
0000
,  // measure 43
0100
0000
0010
0000
,  // measure 44
1000
0000
0000
0000
,  // measure 45
0000
0000
0000
1000
,  // measure 46
1000
1000
0000
0000
,  // measure 47
0000
0000
0000
0001
,  // measure 48
0001
0001
0000
0000
,  // measure 49
0000
0000
0000
0100
,  // measure 50
0100
0100
0010
0000
,  // measure 51
0000
0000
0000
0000
,  // measure 52
0000
0000
0001
0000
,  // measure 53
0000
0001
0000
0000
,  // measure 54
0100
0000
0000
0100
,  // measure 55
0000
0000
0010
0000
,  // measure 56
0000
0010
0000
0000
,  // measure 57
1000
0000
0000
1000
,  // measure 58
0000
0000
0100
0000
,  // measure 59
0000
0100
0000
0000
,  // measure 60
0010
0000
0000
0010
,  // measure 61
0000
0000
0001
0000
,  // measure 62
0000
0001
0000
0000
,  // measure 63
0100
0000
0000
0100
,  // measure 64
0000
0000
0100
0000
,  // measure 65
0000
0100
0000
0000
,  // measure 66
0100
0000
0000
0000
,  // measure 67
0000
0000
0000
0000
,  // measure 68
0000
0001
0000
0000
,  // measure 69
0000
0001
0000
0000
,  // measure 70
0001
0000
0000
0000
,  // measure 71
0000
0000
0000
0000
,  // measure 72
0000
0000
1000
0000
,  // measure 73
1000
0000
0100
0000
,  // measure 74
0100
0000
0001
0000
,  // measure 75
0001
0000
0100
0000
,  // measure 76
0100
0000
1000
0000
,  // measure 77
1000
0000
0010
0000
,  // measure 78
0010
0000
0100
0000
,  // measure 79
0100
0000
0001
0000
,  // measure 80
0001
0000
1000
0000
,  // measure 81
0000
0000
0000
0000
,  // measure 82
0100
0100
0000
0000
,  // measure 83
0000
0000
0000
0000
,  // measure 84
1000
1000
0000
0000
,  // measure 85
0000
0000
0000
0000
,  // measure 86
0001
0001
0000
0000
,  // measure 87
0000
0000
0000
0000
,  // measure 88
0000
0000
0100
0000
,  // measure 89
0100
0000
0010
0000
,  // measure 90
0010
0000
1000
0000
,  // measure 91
1000
0000
0001
0000
,  // measure 92
0001
0000
0100
0000
,  // measure 93
0100
0000
0010
0000
,  // measure 94
0010
0000
1000
0000
,  // measure 95
0100
0000
0001
0000
,  // measure 96
0100
0000
1001
0000
;
