#TITLE:45 Rotations;
#SUBTITLE:;
#ARTIST:Sampling masters AYA;
#TITLETRANSLIT:;
#SUBTITLETRANSLIT:;
#ARTISTTRANSLIT:;
#CREDIT:;
#BANNER:45 Rotations-Bn.png;
#BACKGROUND:45 Rotations-BG.png;
#LYRICSPATH:;
#CDTITLE:;
#MUSIC:[Round 2] 45 Rotations.mp3;
#OFFSET:0.602;
#SAMPLESTART:23.520;
#SAMPLELENGTH:15.000;
#SELECTABLE:YES;
#BPMS:0.000=165.000;
#STOPS:;
#BGCHANGES:;

//---------------dance-single - Copied from Blank----------------
#NOTES:
     dance-single:
     Copied from Blank:
     Hard:
     9:
     0.680,0.671,0.455,0.054,0.143: // measure 1
0000
0000
0000
0000
,  // measure 2
0000
0000
0000
0000
,  // measure 3
0000
0000
0000
0000
,  // measure 4
0000
0000
0000
0000
,  // measure 5
0000
0000
0000
0000
1000
1000
0100
0010
,  // measure 6
0001
1000
0000
1000
0001
0001
0100
0010
,  // measure 7
1000
0000
0001
0000
1000
0000
0100
0000
0010
0000
0000
0001
0100
0000
0010
0000
,  // measure 8
0000
0010
0100
0010
0100
0100
0010
0000
,  // measure 9
1001
0000
0000
0010
0100
0000
0010
0000
1000
0000
0010
0000
0100
0000
0001
0000
,  // measure 10
0010
0001
0000
0010
0001
1000
0100
0010
,  // measure 11
0100
0000
1000
0000
0001
0000
0100
0000
0010
0000
0000
0010
1000
0000
0100
0000
,  // measure 12
0000
1000
0001
0100
1100
0000
0101
0000
,  // measure 13
0011
0000
1010
0000
0010
1000
0100
0001
,  // measure 14
0100
1000
0000
0001
0100
0010
0100
0001
,  // measure 15
0100
0000
0010
0000
1000
0000
0001
0000
1000
0000
0000
0100
1000
0000
0001
0000
,  // measure 16
0000
0001
0100
1000
0100
0001
1000
0000
,  // measure 17
2002
0000
3003
0000
0001
0010
1000
0010
,  // measure 18
0100
1000
0100
1000
0010
0100
0001
1000
,  // measure 19
0001
0100
0010
0100
0001
0010
0100
1000
,  // measure 20
0001
1000
0010
0001
0010
1000
0100
0010
,  // measure 21
0100
1000
0001
0010
0001
0100
0010
1000
,  // measure 22
0001
0010
0001
0100
0001
0010
0100
0010
,  // measure 23
1000
0010
0001
0010
0100
1000
0001
1000
,  // measure 24
0001
0100
0010
1000
0001
0010
0100
1000
,  // measure 25
0100
0001
0100
1000
0000
0001
0000
0101
,  // measure 26
0000
0001
0000
0101
0000
0001
0000
0101
,  // measure 27
0000
0001
0000
0101
0000
0010
0000
0011
,  // measure 28
0000
0010
0000
0011
0000
0010
0000
0011
,  // measure 29
0000
0010
0000
0011
0000
1000
0000
1010
,  // measure 30
0000
1000
0000
1010
0000
1000
0000
1010
,  // measure 31
0000
1000
0000
1010
0000
0100
0000
1100
,  // measure 32
0000
0100
0000
1100
0000
0100
0000
1100
,  // measure 33
0000
0000
0100
0000
0000
0000
1100
0000
1000
0000
0001
1000
0001
0000
0100
0000
,  // measure 34
0010
1000
0010
0100
0001
0000
1010
0000
,  // measure 35
1001
0000
0000
0000
1001
0000
0000
0000
0001
0000
1000
0001
1000
0000
0100
0000
,  // measure 36
0010
0001
1000
0001
1000
0000
0110
0000
,  // measure 37
0101
0000
0101
0000
1000
0100
0001
0100
,  // measure 38
1000
0000
0010
0000
1000
0000
0001
0000
0100
0000
0000
0001
0100
0000
0010
0000
,  // measure 39
1000
0010
1000
0000
0010
0000
1000
0000
0000
0000
1000
0100
1000
0000
0001
0000
,  // measure 40
0100
0010
1000
0100
1000
0010
1000
0010
,  // measure 41
0100
0010
0100
0010
0100
0000
0000
0000
0001
0000
0010
0000
0001
0000
1000
0000
,  // measure 42
0010
0000
0100
0000
0001
0000
1000
0000
0001
0000
0000
0001
1000
0000
0100
0000
,  // measure 43
1000
0010
1000
0000
0010
0000
1000
0000
0001
0000
0001
0000
0010
0000
0010
0000
,  // measure 44
0100
0000
0010
0000
0001
0000
1000
0000
0100
0000
1000
0000
0001
0100
0001
0100
,  // measure 45
0001
0000
1000
0100
1000
0000
0000
0000
1000
0000
0010
0000
0001
0000
0010
0000
,  // measure 46
1000
0000
0100
0000
0010
0000
0001
0000
1000
0000
0000
0001
1000
0000
0100
0000
,  // measure 47
0010
0001
0010
0000
0100
0000
0010
0000
0000
0000
0001
1000
0001
0000
0100
0000
,  // measure 48
0001
0100
0010
1000
0100
0010
0001
1000
,  // measure 49
0001
0010
0001
0010
0001
0000
0000
0000
0001
0000
0100
0000
1000
0000
0100
0000
,  // measure 50
0010
0000
1000
0000
0001
0000
0100
0000
0010
0000
0000
1000
0100
0000
0010
0000
,  // measure 51
0001
0010
0001
0000
0010
0000
1000
0000
0010
0000
0010
0000
0100
0000
0100
0000
,  // measure 52
0010
0000
0001
0000
1000
0000
1000
0000
0100
0000
1000
0000
0001
0100
0001
0100
,  // measure 53
0001
0000
1000
0001
1000
0000
0000
0000
1000
0000
0001
0100
0001
0000
0010
0000
,  // measure 54
1000
0000
0100
0000
0010
0000
0001
0000
1000
0000
0100
1000
0100
0000
1000
0000
,  // measure 55
0001
0100
0010
1000
0010
0010
1000
1000
,  // measure 56
0100
0100
0001
0001
0100
0100
1000
0010
,  // measure 57
0100
0010
0100
0000
0010
0000
1000
0000
0000
0000
1000
0000
0000
0000
1100
0000
,  // measure 58
0000
1000
0000
1100
0000
1000
0000
1100
,  // measure 59
0000
1000
0000
1100
0000
1000
0000
1010
,  // measure 60
0000
1000
0000
1010
0000
1000
0000
1010
,  // measure 61
0000
1000
0000
1010
0000
0001
0000
0011
,  // measure 62
0000
0001
0000
0011
0000
0001
0000
0011
,  // measure 63
0000
0001
0000
0011
0000
0001
0000
0101
,  // measure 64
0000
0001
0000
0101
0000
0001
0000
0101
,  // measure 65
0000
0001
0000
0101
0001
0000
1001
0000
,  // measure 66
1000
0100
1000
0000
0001
0100
0010
1000
,  // measure 67
0010
1000
0100
1000
0020
0000
0000
0000
,  // measure 68
0200
0000
0000
0030
0301
0001
1000
0100
,  // measure 69
0010
0001
0000
0010
0010
0100
1000
0100
,  // measure 70
1000
0000
0010
0000
0100
0000
0001
0000
1000
0000
0000
0001
0100
0000
0010
0000
,  // measure 71
0000
0010
1000
0010
0110
0000
1010
0000
,  // measure 72
0101
0000
0000
0000
0110
0000
0000
0000
0010
0000
1000
0100
1000
0000
0001
0000
,  // measure 73
0100
0000
0001
0000
0010
0000
0100
0000
1000
0000
0001
0100
0001
0000
0100
0000
,  // measure 74
0010
0100
1000
0100
0010
0010
1000
1000
,  // measure 75
0100
0100
0010
0010
2002
0000
0000
0000
,  // measure 76
3003
1001
0000
0000
;

//---------------dance-single - ----------------
#NOTES:
     dance-single:
     :
     Medium:
     6:
     0.484,0.570,0.517,0.089,0.000:
0000
0000
0000
0000
,
0000
0000
0000
0000
,
0000
0000
0000
0000
,
0000
0000
0000
0000
,
0000
0000
1000
1000
,
1000
0011
1100
0001
,
0001
0000
0001
0001
0101
0000
0010
0000
,
1010
0000
1000
0000
1000
1000
1001
0000
,
0220
0330
1000
0100
,
0010
0001
0010
0000
0001
0000
0100
0000
,
0010
1000
0010
0000
1000
0100
0001
0000
,
0001
0100
1000
0000
1100
0000
0101
0000
,
1100
0101
0001
0010
,
0100
1000
0100
0000
1000
0000
0100
0000
,
0010
0001
0010
0000
0001
0100
1000
0000
,
1000
0100
0001
0000
0011
0000
1100
0000
,
2020
3030
1000
1000
,
0001
0000
0001
0000
1000
0001
1000
0000
,
0001
1000
0001
0000
0001
0000
0001
0000
,
0100
0000
0100
0000
0010
0100
0010
0000
,
0100
0010
0100
0000
0010
0000
1000
0000
,
0100
0000
1000
0000
0100
1000
0100
0000
,
0001
0100
0001
0000
0100
0000
1000
0000
,
0010
0100
0001
1000
,
0100
0000
1001
0000
0000
0001
0000
0100
,
0000
1000
0000
0010
0000
0001
0000
0100
,
0000
1000
0000
0010
0000
0001
0000
0100
,
0000
1000
0000
0010
0000
0001
0000
0100
,
0000
1000
0000
0010
0000
1000
0000
0100
,
0000
0001
0000
0010
0000
1000
0000
0100
,
0000
0001
0000
0010
0000
1000
0000
0100
,
0000
0001
0000
0010
0000
1000
0000
0100
,
0000
0001
0000
0010
0100
0000
0110
0000
,
1001
0000
0110
0100
0100
0000
0002
0000
,
1003
1001
1000
1010
,
1000
0000
0010
0100
0010
0000
1000
0000
,
1001
0000
1001
0000
0001
0010
0001
0010
,
0001
0000
0101
0000
0001
0000
0001
0100
,
1000
0100
0001
0010
0000
0100
1000
0000
,
0010
0100
0001
1000
,
0001
0001
1001
0000
1000
0100
0010
0001
,
1000
0000
1001
0000
0001
0000
0001
0100
,
0010
1000
0100
0010
0100
0000
1100
0000
,
0101
0000
1100
0000
1001
0000
0001
0001
,
0002
1003
1000
1001
,
0001
0011
1000
0101
,
0100
0100
0110
0000
1000
0000
1100
0000
,
0001
0101
0001
0011
,
1000
1000
1100
0000
1000
0000
1010
0000
,
0010
0110
0001
0101
,
0001
0001
1001
0000
1000
0000
0100
0000
,
0010
0000
0001
0000
1000
0100
0010
0001
,
1000
1100
0002
0000
,
0100
0100
0103
0000
2000
0000
0000
0000
,
0100
0100
3100
0000
1100
0000
0101
0000
,
1100
0101
1001
0110
,
1001
0000
0110
0000
0000
0010
0000
1000
,
0000
0100
0000
0001
0000
0010
0000
1000
,
0000
0100
0000
0001
0000
0010
0000
1000
,
0000
0100
0000
0001
0000
0010
0000
1000
,
0000
0100
0000
0001
0000
0100
0000
1000
,
0000
0010
0000
0001
0000
0100
0000
1000
,
0000
0010
0000
0001
0000
0100
0000
1000
,
0000
0010
0000
0100
0000
0010
0000
1000
,
0000
0100
0000
0010
0001
0000
1001
0000
,
0100
1000
0100
0000
0010
0000
0001
0000
,
0100
1000
0010
0100
,
0010
0100
0110
0000
,
0000
0001
1001
0000
,
0000
0000
0001
0010
0011
0000
0000
0000
,
1000
0100
0011
1100
,
0101
1010
0020
0000
,
0100
0100
0100
0030
0200
0000
0000
0000
,
0010
0010
0310
0000
0010
0000
1000
0000
,
0100
0010
0001
0000
,
0000
1001
0000
0000
;

//---------------dance-single - ----------------
#NOTES:
     dance-single:
     :
     Easy:
     4:
     0.357,0.403,0.268,0.169,0.000:
0000
0000
0000
0000
,
0000
0000
0000
0000
,
0000
0000
0000
0000
,
0000
0000
0000
0000
,
0000
0000
1001
0000
,
0000
0010
0011
0000
,
0000
1000
1100
0000
,
0000
0000
1001
0002
,
2000
3003
1000
0100
,
0001
0000
0001
0100
,
1000
0010
0200
0000
,
0310
1000
0100
0100
,
0100
0100
1000
0010
,
0001
0000
0001
0010
,
1000
0100
0020
0000
,
0031
0100
0010
1000
,
1001
0000
1000
0100
,
0001
0100
1000
0010
,
0100
0001
0010
1000
,
0010
0001
0100
0010
,
1000
0100
0010
0100
,
0010
0001
0010
0100
,
1000
0010
0100
0001
,
0100
0010
1000
0100
,
0001
0000
0100
0000
0000
1000
0000
1000
,
0000
1000
0000
1000
0000
1000
0000
1000
,
0000
1000
0000
1000
0000
1000
0000
1000
,
0000
1000
0000
1000
0000
1000
0000
1000
,
0000
1000
0000
1000
0000
0001
0000
0001
,
0000
0001
0000
0001
0000
0001
0000
0001
,
0000
0001
0000
0001
0000
0001
0000
0001
,
0000
0001
0000
0001
0000
0001
0000
0001
,
0000
0001
0000
0001
0200
0000
0000
0000
,
0010
0310
1010
1001
,
0000
0000
2000
0000
,
0100
3100
1100
0101
,
0000
0000
1000
1000
,
1000
1000
0001
0010
,
0100
0010
0000
0001
,
0100
1000
0100
0001
,
0011
1100
1000
1000
,
1000
1000
0010
0100
,
0010
1000
0100
0100
,
0001
0001
0100
1000
,
0001
1001
1000
0001
,
0000
0001
0000
0001
,
0000
1001
0000
1000
,
0000
1000
0000
1000
,
0000
1010
0000
0010
,
0000
0010
0000
0010
,
0000
0010
1000
0100
,
0001
0100
1000
0010
,
0100
0110
2002
0000
,
0000
3003
0220
0000
,
0000
0330
0001
0011
,
1000
1100
1001
0110
,
1001
0000
0110
0000
0000
1000
0000
0001
,
0000
1000
0000
0001
0000
1000
0000
0001
,
0000
1000
0000
0001
0000
0010
0000
0100
,
0000
0010
0000
0100
0000
0010
0000
0100
,
0000
0010
0000
0100
0000
1000
0000
0100
,
0000
1000
0000
0100
0000
1000
0000
0100
,
0000
1000
0000
0100
0000
0001
0000
0100
,
0000
0001
0000
0100
0000
0001
0000
0100
,
0000
0001
0000
0100
0010
0000
0001
0000
,
1000
0001
0100
0010
,
1000
0010
0220
0000
,
0000
0000
0000
0330
0001
0000
1000
0000
,
0100
0000
0100
0010
,
0001
0000
0002
0000
,
0000
0000
0000
0003
1000
0000
1000
0000
,
1000
1000
2200
0000
,
0000
3300
0202
0000
,
0000
0303
0001
0101
,
1000
1100
2002
0000
,
3003
1001
0000
0000
;

//---------------dance-double - Copied from----------------
#NOTES:
     dance-double:
     Copied from:
     Hard:
     4:
     0.357,0.403,0.268,0.169,0.000:
00000000
00000000
00000000
00000000
,
00000000
00000000
00000000
00000000
,
00000000
00000000
00000000
00000000
,
00000000
00000000
00000000
00000000
,
00000000
00000000
10010000
00000000
,
00000000
00100000
00110000
00000000
,
00000000
10000000
11000000
00000000
,
00000000
00000000
10010000
00020000
,
20000000
30030000
10000000
01000000
,
00010000
00000000
00010000
01000000
,
10000000
00100000
02000000
00000000
,
03100000
10000000
01000000
01000000
,
01000000
01000000
10000000
00100000
,
00010000
00000000
00010000
00100000
,
10000000
01000000
00200000
00000000
,
00310000
01000000
00100000
10000000
,
10010000
00000000
10000000
01000000
,
00010000
01000000
10000000
00100000
,
01000000
00010000
00100000
10000000
,
00100000
00010000
01000000
00100000
,
10000000
01000000
00100000
01000000
,
00100000
00010000
00100000
01000000
,
10000000
00100000
01000000
00010000
,
01000000
00100000
10000000
01000000
,
00010000
00000000
01000000
00000000
00000000
10000000
00000000
10000000
,
00000000
10000000
00000000
10000000
00000000
10000000
00000000
10000000
,
00000000
10000000
00000000
10000000
00000000
10000000
00000000
10000000
,
00000000
10000000
00000000
10000000
00000000
10000000
00000000
10000000
,
00000000
10000000
00000000
10000000
00000000
00010000
00000000
00010000
,
00000000
00010000
00000000
00010000
00000000
00010000
00000000
00010000
,
00000000
00010000
00000000
00010000
00000000
00010000
00000000
00010000
,
00000000
00010000
00000000
00010000
00000000
00010000
00000000
00010000
,
00000000
00010000
00000000
00010000
02000000
00000000
00000000
00000000
,
00100000
03100000
10100000
10010000
,
00000000
00000000
20000000
00000000
,
01000000
31000000
11000000
01010000
,
00000000
00000000
10000000
10000000
,
10000000
10000000
00010000
00100000
,
01000000
00100000
00000000
00010000
,
01000000
10000000
01000000
00010000
,
00110000
11000000
10000000
10000000
,
10000000
10000000
00100000
01000000
,
00100000
10000000
01000000
01000000
,
00010000
00010000
01000000
10000000
,
00010000
10010000
10000000
00010000
,
00000000
00010000
00000000
00010000
,
00000000
10010000
00000000
10000000
,
00000000
10000000
00000000
10000000
,
00000000
10100000
00000000
00100000
,
00000000
00100000
00000000
00100000
,
00000000
00100000
10000000
01000000
,
00010000
01000000
10000000
00100000
,
01000000
01100000
20020000
00000000
,
00000000
30030000
02200000
00000000
,
00000000
03300000
00010000
00110000
,
10000000
11000000
10010000
01100000
,
10010000
00000000
01100000
00000000
00000000
10000000
00000000
00010000
,
00000000
10000000
00000000
00010000
00000000
10000000
00000000
00010000
,
00000000
10000000
00000000
00010000
00000000
00100000
00000000
01000000
,
00000000
00100000
00000000
01000000
00000000
00100000
00000000
01000000
,
00000000
00100000
00000000
01000000
00000000
10000000
00000000
01000000
,
00000000
10000000
00000000
01000000
00000000
10000000
00000000
01000000
,
00000000
10000000
00000000
01000000
00000000
00010000
00000000
01000000
,
00000000
00010000
00000000
01000000
00000000
00010000
00000000
01000000
,
00000000
00010000
00000000
01000000
00100000
00000000
00010000
00000000
,
10000000
00010000
01000000
00100000
,
10000000
00100000
02200000
00000000
,
00000000
00000000
00000000
03300000
00010000
00000000
10000000
00000000
,
01000000
00000000
01000000
00100000
,
00010000
00000000
00020000
00000000
,
00000000
00000000
00000000
00030000
10000000
00000000
10000000
00000000
,
10000000
10000000
22000000
00000000
,
00000000
33000000
02020000
00000000
,
00000000
03030000
00010000
01010000
,
10000000
11000000
20020000
00000000
,
30030000
10010000
00000000
00000000
;

//---------------dance-single - Copied from----------------
#NOTES:
     dance-single:
     Copied from:
     Beginner:
     2:
     0.206,0.235,0.000,0.080,0.000:
0000
0000
0000
0000
,
0000
0000
0000
0000
,
0000
0000
0000
0000
,
0000
0000
0000
0000
,
0000
0000
1000
0000
,
0000
0001
0001
0000
,
0000
0100
0100
0000
,
0010
0000
1000
0001
,
1000
0000
0100
0100
,
0100
0000
0010
0010
,
0010
0000
0002
0000
,
0003
0000
0100
0100
,
0100
0100
0010
0000
,
0000
0000
0010
0000
,
0000
0000
1000
0000
,
0000
0000
0001
1000
,
0001
0000
0001
0001
,
0001
0000
1000
1000
,
1000
0000
0100
0100
,
0100
0000
0010
0010
,
0010
0000
0001
0001
,
0001
0000
0100
0100
,
0100
0000
0010
0010
,
0010
0000
1000
1000
,
1000
0000
0000
0001
,
0000
0100
0000
1000
,
0000
0100
0000
0001
,
0000
0100
0000
1000
,
0000
0100
0000
0001
,
0000
0010
0000
1000
,
0000
0010
0000
0001
,
0000
0010
0000
1000
,
0000
0010
0002
0000
,
0000
0000
1000
1003
,
0000
0000
2000
0000
,
0000
0000
0001
3001
,
0000
0000
0100
0100
,
0100
0000
0010
0010
,
0010
0000
1000
0000
,
0001
0000
1000
0000
,
0100
0000
0010
0010
,
0010
0000
0001
0001
,
0001
0000
0100
0000
,
0010
0000
1000
0000
,
0100
1000
0000
0010
,
0000
0010
0000
0010
,
0000
0010
0000
0100
,
0000
0100
0000
0100
,
0001
1000
0000
0100
,
0000
1000
0000
0001
,
0000
0010
0000
0001
,
0000
0100
0000
0010
,
1000
0001
2000
0000
,
0000
0000
3002
0000
,
0000
0000
0103
0000
,
0100
0000
0010
0000
,
0010
0000
1000
0000
,
0100
0000
0001
0000
,
0100
0000
1000
0000
,
0010
0000
0001
0000
,
0010
0000
1000
0000
,
0100
0000
1000
0000
,
0001
0000
0100
0000
,
0001
0000
0100
0000
,
0010
0000
1000
1000
,
0001
0000
0001
0001
,
1000
0000
0200
0000
,
0000
0000
0310
0010
,
0000
0000
0001
0000
,
0000
0100
0010
0000
,
0000
0000
0010
0010
,
0010
0000
0200
0000
,
0000
0000
0302
0000
,
0000
0000
1003
0000
,
0001
0000
2000
0000
,
0000
3000
0000
0000
;
