#TITLE:2 Become 1;
#SUBTITLE:;
#ARTIST:Spice Girls;
#TITLETRANSLIT:;
#SUBTITLETRANSLIT:;
#ARTISTTRANSLIT:;
#CREDIT:;
#BANNER:2 Become 1-BN.png;
#BACKGROUND:2 BECOME 1-bg.png;
#LYRICSPATH:;
#CDTITLE:;
#MUSIC:Spice_Girls_-_2_Become_1.mp3;
#OFFSET:0.383;
#SAMPLESTART:55.040;
#SAMPLELENGTH:12.000;
#SELECTABLE:YES;
#BPMS:0.000=72.000;
#STOPS:;
#BGCHANGES:0.000=2 Become 1.avi=1.000=1=1=0,
99999=-nosongbg-=1.000=0=0=0 // don't automatically add -songbackground-
;

//---------------dance-single - Copied from Copied f----------------
#NOTES:
     dance-single:
     Copied from Copied f:
     Hard:
     6:
     0.293,0.341,0.194,0.122,0.102: // measure 1
0000
0000
0000
0000
,  // measure 2
0000
0000
0000
0000
,  // measure 3
0000
0000
0000
0000
,  // measure 4
0000
0000
0000
0000
,  // measure 5
0000
0000
0000
0000
0000
0000
0001
0010
,  // measure 6
0001
1000
0010
0100
0001
0000
1000
0010
,  // measure 7
0001
0010
1000
0100
0010
0000
0001
0010
,  // measure 8
0100
2000
0000
3001
1000
0000
1000
0100
,  // measure 9
0010
0002
0000
1003
0100
0000
1000
0010
,  // measure 10
0100
0001
1000
0001
0010
0000
0001
1000
,  // measure 11
0100
0001
0100
1000
0010
0000
1000
0010
,  // measure 12
0100
0002
0000
1003
0001
0000
0001
0100
,  // measure 13
0010
2000
0000
3100
0010
0001
1001
1000
,  // measure 14
0100
0000
0001
0000
0100
0000
1000
0000
1100
0000
2002
0000
3003
0000
1000
0100
,  // measure 15
1000
0000
0000
0000
0001
0100
0001
0000
1001
0000
0000
0000
0001
0000
0010
0000
,  // measure 16
0100
0010
0001
0100
0010
0000
1000
0001
,  // measure 17
1001
0220
0000
0000
0330
0000
0001
1000
,  // measure 18
1010
0000
0010
0100
0001
0010
0001
1000
0001
0000
1000
0200
0000
0000
0310
0001
,  // measure 19
0010
0000
0001
0000
0010
0000
0100
0000
1010
0000
1001
0000
0100
1000
0010
1000
,  // measure 20
0002
0000
0000
0000
0003
0000
0001
0100
0001
0000
1000
0000
1001
0000
0001
1000
,  // measure 21
0001
1000
0100
0010
0011
1001
0001
0100
,  // measure 22
0101
0000
0001
0010
0001
0100
0010
1000
0100
0000
1000
0002
0000
0000
0103
0010
,  // measure 23
0100
0000
0010
0000
1000
0000
0001
0000
0101
0000
1010
0000
1000
0001
0010
0001
,  // measure 24
0200
0000
0000
0000
0300
0000
0010
1000
0010
0000
0100
0000
0110
0000
0001
1000
,  // measure 25
0100
1000
0010
1000
0101
1001
0001
0100
,  // measure 26
1000
0100
0010
1000
0001
0000
1000
0010
,  // measure 27
0001
0010
0100
0001
0100
0000
1001
0000
;

//---------------dance-single - ----------------
#NOTES:
     dance-single:
     :
     Medium:
     4:
     0.179,0.164,0.051,0.092,0.000:
0000
0000
0000
0000
,
0000
0000
0000
0000
,
0000
0000
0000
0000
,
0000
0000
0000
0000
,
0000
0000
0000
1000
,
0010
0000
1000
0100
0010
0000
0001
0000
,
0100
0000
0001
0010
0100
0000
1000
0000
,
0001
2000
3001
0010
,
0001
0200
0310
1000
,
0100
0000
1000
0001
0010
0000
0001
0000
,
0100
0000
1000
0100
0001
0000
0001
0000
,
0010
0200
0310
0001
,
1000
0020
0130
0001
,
0010
0000
1000
0000
0010
0010
0001
0000
,
0100
0000
0001
0001
1000
0000
0001
0000
,
0010
0000
0001
0000
0100
0000
0010
1000
,
0001
2000
0000
0000
3000
0000
0001
0010
,
0001
0100
0010
1000
0100
1000
0002
0000
,
0000
0000
1003
0000
1001
0000
1000
0010
,
1000
0100
0010
0001
1000
0001
2000
0000
,
0000
0000
3010
0000
1010
0000
1000
0100
,
0001
0100
0010
0001
1000
0001
2000
0000
,
0000
0000
3100
0000
1100
0000
0001
0010
,
1000
0010
0001
0100
0010
1000
0002
0000
,
0000
0000
0013
0000
0011
0000
0010
0100
,
0010
0000
0001
0000
1000
0000
0100
1000
,
0100
0010
0001
1001
;

//---------------dance-single - ----------------
#NOTES:
     dance-single:
     :
     Easy:
     1:
     0.103,0.109,0.010,0.010,0.000:
0000
0000
0000
0000
,
0000
0000
0000
0000
,
0000
0000
0000
0000
,
0000
0000
0000
0000
,
0001
0000
0000
1000
,
1000
0000
1000
0001
,
0001
0000
0001
0100
,
0100
0000
0100
0010
,
0010
0000
0010
1000
,
0100
0000
0100
0010
,
0001
0000
0001
1000
,
0001
1000
1000
0001
,
1000
1000
0001
0100
,
0001
0100
0001
0000
,
1000
0000
0001
0000
,
1000
0000
0100
0000
,
1000
0000
0100
0010
,
0010
0020
0010
0000
,
0010
0000
0010
0001
,
0001
0001
0001
0001
,
0001
0000
0001
0100
,
0100
0100
0100
0100
,
0100
0000
0100
0010
,
0010
0010
0010
0010
,
0010
0000
0010
1000
,
0100
0000
0100
0000
,
0010
0000
0010
1001
;

//---------------dance-single - Copied from----------------
#NOTES:
     dance-single:
     Copied from:
     Beginner:
     1:
     0.063,0.082,0.010,0.000,0.000:
0000
0000
0000
0000
,
0000
0000
0000
0000
,
0000
0000
0000
0000
,
0000
0000
0000
0000
,
0000
0000
0000
1000
,
0000
0000
0000
0001
,
0000
0000
0000
1000
,
0000
0000
0000
0001
,
0000
0000
0000
0100
,
0000
0000
0000
0010
,
0000
0000
0000
0100
,
0000
0000
0000
0010
,
0000
0000
0000
1000
,
0000
0100
0100
0000
,
0010
0000
0001
0000
,
0100
0000
0100
0000
,
0001
0000
1000
0000
,
0100
0000
0100
0000
,
0010
0010
0010
0000
,
0001
0000
1000
0000
,
0100
0100
0100
0010
,
0000
0010
0000
0001
,
0000
0100
0100
0000
,
0010
0000
0000
1000
,
0000
0001
0001
0100
,
0000
0000
0100
0001
,
1000
0000
0001
1001
;
