#TITLE:zone;
#SUBTITLE:;
#ARTIST:やっす~;
#TITLETRANSLIT:;
#SUBTITLETRANSLIT:;
#ARTISTTRANSLIT:;
#CREDIT:;
#BANNER:banner.png;
#BACKGROUND:bgblack.PNG;
#LYRICSPATH:;
#CDTITLE:;
#MUSIC:zone.mp3;
#OFFSET:-13.180;
#SAMPLESTART:26.250;
#SAMPLELENGTH:12.000;
#SELECTABLE:YES;
#BPMS:0.000=145.000;
#STOPS:;
#BGCHANGES:;

//---------------dance-single - ----------------
#NOTES:
     dance-single:
     :
     Beginner:
     1:
     0.082,0.113,0.011,0.000,0.000:
1000
0000
1000
0000
,
1000
0000
0000
0000
,
0010
0000
0000
0000
,
0010
0000
0000
0000
,
0100
0000
0100
0000
,
0100
0000
0000
0000
,
0001
0000
0000
0000
,
0000
0000
0000
0000
,
0010
0000
0001
0000
,
0010
0000
0000
0000
,
0100
0000
1000
0000
,
0100
0000
0000
0000
,
0010
0000
0001
0000
,
0100
0000
0000
0000
,
0010
0000
1000
0000
,
0100
0000
0000
0000
,
1000
0000
0000
0000
,
0001
0000
0000
0000
,
1000
0000
0000
0000
,
0001
0000
0000
0000
,
0100
0000
0000
0000
,
0010
0000
0000
0000
,
0100
0000
0000
0000
,
0010
0000
0000
0000
,
1000
0000
0000
0000
,
0010
0000
0000
0000
,
0100
0000
0000
0000
,
0001
0000
0000
0000
,
0010
0000
0000
0000
,
0001
0000
0000
0000
,
0100
0000
0000
0000
,
1000
0000
0000
0000
,
0010
0000
0010
0000
,
0010
0000
0000
0000
,
0100
0000
0100
0000
,
0100
0000
0000
0000
,
0001
0000
0001
0000
,
0001
0000
0000
0000
,
1000
0000
1000
0000
,
1000
0000
0000
0000
,
1001
0000
0000
0000
;

//---------------dance-single - ----------------
#NOTES:
     dance-single:
     :
     Easy:
     3:
     0.190,0.271,0.068,0.011,0.000: // measure 1
1000
0000
1000
0000
,  // measure 2
0100
0000
0100
0000
,  // measure 3
0001
0000
0001
0000
,  // measure 4
0010
0000
0010
0000
,  // measure 5
0001
0000
0100
0000
,  // measure 6
0010
0000
1000
0000
,  // measure 7
0002
0000
0000
0000
,  // measure 8
0000
0000
0003
0000
,  // measure 9
0001
0000
0100
0000
,  // measure 10
0010
1000
0100
0001
,  // measure 11
0100
0000
0010
0000
,  // measure 12
1000
0010
0001
0100
,  // measure 13
1000
0000
0100
0000
,  // measure 14
0001
0010
0001
0100
,  // measure 15
0010
0000
1000
0000
,  // measure 16
0100
1000
0010
0100
,  // measure 17
0001
0100
0001
0000
,  // measure 18
0100
0100
0100
0000
,  // measure 19
0010
1000
0010
0000
,  // measure 20
0010
0010
0010
0000
,  // measure 21
1000
0001
1000
0000
,  // measure 22
1000
1000
1000
0000
,  // measure 23
0001
1000
0001
0000
,  // measure 24
0001
0001
0001
0000
,  // measure 25
0100
0010
1000
0000
,  // measure 26
1000
0010
0100
0000
,  // measure 27
0001
0100
0010
0000
,  // measure 28
0010
0100
0001
0000
,  // measure 29
0001
0010
1000
0000
,  // measure 30
1000
0010
0001
0000
,  // measure 31
0001
0100
1000
0000
,  // measure 32
1000
0100
0001
0000
,  // measure 33
1000
1000
0100
0100
,  // measure 34
0010
0010
0001
0000
,  // measure 35
0001
0001
0010
0010
,  // measure 36
0100
0100
1000
0000
,  // measure 37
0001
0100
1000
0000
,  // measure 38
1000
0010
0001
0000
,  // measure 39
1001
0000
0110
0000
,  // measure 40
1001
1001
1001
0000
,  // measure 41
1001
0000
0000
0000
;

//---------------dance-single - ----------------
#NOTES:
     dance-single:
     :
     Medium:
     5:
     0.308,0.293,0.011,0.000,0.000:
0001
0100
0001
0100
,
0010
1000
0010
1000
,
0010
0100
0001
0010
,
0100
1000
0001
0100
,
0010
1000
0010
1000
,
0100
1000
0100
1000
,
0001
0010
0100
1000
,
0100
0010
0001
1000
,
0010
0000
0100
0000
0001
1000
0100
0000
,
0010
0000
0100
0000
1000
0001
0100
0000
,
0010
0100
0010
0100
,
0001
1000
0001
1000
,
0001
0000
0010
0000
0100
1000
0100
0000
,
0010
0000
0001
0000
0100
0001
0100
0000
,
0001
0010
0001
0010
,
0100
1000
0100
1000
,
0001
0000
0100
0000
0010
0100
0010
1000
,
0100
0010
0100
1000
,
0001
0000
0100
0000
0010
1000
0100
0010
,
0100
1000
0001
0100
,
0010
0000
1000
0000
0100
0010
0001
0010
,
0100
1000
0001
0100
,
0010
0000
0100
0000
0010
1000
0100
0010
,
0001
1000
0001
0100
,
0010
0000
1000
0000
0100
0010
0100
0000
,
0010
0000
0001
0000
0100
0001
0100
0000
,
0010
0000
1000
0000
0100
1000
0100
0000
,
0001
0000
0010
0000
1000
0010
1000
0000
,
0010
0000
0100
0000
0001
0010
0001
0000
,
0100
0000
0010
0000
1000
0100
1000
0000
,
0010
0000
0100
0000
0001
0100
0001
0000
,
0010
0000
0100
0000
1000
0010
1000
0000
,
0001
0000
0100
0000
0001
0100
0001
0000
,
0100
0000
0010
0000
0100
0010
0100
0000
,
0010
0000
1000
0000
0010
1000
0010
0000
,
1000
0000
0100
0000
1000
0100
1000
0000
,
0100
0000
0010
0000
0001
0100
0010
0000
,
1000
0000
0100
0000
0010
0100
1000
0000
,
0001
0000
0100
0000
0010
1000
0010
0000
,
0100
0000
0001
1000
0001
1000
0001
0000
,
1001
0000
0000
0000
;

//---------------dance-single - ----------------
#NOTES:
     dance-single:
     :
     Hard:
     7:
     0.420,0.412,0.056,0.023,0.068:
1000
0000
0000
0001
0000
0000
0100
0000
0000
0010
0000
0000
0100
0000
0000
0000
,
0001
0000
0010
0000
0100
1000
0100
0000
,
0010
0001
0100
0010
,
1000
0000
0100
0000
0010
0001
1000
0010
,
0100
0000
0000
0001
0000
0000
0100
0000
0000
0010
0000
0000
1000
0000
0000
0000
,
0001
0010
0001
0100
0010
1000
0100
0000
,
0010
0100
1000
0001
,
0100
0010
1001
0010
,
1000
0000
0000
0100
0000
0000
0010
0000
0000
0100
0000
0000
1000
0000
0000
0000
,
0001
0000
0000
0100
0000
0000
0010
0000
0000
0100
0000
0000
0001
0000
0010
0000
,
0100
1000
0100
0010
0001
1000
0010
0100
,
0001
0100
0010
1000
0001
0010
0100
1000
,
0100
0000
0000
0010
0000
0000
0100
0000
0000
1000
0000
0000
0001
0000
0000
0000
,
0100
0000
0000
0010
0000
0000
1000
0000
0000
0001
0000
0000
0010
0000
0100
0000
,
1000
0100
0010
0001
1000
0010
0100
0001
,
0010
0100
1000
0100
0010
0001
1000
0010
,
0100
0000
0001
0000
0010
0001
0100
0000
,
0010
0000
1100
0000
0010
0001
0100
0000
,
0010
0000
0101
0000
0010
1000
0100
0000
,
0010
0000
0011
0000
0001
0100
1000
0000
,
0010
0000
0100
0000
0001
0100
0010
0000
,
1000
0000
0100
0000
0010
0100
1000
0000
,
0001
0000
0100
0000
0010
1000
0001
0000
,
0010
0000
0100
0000
1000
0100
0010
0000
,
0001
1000
0010
0100
0001
0100
0010
0000
,
1000
0001
0010
0100
1000
0100
0010
0000
,
0001
1000
0010
0100
0001
0010
0100
0000
,
0010
0001
0100
0010
1000
0001
0010
0000
,
0001
0100
0010
1000
0001
0010
0100
0000
,
0010
0001
0100
0010
1000
0001
0010
0000
,
0100
1000
0100
0010
0001
1000
0010
0000
,
0100
0001
0100
0010
1000
0001
0010
0000
,
0100
1000
0100
1000
0100
1000
0100
1000
,
0001
0100
0001
0100
0001
0100
0001
0100
,
0010
1000
0010
1000
0010
1000
0010
1000
,
0001
0010
0001
0010
0001
0010
0001
0010
,
0001
0100
0010
1000
0001
0010
0100
1000
,
0100
0010
0001
1000
0010
0100
0001
1000
,
0001
0010
0100
1000
0010
0100
0001
0010
,
0100
1000
0010
0100
0001
0010
0100
0000
,
2002
0000
0000
0000
,
0000
0000
0000
0000
,
0000
0000
0000
0000
,
3003
0000
0000
0000
;
