#TITLE:waterlife;
#SUBTITLE:;
#ARTIST:syatten;
#TITLETRANSLIT:;
#SUBTITLETRANSLIT:;
#ARTISTTRANSLIT:;
#CREDIT:;
#BANNER:banner.png;
#BACKGROUND:;
#LYRICSPATH:;
#CDTITLE:;
#MUSIC:waterlife.mp3;
#OFFSET:-8.580;
#SAMPLESTART:16.860;
#SAMPLELENGTH:12.000;
#SELECTABLE:YES;
#BPMS:0.000=112.000;
#STOPS:;
#BGCHANGES:;

//---------------dance-single - ----------------
#NOTES:
     dance-single:
     :
     Beginner:
     1:
     0.096,0.099,0.000,0.012,0.000:
0000
1000
0000
1000
,
0000
0001
0000
0001
,
0000
0100
0000
0100
,
0000
0010
0000
0010
,
0010
0000
0000
0000
,
1000
0000
0100
0000
,
0010
0000
0001
0000
,
0100
0000
0010
0000
,
1000
0000
0000
0000
,
0010
0000
0100
0000
,
0001
0000
0010
0000
,
0100
0000
1000
0000
,
0010
0000
0000
0000
,
1000
0000
0010
0000
,
1000
0000
0000
0000
,
0001
0000
0010
0000
,
0001
0000
0000
0000
,
0100
0000
0010
0000
,
0100
0000
0000
0000
,
0001
0000
1000
0000
,
0001
0000
0000
0000
,
0100
0000
0010
0000
,
1000
0000
0100
0000
,
0010
0000
0001
0000
,
0010
0000
0000
0000
,
0100
0000
1000
0000
,
0010
0000
0100
0000
,
0001
0000
0010
0000
,
0001
0000
0000
0000
,
0100
0000
0010
0000
,
0100
0000
0000
0000
,
0002
0000
0000
0003
;

//---------------dance-single - ----------------
#NOTES:
     dance-single:
     :
     Easy:
     2:
     0.163,0.158,0.000,0.012,0.000: // measure 1
1000
0000
0010
0000
,  // measure 2
0100
0000
0001
0000
,  // measure 3
0010
0000
0100
0000
,  // measure 4
1000
0000
0010
0000
,  // measure 5
1000
0010
1000
0000
,  // measure 6
0001
0100
0001
0000
,  // measure 7
0010
0001
0010
0000
,  // measure 8
0100
1000
0100
0000
,  // measure 9
1000
0010
1000
0000
,  // measure 10
0001
0010
0001
0000
,  // measure 11
1000
0100
1000
0000
,  // measure 12
0001
0100
0001
0000
,  // measure 13
0010
0001
0100
0100
,  // measure 14
0010
0000
1000
0000
,  // measure 15
0100
0001
0010
0010
,  // measure 16
0100
0000
1000
0000
,  // measure 17
0010
0010
1000
1000
,  // measure 18
0100
0000
0001
0000
,  // measure 19
0010
0010
0001
0001
,  // measure 20
0100
0000
0010
0000
,  // measure 21
1000
0100
1000
1000
,  // measure 22
0010
0000
0100
0000
,  // measure 23
0001
0100
0001
0000
,  // measure 24
0010
0000
0100
0000
,  // measure 25
1000
0010
1000
0000
,  // measure 26
0001
0100
0001
0000
,  // measure 27
0010
0001
0010
0000
,  // measure 28
0100
1000
0100
0000
,  // measure 29
1000
0010
0100
0001
,  // measure 30
0010
0100
0010
0000
,  // measure 31
0001
0100
0010
1000
,  // measure 32
0002
0000
0000
0003
;

//---------------dance-single - ----------------
#NOTES:
     dance-single:
     :
     Medium:
     3:
     0.220,0.177,0.012,0.037,0.000: // measure 1
1000
0100
1000
0100
,  // measure 2
0010
0001
0010
0001
,  // measure 3
0100
0010
0100
0010
,  // measure 4
1000
0001
1000
0001
,  // measure 5
1000
0100
1000
0100
,  // measure 6
0010
0001
0010
0001
,  // measure 7
0100
0010
1000
0001
,  // measure 8
0010
0100
1000
0010
,  // measure 9
0100
0001
0100
0001
,  // measure 10
1000
0010
1000
0010
,  // measure 11
0100
0001
0010
0100
,  // measure 12
0010
0001
0100
0010
,  // measure 13
1000
0100
1000
0100
,  // measure 14
1000
0010
1000
0010
,  // measure 15
0100
0001
0100
0001
,  // measure 16
0010
0001
0010
0001
,  // measure 17
1000
0100
0010
0100
,  // measure 18
1000
0001
0100
0010
,  // measure 19
0100
0001
0010
0100
,  // measure 20
1000
0010
0200
0000
,  // measure 21
0301
0000
0010
0001
,  // measure 22
0100
0010
1000
0001
,  // measure 23
0010
0000
0001
0100
,  // measure 24
0010
1000
0100
0010
,  // measure 25
0100
0000
1000
0010
,  // measure 26
0100
0001
0010
0100
,  // measure 27
0010
0000
0001
0100
,  // measure 28
1000
0100
0001
0010
,  // measure 29
1000
0100
1000
0100
,  // measure 30
0010
0001
0010
0001
,  // measure 31
0100
0010
0100
0010
,  // measure 32
2002
0000
0000
3003
;

//---------------dance-single - ----------------
#NOTES:
     dance-single:
     :
     Hard:
     6:
     0.302,0.307,0.000,0.012,0.000: // measure 1
1000
0001
1000
0001
,  // measure 2
0100
0010
0100
0010
,  // measure 3
1000
0100
0010
0001
,  // measure 4
0100
0010
1000
0001
,  // measure 5
0010
0000
0001
0000
0100
0001
0100
0000
,  // measure 6
0010
0000
1000
0000
0010
1000
0010
0000
,  // measure 7
0100
0000
0001
0000
0010
0100
0010
0000
,  // measure 8
0001
0000
0100
0000
0010
1000
0010
0000
,  // measure 9
0100
0000
0001
0000
0010
0001
0010
0000
,  // measure 10
0100
0000
1000
0000
0001
0100
0001
0000
,  // measure 11
0100
0000
0010
0000
1000
0001
1000
0000
,  // measure 12
0010
0000
0100
0000
0001
0010
0001
0000
,  // measure 13
0100
0000
0010
0000
1000
0100
0001
0100
,  // measure 14
1000
0000
0010
0000
0001
0100
0001
0010
,  // measure 15
0100
0000
1000
0000
0010
0100
0001
0100
,  // measure 16
0010
0000
1000
0100
0000
0100
1000
0000
,  // measure 17
0010
0000
0100
0000
0001
0010
0100
0010
,  // measure 18
0001
0000
0100
0000
0010
1000
0100
0001
,  // measure 19
0100
0000
0010
0000
1000
0100
0010
0100
,  // measure 20
1000
0000
0010
0000
0100
0001
0010
0000
,  // measure 21
0010
0000
0001
0000
0100
0010
0100
0000
,  // measure 22
0001
0000
0010
0000
0100
1000
0100
0000
,  // measure 23
0010
0000
0001
0000
0100
1000
0100
0000
,  // measure 24
0001
0000
0010
0001
0000
0001
0010
0000
,  // measure 25
0100
0000
1000
0000
0010
0001
0010
0000
,  // measure 26
1000
0000
0100
0000
0001
0010
0001
0000
,  // measure 27
0100
0000
0010
0000
1000
0100
0001
0100
,  // measure 28
1000
0000
0010
0100
0000
0100
0010
0000
,  // measure 29
1000
0000
0100
0000
0010
0001
0100
0010
,  // measure 30
1000
0001
0010
0100
1000
0100
0010
0001
,  // measure 31
1000
0000
0010
0100
0001
0010
0100
1000
,  // measure 32
0010
0000
0100
0010
0000
0010
0200
0000
,  // measure 33
0000
0000
0000
0000
,  // measure 34
0300
0000
0000
0000
;
