#TITLE:☆ twinklesky ☆;
#SUBTITLE:;
#ARTIST:fether;
#TITLETRANSLIT:twinklesky;
#SUBTITLETRANSLIT:;
#ARTISTTRANSLIT:;
#CREDIT:;
#BANNER:;
#BACKGROUND:;
#LYRICSPATH:;
#CDTITLE:;
#MUSIC:twinklesky.mp3;
#OFFSET:-11.680;
#SAMPLESTART:11.370;
#SAMPLELENGTH:12.000;
#SELECTABLE:YES;
#BPMS:0.000=172.000;
#STOPS:;
#BGCHANGES:;

//---------------dance-single - ----------------
#NOTES:
     dance-single:
     :
     Hard:
     6:
     0.363,0.411,0.131,0.060,0.036: // measure 1
1000
0000
0100
1000
0000
1000
0100
0000
,  // measure 2
0010
0000
0001
0010
0000
0010
0001
0000
,  // measure 3
0100
0000
0010
0100
0000
0100
0010
0000
,  // measure 4
1000
0000
0001
1000
0000
1000
0001
0000
,  // measure 5
0100
0000
0010
1000
0000
0010
0100
0000
,  // measure 6
0001
0000
0010
0001
0000
0100
0010
0000
,  // measure 7
1000
0000
0100
1000
0001
0000
0100
0000
,  // measure 8
0220
0000
0330
0000
,  // measure 9
0001
0000
0000
0000
0100
0000
0000
0010
0000
1000
0000
0000
0010
0000
0000
0000
,  // measure 10
0100
0000
0000
0000
0001
0000
0000
0010
0000
0100
0000
0000
1000
0000
0000
0000
,  // measure 11
0100
0000
0000
0000
0010
0000
0000
0001
0000
1000
0000
0000
0010
0000
0000
0000
,  // measure 12
0100
0000
0001
0100
0000
0100
0010
1000
,  // measure 13
0001
0000
0000
0100
0000
0000
0010
0000
,  // measure 14
1000
0000
0100
1000
0001
0000
0100
0000
,  // measure 15
0010
0000
0000
1000
0000
0000
0010
0000
,  // measure 16
0100
0000
0001
0010
0100
0000
1000
0000
,  // measure 17
0100
0000
0000
0010
0000
0000
0001
0000
,  // measure 18
0100
0000
0001
1000
0100
0000
0010
0000
,  // measure 19
0100
0000
0000
1000
0001
0000
0000
0001
,  // measure 20
0100
0010
0100
0010
,  // measure 21
1000
0000
0000
0100
0000
0000
1000
0000
,  // measure 22
0001
0000
0100
0001
0010
0000
0100
0000
,  // measure 23
1000
0000
0000
0100
0000
0000
0010
0000
,  // measure 24
0001
0000
0100
0010
1000
0000
0010
0000
,  // measure 25
0100
0000
0000
0001
0000
0000
0010
0000
,  // measure 26
0100
0000
1000
0100
0010
0000
0001
0000
,  // measure 27
1000
0000
0010
0100
0001
0000
0100
0000
,  // measure 28
0110
0000
0220
0000
0330
1000
0001
0100
,  // measure 29
0010
0000
1000
0000
1100
0000
1000
0001
,  // measure 30
0100
0010
1000
0001
,  // measure 31
0010
0000
0100
0000
1100
0000
0100
0010
,  // measure 32
0001
0100
0010
1000
,  // measure 33
0100
0000
1000
0000
1010
0000
0010
0100
,  // measure 34
0001
0010
0100
1000
,  // measure 35
0100
0000
0010
0000
0011
0000
0001
0100
,  // measure 36
1000
0100
0010
0001
,  // measure 37
0100
0010
1010
1000
,  // measure 38
0100
0000
0001
0100
1000
0000
0010
0000
,  // measure 39
0100
0001
0011
0010
,  // measure 40
0100
0000
1000
0010
1000
0000
0100
0000
,  // measure 41
0010
0001
0101
0100
,  // measure 42
0010
1000
1100
0100
,  // measure 43
0010
0001
0100
0010
,  // measure 44
1000
0000
0001
0010
0100
1000
0100
0010
,  // measure 45
0002
0000
0000
0000
,  // measure 46
0000
0000
0000
0000
,  // measure 47
0003
0000
0000
0000
;

//---------------dance-single - ----------------
#NOTES:
     dance-single:
     :
     Medium:
     5:
     0.320,0.329,0.298,0.215,0.000:
1000
0100
1000
0100
,
0010
0001
0010
0001
,
0100
0010
0100
0010
,
1000
0000
0001
0000
1000
0000
0001
1000
,
0001
0100
0010
0100
,
0001
0010
0100
1000
,
0100
0010
0001
0100
,
0220
0000
0000
0330
,
1000
0000
0100
1000
0000
1000
0100
0000
,
0010
0000
0001
0100
0000
0100
0001
0000
,
0010
0000
1000
0100
0000
0010
0001
0000
,
0010
0000
0100
1000
0000
0001
0100
0000
,
0110
0000
0000
0110
0000
0000
1001
0000
,
0001
0100
0010
1000
,
1100
0000
0000
1100
0000
0000
1100
0000
,
1000
0010
0100
0001
,
0101
0000
0000
0101
0000
0000
0101
0000
,
0001
0010
0100
1000
,
1010
0000
0101
0000
,
1001
0000
0000
0000
,
0101
0000
0000
1100
0000
0000
0101
0000
,
0001
0100
1000
0010
,
0011
0000
0000
1010
0000
0000
0011
0000
,
0001
0100
0010
1000
,
1100
0000
0000
1001
0000
0000
1100
0000
,
0001
0100
0010
1000
,
1100
0000
0011
0000
,
1001
0000
0000
0000
,
2000
0000
0000
0000
3100
0000
0000
0100
,
2000
0000
0000
0000
3010
0000
0000
0010
,
0200
0000
0000
0000
0301
0000
0000
0001
,
0020
0000
0000
0000
0130
0000
0000
1000
,
0020
0000
0000
0000
0130
0000
0000
0001
,
0020
0000
0000
0000
0031
0000
0000
0100
,
0020
0000
0000
0000
1030
0000
0000
0100
,
2000
0000
3010
0000
,
0200
0000
0000
0000
0301
0000
0000
0010
,
0002
0000
0103
0000
,
0020
0000
0000
0000
1030
0000
0000
1000
,
0200
0000
1300
0000
,
0020
0000
0000
0000
0130
0000
0000
0100
,
0002
0000
0103
0000
,
0020
0000
0000
0000
0130
0000
0000
0100
,
1000
0000
0001
0000
1000
0000
0001
1000
,
0002
0000
0000
0000
,
0000
0000
0000
0000
,
0003
0000
0000
0000
;

//---------------dance-single - ----------------
#NOTES:
     dance-single:
     :
     Easy:
     2:
     0.172,0.247,0.000,0.203,0.000:
1000
0000
0100
0000
,
1000
0000
0000
0000
,
0001
0000
0010
0000
,
0001
0000
0000
0000
,
0100
0000
0010
0000
,
0100
0000
0000
0000
,
1000
0000
0001
0000
,
1000
0000
0000
0000
,
0000
0001
0000
0001
,
0000
0100
0000
0100
,
0000
0010
0000
0010
,
0000
1000
0000
1000
,
0100
1000
0000
1000
,
0100
0000
0000
0000
,
0010
0001
0000
0001
,
0010
0000
0000
0000
,
0100
0010
0000
0010
,
0100
0000
0000
0000
,
1000
0000
0001
0000
,
1000
0000
0000
0000
,
0001
0010
0000
0100
,
1000
0000
0000
0000
,
1000
0010
0000
0100
,
0001
0000
0000
0000
,
0010
0001
0000
0100
,
1000
0000
0000
0000
,
0010
0000
1000
0000
,
0100
0000
0010
0000
,
0002
0003
0200
0300
,
0002
0003
0200
0300
,
0020
0030
2000
3000
,
0020
0030
2000
3000
,
0100
0000
0010
0000
,
0100
0000
0010
0000
,
0001
0000
1000
0000
,
0001
0000
1000
0000
,
0020
0030
2000
3000
,
0200
0300
0002
0003
,
0020
0030
0002
0003
,
0200
0300
2000
3000
,
0010
0000
0100
0000
,
0001
0000
0010
0000
,
0100
0000
1000
0000
,
0001
0000
0100
0000
,
0020
0000
0000
0000
,
0000
0000
0000
0000
,
0030
0000
0000
0000
;

//---------------dance-single - ----------------
#NOTES:
     dance-single:
     :
     Beginner:
     1:
     0.094,0.137,0.000,0.000,0.000:
1000
0000
0000
0000
,
1000
0000
0000
0000
,
0001
0000
0000
0000
,
0001
0000
0000
0000
,
0100
0000
0000
0000
,
0100
0000
0000
0000
,
0010
0000
0000
0000
,
0010
0000
0000
0000
,
0000
1000
0000
1000
,
0000
0001
0000
0001
,
0000
1000
0000
1000
,
0000
0001
0000
0001
,
0001
0000
0000
0000
,
0100
0000
0000
0000
,
0001
0000
0000
0000
,
0100
0000
0000
0000
,
0010
0000
0000
0000
,
1000
0000
0000
0000
,
0010
0000
0000
0000
,
1000
0000
0000
0000
,
0010
0000
0000
0000
,
0100
0000
0000
0000
,
0010
0000
0000
0000
,
0100
0000
0000
0000
,
0001
0000
0000
0000
,
1000
0000
0000
0000
,
0001
0000
0000
0000
,
1000
0000
0000
0000
,
0010
0000
0000
0000
,
1000
0000
0100
0000
,
0100
0000
0000
0000
,
0010
0000
0000
0000
,
0001
0000
0000
0000
,
0100
0000
0010
0000
,
0010
0000
0000
0000
,
1000
0000
0000
0000
,
0100
0000
0000
0000
,
0001
0000
0100
0000
,
0100
0000
0000
0000
,
0010
0000
0000
0000
,
1000
0000
0000
0000
,
0100
0000
0010
0000
,
0100
0000
0000
0000
,
0001
0000
0000
0000
,
1000
0000
0000
0000
,
0010
0000
0000
0000
,
0100
0000
0000
0000
;
