#TITLE:electric butterfly;
#SUBTITLE:;
#ARTIST:t+pazolite;
#TITLETRANSLIT:;
#SUBTITLETRANSLIT:;
#ARTISTTRANSLIT:;
#CREDIT:;
#BANNER:banner.png;
#BACKGROUND:bgblack.PNG;
#LYRICSPATH:;
#CDTITLE:;
#MUSIC:electric butterfly (DDR Edit).mp3;
#OFFSET:-9.120;
#SAMPLESTART:62.310;
#SAMPLELENGTH:12.000;
#SELECTABLE:YES;
#BPMS:0.000=185.000;
#STOPS:;
#BGCHANGES:;

//---------------dance-single - ----------------
#NOTES:
     dance-single:
     :
     Beginner:
     2:
     0.134,0.194,0.054,0.009,0.000: // measure 1
0000
0000
0000
0000
,  // measure 2
1000
0000
1000
0000
,  // measure 3
1000
0000
1000
0000
,  // measure 4
0001
0000
0001
0000
,  // measure 5
0001
0000
0001
0000
,  // measure 6
0100
0000
0100
0000
,  // measure 7
0100
0000
0100
0000
,  // measure 8
0010
0000
0010
0000
,  // measure 9
0010
0000
0010
0000
,  // measure 10
1000
0000
0010
0000
,  // measure 11
1000
0000
0000
0000
,  // measure 12
0001
0000
0010
0000
,  // measure 13
0001
0000
0000
0000
,  // measure 14
1000
0000
0100
0000
,  // measure 15
1000
0000
0000
0000
,  // measure 16
0001
0000
0100
0000
,  // measure 17
0001
0000
0000
0000
,  // measure 18
1001
0000
0000
0000
,  // measure 19
1000
0000
0000
0000
,  // measure 20
0100
0000
0000
0000
,  // measure 21
0010
0000
0000
0000
,  // measure 22
0001
0000
0000
0000
,  // measure 23
0100
0000
0000
0000
,  // measure 24
0010
0000
0000
0000
,  // measure 25
1000
0000
0000
0000
,  // measure 26
0001
0000
0000
0000
,  // measure 27
0000
0000
0000
0000
,  // measure 28
0100
0000
0000
0000
,  // measure 29
0000
0000
0000
0000
,  // measure 30
0010
0000
0000
0000
,  // measure 31
1000
0000
0000
0000
,  // measure 32
0100
0000
0000
0000
,  // measure 33
0010
0000
0000
0000
,  // measure 34
0100
0000
0000
0000
,  // measure 35
0010
0000
0000
0000
,  // measure 36
0100
0000
0000
0000
,  // measure 37
0100
0000
0000
0000
,  // measure 38
0001
0000
0000
0000
,  // measure 39
1000
0000
0000
0000
,  // measure 40
0001
0000
0000
0000
,  // measure 41
1000
0000
0000
0000
,  // measure 42
0010
0000
0010
0000
,  // measure 43
0010
0000
0000
0000
,  // measure 44
1000
0000
0000
0000
,  // measure 45
1000
0000
0000
0000
,  // measure 46
0001
0000
0001
0000
,  // measure 47
0001
0000
0000
0000
,  // measure 48
0100
0000
0000
0000
,  // measure 49
0100
0000
0000
0000
,  // measure 50
0110
0000
0000
0000
,  // measure 51
0000
0000
0000
0000
,  // measure 52
0010
0010
0010
0000
,  // measure 53
0010
0000
0010
0000
,  // measure 54
1000
1000
1000
0000
,  // measure 55
1000
0000
1000
0000
,  // measure 56
0001
0001
0001
0000
,  // measure 57
0001
0000
0001
0000
,  // measure 58
0100
0100
0100
0000
,  // measure 59
0100
0000
0100
0000
,  // measure 60
0110
0000
0000
0000
,  // measure 61
0010
0000
0000
0000
,  // measure 62
1000
0000
0000
0000
,  // measure 63
0100
0000
0000
0000
,  // measure 64
1001
0000
0000
0000
,  // measure 65
0100
0000
0000
0000
,  // measure 66
0001
0000
0000
0000
,  // measure 67
0010
0000
0000
0000
,  // measure 68
0110
0000
0000
0000
,  // measure 69
1001
0000
0000
0000
,  // measure 70
1000
0000
0001
0000
,  // measure 71
1000
1000
1000
1000
,  // measure 72
2000
0000
0000
0000
,  // measure 73
3000
0000
0000
0000
;

//---------------dance-single - ----------------
#NOTES:
     dance-single:
     :
     Easy:
     5:
     0.333,0.413,0.251,0.179,0.000: // measure 1
0010
0010
0010
0010
,  // measure 2
0010
1000
0010
1000
,  // measure 3
0001
0100
0001
0100
,  // measure 4
0010
1000
0100
0001
,  // measure 5
0010
0001
0100
1000
,  // measure 6
0010
0100
0010
0100
,  // measure 7
0001
1000
0001
1000
,  // measure 8
0010
1000
0100
0010
,  // measure 9
0001
0100
0010
1000
,  // measure 10
0001
0100
0001
0100
,  // measure 11
0010
0010
1000
1000
,  // measure 12
0010
1000
0100
1000
,  // measure 13
0010
0100
0010
0100
,  // measure 14
0001
0001
0100
0100
,  // measure 15
0010
0010
1000
1000
,  // measure 16
0010
0001
0100
1000
,  // measure 17
0100
0010
0001
0100
,  // measure 18
0010
0000
0010
0000
,  // measure 19
1000
0000
1000
0000
,  // measure 20
0100
0000
0100
0000
,  // measure 21
0001
0000
0001
0000
,  // measure 22
0010
0000
0010
0000
,  // measure 23
0001
0000
0001
0000
,  // measure 24
0100
0000
0100
0000
,  // measure 25
1000
0000
1000
0000
,  // measure 26
2001
0000
0001
0000
,  // measure 27
0001
0000
3001
0000
,  // measure 28
1002
0000
1000
0000
,  // measure 29
1000
0000
1003
0000
,  // measure 30
2010
0000
3010
0000
,  // measure 31
0201
0000
0301
0000
,  // measure 32
1001
0000
0110
0000
,  // measure 33
1001
1001
1001
0000
,  // measure 34
0001
0000
0100
0000
,  // measure 35
0001
0100
0001
0000
,  // measure 36
1000
0000
0010
0000
,  // measure 37
1000
0010
1000
0000
,  // measure 38
0010
0000
0100
0000
,  // measure 39
0001
1000
0100
0000
,  // measure 40
0010
0000
0100
0000
,  // measure 41
1000
0001
1000
0001
,  // measure 42
1000
0100
1000
0100
,  // measure 43
0010
0001
0010
0001
,  // measure 44
0100
0010
1000
0001
,  // measure 45
0010
0000
0100
0000
,  // measure 46
0010
0001
0010
0001
,  // measure 47
1000
0100
1000
0100
,  // measure 48
1000
0010
0100
0001
,  // measure 49
0010
0000
0110
0000
,  // measure 50
1001
0000
0000
0000
,  // measure 51
0000
0000
0000
0000
,  // measure 52
2000
3100
2000
3100
,  // measure 53
2000
3100
2000
3100
,  // measure 54
0020
0031
0020
0031
,  // measure 55
0020
0031
0020
0031
,  // measure 56
0200
0301
0200
0301
,  // measure 57
0200
0301
0200
0301
,  // measure 58
2000
3010
2000
3010
,  // measure 59
2000
3010
2000
3010
,  // measure 60
1010
0000
1010
0000
,  // measure 61
0101
0000
0101
0000
,  // measure 62
0011
0000
0011
0000
,  // measure 63
1100
0000
1100
0000
,  // measure 64
1001
0000
1001
0000
,  // measure 65
0110
0000
0110
0000
,  // measure 66
0011
0000
0101
0000
,  // measure 67
1010
0000
1100
0000
,  // measure 68
1001
0000
0001
0000
,  // measure 69
1000
0000
0001
0000
,  // measure 70
1000
0001
1000
0001
,  // measure 71
1000
0010
0100
0001
,  // measure 72
0010
0000
0000
0000
;

//---------------dance-single - ----------------
#NOTES:
     dance-single:
     :
     Medium:
     6:
     0.395,0.416,0.143,0.027,0.054: // measure 1
0100
0100
0100
0100
,  // measure 2
0010
0001
0100
0010
,  // measure 3
1000
0000
0100
0000
1000
0010
0100
0000
,  // measure 4
0001
0010
0100
1000
,  // measure 5
0100
0000
0010
0000
0001
0100
0010
0000
,  // measure 6
1000
0010
0100
0001
,  // measure 7
0010
0000
0001
0000
0100
0010
1000
0000
,  // measure 8
0100
0010
0100
1000
,  // measure 9
0001
0000
0100
0000
0010
1000
0010
0000
,  // measure 10
0100
0010
0100
0001
,  // measure 11
0010
0000
0100
0000
1000
0100
1000
0000
,  // measure 12
0010
0100
0001
0010
,  // measure 13
0100
0000
1000
0000
0100
0010
0001
0100
,  // measure 14
0010
1000
0100
0010
,  // measure 15
0001
0000
0100
0000
0010
1000
0100
0000
,  // measure 16
0010
0001
0010
0000
0100
1000
0001
0000
,  // measure 17
0010
1000
0100
0010
0001
1000
0001
0010
,  // measure 18
0200
0000
0010
0000
,  // measure 19
0010
0000
0010
0000
,  // measure 20
0010
0000
0010
0000
,  // measure 21
0010
0000
0310
0000
,  // measure 22
0002
0000
1000
0000
,  // measure 23
1000
0000
1000
0000
,  // measure 24
1000
0000
1000
0000
,  // measure 25
1000
0000
1003
0000
,  // measure 26
0001
0000
1000
0000
,  // measure 27
0001
0000
1000
0000
,  // measure 28
0010
0000
0100
0000
,  // measure 29
0010
0000
0100
0000
,  // measure 30
0001
0000
0010
0000
,  // measure 31
0100
0000
1000
0000
,  // measure 32
0010
0000
0100
0000
,  // measure 33
1001
0110
1001
0000
,  // measure 34
1000
0100
1000
0010
,  // measure 35
0100
0000
0001
0000
0100
0010
0100
0000
,  // measure 36
0010
1000
0100
0010
,  // measure 37
0100
0000
1000
0000
0001
0100
0001
1000
,  // measure 38
0100
0010
0100
1000
,  // measure 39
0010
0000
0100
0000
0001
0010
0001
0010
,  // measure 40
0001
0100
1000
0100
,  // measure 41
0110
0110
0110
0110
,  // measure 42
0001
0100
1000
0100
,  // measure 43
0001
0000
0100
0000
0010
1000
0010
0000
,  // measure 44
0100
0000
0001
0010
0001
0000
1000
0000
,  // measure 45
0100
0010
0100
0000
,  // measure 46
1000
0000
0010
0000
0100
0001
0100
0000
,  // measure 47
0010
0000
1000
0100
1000
0000
0010
0000
,  // measure 48
0100
0000
0001
0010
0001
0000
0010
0000
,  // measure 49
0100
1000
0100
0010
,  // measure 50
0001
0000
0000
0000
,  // measure 51
0000
0000
0000
0000
,  // measure 52
1000
0000
0100
0000
0010
0001
0010
0000
,  // measure 53
0100
0000
1000
0000
0010
0100
0001
0000
,  // measure 54
0010
0000
0100
0000
1000
0100
0010
0000
,  // measure 55
0001
0000
0100
0000
0010
1000
0001
0000
,  // measure 56
0010
0000
0100
0000
1000
0010
0100
0000
,  // measure 57
0010
0000
1000
0000
0001
0010
0100
0000
,  // measure 58
1000
0000
0100
0000
0010
0001
0100
0000
,  // measure 59
0010
0000
1000
0000
0001
0010
0100
0000
,  // measure 60
1000
0000
0000
0100
0000
0000
1000
0000
0001
0000
0000
0010
0000
0000
0001
0000
,  // measure 61
0100
0000
0000
0010
0000
0000
0100
0000
0010
0000
0000
0000
1000
0000
0000
0000
,  // measure 62
0010
0000
0000
0001
0000
0000
0010
0000
0100
0000
0000
1000
0000
0000
0100
0000
,  // measure 63
0001
0000
0000
1000
0000
0000
0001
0000
1000
0000
0000
0000
0110
0000
0000
0000
,  // measure 64
0001
0000
0000
1000
0000
0000
0001
0000
0010
0000
0000
0100
0000
0000
0010
0000
,  // measure 65
0100
0000
0000
1000
0000
0000
0100
0000
1000
0000
0000
0000
0001
0000
0000
0000
,  // measure 66
0100
0000
0000
0010
0000
0000
0100
0000
0001
0000
0000
1000
0000
0000
0001
0000
,  // measure 67
0010
0000
0000
0001
0000
0000
0010
0000
0001
0000
0000
0000
0100
0000
0000
0000
,  // measure 68
1010
0000
1100
0000
,  // measure 69
0011
0000
0101
0000
,  // measure 70
1001
1001
0110
0110
,  // measure 71
0010
1000
0100
0001
0100
0010
1000
0001
,  // measure 72
0020
0000
0030
0000
;

//---------------dance-single - ----------------
#NOTES:
     dance-single:
     :
     Hard:
     8:
     0.532,0.613,0.152,0.063,0.152: // measure 1
1001
1001
1001
1001
,  // measure 2
0010
1000
0100
0010
0100
1000
0001
0000
,  // measure 3
0100
0010
1000
0001
0010
0100
1000
0000
,  // measure 4
0100
0010
0001
1000
0010
0100
0001
0000
,  // measure 5
0100
0000
0010
0000
1000
0000
0001
0000
0010
0001
0010
0000
0001
0000
0100
0000
,  // measure 6
0010
1000
0001
0010
0100
1000
0100
0000
,  // measure 7
0010
0001
1000
0010
0100
0001
0100
0000
,  // measure 8
0010
1000
0001
0010
0100
1000
0100
0000
,  // measure 9
0010
0000
0001
0000
0100
0000
0010
0000
1000
0100
1000
0000
0010
0000
0100
0000
,  // measure 10
0001
0010
0001
0100
0010
1000
0001
0010
,  // measure 11
0100
0000
1000
0000
0100
0000
0010
0000
0001
0000
0100
0001
0100
0000
0010
0000
,  // measure 12
1000
0001
0010
0100
1000
0100
0010
0001
,  // measure 13
1000
0000
0010
0000
0100
0000
0001
0000
0100
0000
0010
0000
1000
0100
1000
0100
,  // measure 14
1000
0010
0100
0001
0010
0100
1000
0100
,  // measure 15
0010
0000
0001
0000
1000
0000
0010
0000
0100
0000
0001
0010
0001
0000
0100
0000
,  // measure 16
0010
1000
0001
0010
0100
1000
0100
0010
,  // measure 17
0001
1000
0010
0100
0001
0100
0010
1000
,  // measure 18
0002
0000
0100
0000
,  // measure 19
0100
0000
0100
0000
,  // measure 20
0010
0000
0010
0000
,  // measure 21
0010
0000
0013
0000
,  // measure 22
2000
0000
0100
0000
,  // measure 23
0100
0000
0100
0000
,  // measure 24
0010
0000
0010
0000
,  // measure 25
0001
0000
3001
0000
,  // measure 26
1002
0000
0000
0000
,  // measure 27
0000
0000
0003
0000
,  // measure 28
2001
0000
0000
0000
,  // measure 29
0000
0000
3000
0000
,  // measure 30
0110
0000
0000
0000
,  // measure 31
1001
0000
0000
0000
,  // measure 32
0101
0000
1010
0000
,  // measure 33
0010
0000
0000
1000
0000
0000
0001
0000
0000
0100
0000
0000
0020
0000
0000
0000
,  // measure 34
1030
0000
0100
0000
0010
0001
0100
0010
,  // measure 35
1000
0000
0010
0000
0100
0001
0010
0100
,  // measure 36
1000
0000
0100
0000
0010
0001
1000
0010
,  // measure 37
0100
0000
0001
0000
0100
0010
0100
0000
,  // measure 38
0010
0000
1000
0000
0001
0010
0001
0100
,  // measure 39
0010
0000
1000
0000
0001
0010
0100
1000
,  // measure 40
0100
0000
0010
0000
0001
1000
0010
0100
,  // measure 41
0001
0000
0000
0101
0000
0000
1000
0000
0000
1100
0000
0000
0010
0000
0000
0000
,  // measure 42
0100
0000
0000
0001
0000
0000
0100
0000
0010
0000
0000
1000
0000
0000
0010
0000
,  // measure 43
1000
0000
0000
0001
0000
0000
0010
0000
0100
0000
1000
0000
0100
0000
0010
0000
,  // measure 44
0001
0000
0000
1000
0000
0000
0010
0000
0100
0000
0001
0000
0100
0000
0010
0000
,  // measure 45
1000
0000
0000
0001
0000
0000
1000
0000
0000
0000
0001
0000
0010
0000
0001
0000
,  // measure 46
0100
0000
0000
0010
0000
0000
1000
0000
0001
0000
0000
0010
0000
0000
0100
0000
,  // measure 47
1000
0000
0000
0100
0000
0000
0010
0000
0001
0000
1000
0000
0010
0000
0100
0000
,  // measure 48
0001
0000
0000
0100
0000
0000
0010
0000
1000
0000
0001
0000
0010
0000
0100
0000
,  // measure 49
1000
0000
0000
0100
0000
0000
0010
0000
0000
0001
0000
0000
1000
0000
0010
0000
,  // measure 50
0200
0000
0000
0000
,  // measure 51
0300
0000
0000
0000
0010
0010
0100
0100
,  // measure 52
0001
1000
0001
1000
0001
1000
0001
1000
,  // measure 53
0001
1000
0001
1000
0010
0100
0001
0010
,  // measure 54
0100
0010
0100
0010
0100
0010
0100
0010
,  // measure 55
0100
0010
0100
0010
0001
1000
0010
0100
,  // measure 56
0001
0100
0001
0100
0001
0100
0001
0100
,  // measure 57
0001
0100
0001
0100
0001
0010
0100
1000
,  // measure 58
0010
1000
0010
1000
0010
1000
0010
1000
,  // measure 59
0010
1000
0010
1000
0010
0100
0001
1000
,  // measure 60
0001
0000
0000
0100
0000
0000
0010
0000
1000
0000
0000
0100
0000
0000
0010
0000
,  // measure 61
0100
0000
0000
1000
0000
0000
0001
0000
0100
0000
0010
0000
1000
0000
0001
0000
,  // measure 62
0010
0000
0000
0100
0000
0000
1000
0000
0100
0000
0000
0010
0000
0000
0001
0000
,  // measure 63
1000
0000
0000
0010
0000
0000
0100
0000
0001
0000
0000
0000
0101
0000
0000
0000
,  // measure 64
0001
0000
0000
0010
0000
0000
0100
0000
1000
0000
0000
0100
0000
0000
0010
0000
,  // measure 65
0001
0000
0000
1000
0000
0000
0010
0000
0100
0000
0001
0000
0100
0000
0010
0000
,  // measure 66
1000
0000
0000
0001
0000
0000
0010
0000
0100
0000
0000
1000
0000
0000
0100
0000
,  // measure 67
0010
0000
0000
0001
0000
0000
1000
0000
0010
0000
0000
0100
0000
0000
0001
0000
,  // measure 68
1000
0000
1010
0000
,  // measure 69
0001
0000
0101
0000
,  // measure 70
0001
1001
0010
0110
,  // measure 71
0001
0100
0010
1000
0001
0010
0100
1000
,  // measure 72
0002
0000
0000
0000
,  // measure 73
0003
0000
0000
0000
;

//---------------dance-single - ----------------
#NOTES:
     dance-single:
     :
     Challenge:
     9:
     0.644,0.710,0.296,0.027,0.260: // measure 1
1010
0101
0011
1100
,  // measure 2
0010
1000
0100
0010
0100
1000
0001
0100
,  // measure 3
0010
0000
1000
0000
0001
0000
0010
0000
0100
0000
1000
0000
0001
0010
0001
0000
,  // measure 4
0010
0001
0100
0010
1000
0001
0010
0100
,  // measure 5
1000
0000
0100
0000
0010
0000
0001
0000
1000
0100
1000
0000
0010
0000
0100
0000
,  // measure 6
0001
0010
0100
1000
0100
0010
0001
1000
,  // measure 7
0010
0000
0100
0000
0001
0000
0100
0000
0010
0000
1000
0000
0001
0100
0001
0000
,  // measure 8
0010
0100
1000
0100
0010
0001
1000
0010
,  // measure 9
0100
0000
0001
0000
0100
0000
0010
0000
1000
0100
1000
0000
0010
0000
0100
0000
,  // measure 10
0001
0000
0100
0010
1000
0000
0100
0000
1000
0000
0010
0100
0001
0000
0010
0000
,  // measure 11
0001
0000
0001
0000
1000
0000
1000
0000
0010
0000
0100
0001
1000
0000
0001
0000
,  // measure 12
0010
0000
0100
1000
0100
0000
0010
0000
0001
0000
1000
0100
1000
0000
0010
0000
,  // measure 13
0100
0000
0001
0010
0001
0000
0100
0000
0010
0000
0010
0000
1000
0001
1000
0001
,  // measure 14
1000
0000
0010
1000
0010
0000
0100
0000
0001
0000
0010
0001
0010
0000
0100
0000
,  // measure 15
1000
0000
0010
0000
0001
0000
0010
0000
1000
0000
0100
0010
0100
0000
1000
0000
,  // measure 16
0010
0000
0100
0001
0100
0000
0001
0000
0010
0000
0100
1000
0100
0000
0010
0000
,  // measure 17
0001
0000
0100
0010
0100
0000
0010
0000
1000
0001
1000
0001
2000
0000
0000
0000
,  // measure 18
3001
0000
0001
0000
,  // measure 19
0100
0000
0100
0000
,  // measure 20
0010
0000
0010
0000
,  // measure 21
1000
0000
1000
0000
,  // measure 22
0010
0000
0100
0000
,  // measure 23
0001
0000
1000
0000
,  // measure 24
0100
0000
0010
0000
,  // measure 25
0001
0000
1000
0000
,  // measure 26
1001
0000
0000
0001
0000
0000
1000
0000
,  // measure 27
0010
0000
0000
0100
0000
0000
0010
0000
,  // measure 28
0011
0000
0000
0001
0000
0000
0010
0000
,  // measure 29
0100
0000
0000
1000
0000
0000
0100
0000
,  // measure 30
0011
0000
0000
0001
0000
0000
0100
0000
,  // measure 31
0110
0000
0000
0010
0000
0000
1000
0000
,  // measure 32
1100
0000
0101
0000
,  // measure 33
0011
0000
0000
1100
0000
0000
1010
0000
0000
0101
0000
0000
2001
0000
0000
0000
,  // measure 34
3001
0100
0010
1000
0001
0010
0100
1000
,  // measure 35
0100
0000
0010
0000
0001
0000
1000
0000
0010
0000
0100
0000
0001
0100
0001
0000
,  // measure 36
0010
0100
1000
0100
0010
0001
1000
0010
,  // measure 37
0100
0000
0001
0000
0100
0000
0010
0000
1000
0000
0001
0000
0010
0001
0010
0000
,  // measure 38
0100
1000
0100
0010
0001
1000
0010
0100
,  // measure 39
0001
0000
0100
0000
0010
0000
1000
0000
0001
0000
0010
0000
0100
1000
0100
0000
,  // measure 40
1000
0010
0100
0001
0010
0100
1000
0100
,  // measure 41
0010
0000
0000
0101
0000
0000
0010
0000
0000
1100
0000
0000
1001
0000
1001
0000
,  // measure 42
0010
1000
0100
0001
0010
0001
0100
1000
,  // measure 43
0010
1000
0100
0001
0010
0100
1000
0100
,  // measure 44
0010
0001
0100
1000
0010
1000
0100
0010
,  // measure 45
0100
0000
0000
1000
0000
0000
0001
0000
0000
0100
0000
0000
0010
0000
0010
0000
,  // measure 46
1000
0100
0001
0100
1000
0010
0001
0010
,  // measure 47
1000
0100
0010
0001
1000
0010
0100
0001
,  // measure 48
0100
0010
1000
0001
0010
0100
1000
0100
,  // measure 49
0010
0000
0000
0011
0000
0000
0101
0000
0000
1100
0000
0000
1010
0000
1001
0000
,  // measure 50
0110
0000
0000
0000
,  // measure 51
0000
0000
0000
0000
0010
0010
1001
1001
,  // measure 52
1000
0000
0100
0000
0010
0001
0010
0000
0001
0000
0100
0000
0010
1000
0010
0000
,  // measure 53
1000
0000
0100
0000
0010
0100
0010
0000
0100
0000
1000
0000
0001
0000
0100
0000
,  // measure 54
0010
0000
1000
0000
0100
1000
0100
0000
0010
0000
0001
0000
0100
0001
0100
0000
,  // measure 55
0010
0000
1000
0000
0100
0010
0100
0000
0010
0000
0100
0000
1000
0000
0001
0000
,  // measure 56
0100
0000
0010
0000
1000
0010
1000
0000
0010
0000
0100
0000
0001
0010
0001
0000
,  // measure 57
0010
0000
0100
0000
1000
0100
1000
0000
0010
0000
0100
0000
0001
0000
0010
0000
,  // measure 58
0100
0000
1000
0000
0010
1000
0010
0000
1000
0000
0001
0000
0010
0001
0010
0000
,  // measure 59
0100
1000
0100
0010
0001
1000
0010
0100
,  // measure 60
0001
0000
0000
0100
0000
0000
0001
0000
1000
0000
0000
0100
0000
0000
1000
0000
,  // measure 61
0001
0000
0000
0010
0000
0000
0001
0000
1000
0000
0010
0000
0100
0000
0001
0000
,  // measure 62
0010
0000
0000
0100
0000
0000
0010
0000
0100
0000
0000
1000
0000
0000
0100
0000
,  // measure 63
0010
0000
0000
0001
0000
0000
1000
0000
0010
0000
0100
0000
0001
0000
0100
0000
,  // measure 64
0010
0000
0000
1000
0000
0000
0001
0000
0010
0000
0000
0100
0000
0000
1000
0000
,  // measure 65
0100
0000
0000
0010
0000
0000
0001
0000
1000
0000
0000
1000
0010
0000
0100
0000
,  // measure 66
0001
0000
0000
0010
0000
0000
0100
0000
1000
0000
0000
0010
0000
0000
0100
0000
,  // measure 67
0001
0000
0000
1000
0000
0000
0010
0000
0100
0000
0000
0001
0000
0000
1000
0000
,  // measure 68
0001
0000
1001
0000
,  // measure 69
0010
0000
0110
0000
,  // measure 70
0011
1100
1010
0101
,  // measure 71
0001
0000
0010
0000
0100
0000
1000
0000
0001
1000
0001
1000
0001
0000
0100
0000
,  // measure 72
0020
0000
0000
0000
,  // measure 73
0030
0000
0000
0000
;
