#TITLE:cold planet;
#SUBTITLE:;
#ARTIST:knot;
#TITLETRANSLIT:;
#SUBTITLETRANSLIT:;
#ARTISTTRANSLIT:;
#CREDIT:;
#BANNER:;
#BACKGROUND:;
#LYRICSPATH:;
#CDTITLE:;
#MUSIC:cold planet (DDR Edit).mp3;
#OFFSET:-2.780;
#SAMPLESTART:24.910;
#SAMPLELENGTH:12.000;
#SELECTABLE:YES;
#BPMS:0.000=174.001;
#STOPS:;
#BGCHANGES:;

//---------------dance-single - ----------------
#NOTES:
     dance-single:
     :
     Beginner:
     2:
     0.184,0.253,0.045,0.000,0.000:
1000
0000
1000
0000
,
0001
0000
0001
0000
,
1000
0000
0001
0000
,
1000
0000
0001
0000
,
1000
0000
0100
0000
,
0010
0000
0001
0000
,
0010
0000
0000
0000
,
0000
0000
0000
0000
,
0010
0000
1000
0000
,
0100
0000
0001
0000
,
0010
0000
0001
0000
,
0100
0000
1000
0000
,
0010
0000
1000
0000
,
0001
0000
0100
0000
,
0010
0000
1000
0000
,
0001
0000
0000
0000
,
0001
0001
0001
0001
,
0001
0001
0001
0000
,
0100
0100
0100
0100
,
0100
0100
0100
0000
,
0010
0010
0010
0010
,
0010
0010
0010
0000
,
1000
1000
1000
1000
,
1000
0000
1001
0000
,
0001
0000
0001
0000
,
1000
0000
1000
0000
,
0010
0000
0010
0000
,
0100
0000
0100
0000
,
0010
0010
0010
0010
,
0010
0010
0010
0000
,
0100
0000
0010
0000
,
0110
0000
0000
0000
,
1000
0000
0000
0000
,
0000
0000
0000
0000
,
0000
0000
0000
0000
,
0000
0000
0000
0000
,
1000
0000
0001
0000
,
1000
0000
0001
0000
,
1000
0000
0001
0000
,
1000
1000
1000
1000
,
1000
0000
0000
0000
,
0010
0000
0000
0000
,
0001
0000
0000
0000
,
0100
0000
0000
0000
,
1000
0000
0000
0000
,
0100
0000
0000
0000
,
0001
0000
0000
0000
,
0010
0000
0100
0000
,
1000
0000
1000
0000
,
0010
0000
0010
0000
,
0100
0000
0100
0000
,
0001
0000
0001
0000
,
1000
0000
0100
0000
,
0010
0000
0001
0000
,
0010
0000
0100
0000
,
1000
0000
0110
0000
,
1001
0000
0000
0000
;

//---------------dance-single - ----------------
#NOTES:
     dance-single:
     :
     Easy:
     4:
     0.232,0.285,0.158,0.079,0.000:
1000
0000
0100
0000
,
0010
0000
0001
0000
,
1000
1000
0001
0001
,
1000
0001
1000
0001
,
0100
0100
0010
0010
,
0100
0010
0100
0010
,
0100
0000
0010
0000
,
0110
0000
0000
0000
,
1000
0100
1000
0000
,
0001
0100
0001
0000
,
1000
0010
1000
0000
,
0001
0010
0001
0000
,
0100
0010
0100
0000
,
0001
1000
0001
0000
,
1001
0000
0110
0000
,
1001
0000
0000
0000
,
1000
0000
0010
0000
,
0100
0001
0100
0000
,
0001
0000
0010
0000
,
0100
1000
0100
0000
,
1000
0000
0010
0000
,
0001
0100
0001
0000
,
0010
0000
1000
0000
,
0100
0000
1001
0000
,
0010
0000
0100
0000
,
0010
0000
0100
0000
,
0001
0000
1000
0000
,
0001
0000
1000
0000
,
0001
0001
1000
1000
,
0010
0100
0001
1000
,
0010
0100
0001
0000
,
1001
0000
0000
0000
,
0010
0000
0000
0000
,
0000
0000
0000
0000
,
0000
0000
0000
0000
,
0000
0000
0000
0000
,
1000
0000
0001
0000
,
0100
0000
0010
0000
,
0100
0000
0001
0000
,
1000
0001
1000
0001
,
2000
0000
0000
0000
,
3200
0000
0000
0000
,
0320
0000
0000
0000
,
0032
0000
0000
0000
,
0203
0000
0000
0000
,
0320
0000
0000
0000
,
2030
0000
0000
0000
,
3001
0000
1001
0000
,
0010
0000
0110
0000
,
0001
0000
1001
0000
,
1000
0000
1100
0000
,
0001
0000
0011
0000
,
0001
0000
0101
0000
,
1000
0000
1010
0000
,
0010
1000
0100
0001
,
0010
0100
0010
0000
,
1001
0000
0000
0000
;

//---------------dance-single - Copied from----------------
#NOTES:
     dance-single:
     Copied from:
     Medium:
     5:
     0.360,0.474,0.034,0.158,0.000: // measure 1
1000
0000
1000
0000
,  // measure 2
0010
0000
0010
0000
,  // measure 3
0100
0001
0100
0010
,  // measure 4
1000
0001
0010
0100
,  // measure 5
1000
0100
0010
0001
,  // measure 6
0100
0010
1000
0001
,  // measure 7
0010
0000
0000
0000
0100
0000
0000
0010
,  // measure 8
0000
0010
0000
0010
0000
0010
0000
0000
,  // measure 9
1000
0100
0010
0001
,  // measure 10
0010
0000
0100
0000
1000
0001
0100
0000
,  // measure 11
0010
1000
0010
0100
,  // measure 12
0001
0000
0010
0000
0100
1000
0001
0000
,  // measure 13
0010
0001
0100
0010
,  // measure 14
1000
0000
0010
0000
0100
0001
1000
0000
,  // measure 15
0010
0000
0100
0000
0001
0000
0010
0100
,  // measure 16
0000
0100
0000
0100
0000
0100
0000
0000
,  // measure 17
0010
1000
0100
0001
,  // measure 18
0100
0000
1000
0000
0010
0100
0001
0100
,  // measure 19
0010
1000
0001
0010
,  // measure 20
0100
0000
1000
0000
0100
0010
0001
0100
,  // measure 21
0010
1000
0100
0010
,  // measure 22
0100
0000
1000
0000
0001
0100
0010
1000
,  // measure 23
0001
0010
0100
1000
,  // measure 24
0100
0000
0010
0000
0110
0000
0001
0100
,  // measure 25
0001
0100
0010
1000
,  // measure 26
0100
0000
1000
0000
0010
0000
0100
0001
,  // measure 27
0100
0010
1000
0001
,  // measure 28
0010
0000
0100
0000
1000
0000
0100
0010
,  // measure 29
0100
1000
0001
0100
,  // measure 30
0010
0000
1000
0000
0001
0010
0100
1000
,  // measure 31
0001
0000
0010
0000
0001
0000
0100
0010
,  // measure 32
0000
0100
0000
0010
0000
0100
0000
1000
,  // measure 33
0001
0000
0000
0000
,  // measure 34
0000
0000
0000
0000
,  // measure 35
0000
0000
0000
0000
,  // measure 36
0000
0000
0000
0000
,  // measure 37
0000
1000
0000
1000
,  // measure 38
0000
0010
0000
0010
,  // measure 39
0000
0100
0000
0100
,  // measure 40
0000
0001
0000
1000
,  // measure 41
0002
0000
0203
0000
,  // measure 42
0320
0000
0230
0000
,  // measure 43
0302
0000
2003
0000
,  // measure 44
3200
0000
2300
0000
,  // measure 45
3002
0000
0023
0000
,  // measure 46
0230
0000
0320
0000
,  // measure 47
0032
0000
0203
0000
,  // measure 48
0310
0000
1001
0000
0100
0000
1000
0010
,  // measure 49
0100
0001
0100
0010
,  // measure 50
1000
0000
0100
0000
0001
0000
0100
0010
,  // measure 51
1000
0001
0010
0100
,  // measure 52
1000
0000
0100
0000
0001
0000
0100
0010
,  // measure 53
1000
0001
0010
0001
,  // measure 54
0100
0000
0010
0000
1000
0000
0001
0010
,  // measure 55
0001
1000
0001
1000
0010
0100
0010
0100
,  // measure 56
0001
1000
0010
0100
0001
0000
0000
0000
,  // measure 57
1001
0000
0000
0000
;

//---------------dance-single - ----------------
#NOTES:
     dance-single:
     :
     Hard:
     8:
     0.523,0.632,0.373,0.045,0.023: // measure 1
0010
0000
1000
0100
1000
0000
0001
0100
,  // measure 2
0001
0000
0100
0010
0100
0000
0010
1000
,  // measure 3
0100
0000
0010
0001
0100
0000
0001
0100
,  // measure 4
0010
0000
1000
0100
1000
0000
0010
0100
,  // measure 5
0001
0000
0010
0100
1000
0000
0001
0010
,  // measure 6
0001
0000
0100
0010
1000
0000
0001
0010
,  // measure 7
0100
0000
1000
0000
0001
0000
1000
0001
,  // measure 8
0000
1000
0000
0001
0000
1000
0000
0001
,  // measure 9
1000
0010
1000
0000
1000
0010
0100
0000
,  // measure 10
0001
0010
0100
0000
1000
0100
0010
0000
,  // measure 11
0010
0001
0100
0000
0010
1000
0100
0000
,  // measure 12
0010
0001
0010
0000
1000
0001
0100
0000
,  // measure 13
0010
1000
0001
0000
0010
0100
1000
0000
,  // measure 14
0100
0010
0001
0000
1000
0010
0100
0000
,  // measure 15
0001
0000
0100
0000
0010
0000
1000
0001
,  // measure 16
0000
1000
0000
0001
0000
1000
0000
0001
,  // measure 17
1000
0100
0010
0001
1000
0010
0100
0001
,  // measure 18
0010
0100
1000
0100
0010
0001
0000
0000
,  // measure 19
0010
0001
0100
1000
0100
0001
0010
0100
,  // measure 20
1000
0010
0100
0001
0010
0100
0000
0000
,  // measure 21
0010
0001
0100
0010
1000
0001
0010
0100
,  // measure 22
1000
0010
0100
0001
0010
0100
0000
0000
,  // measure 23
1000
0001
1000
0010
0100
0001
0010
0100
,  // measure 24
1000
0000
1100
0000
0001
0000
0100
0100
,  // measure 25
0010
1100
0001
0110
,  // measure 26
0100
1010
0010
0101
,  // measure 27
0001
0011
0100
1100
,  // measure 28
0100
1010
0001
1001
,  // measure 29
0010
1000
0100
1000
0010
0100
0001
0010
,  // measure 30
0100
1000
0001
0010
0100
1000
0000
0000
,  // measure 31
0001
0000
0100
0000
0010
0000
1000
0001
,  // measure 32
0000
0101
0000
1010
0000
1100
0000
0001
,  // measure 33
1000
0000
0000
0000
,  // measure 34
0000
0000
0000
0000
,  // measure 35
0000
0000
0000
0000
,  // measure 36
0000
0000
0000
0000
,  // measure 37
0010
0000
1000
0100
1000
0000
0001
0100
,  // measure 38
0001
0000
0010
0100
0010
0000
0001
1000
,  // measure 39
0001
0000
0100
0001
0100
0000
0010
1000
,  // measure 40
0001
0010
0100
1000
0100
0010
0001
0000
,  // measure 41
0120
0100
0100
0100
,  // measure 42
0100
0100
0100
0130
,  // measure 43
1002
1000
1000
1000
,  // measure 44
1000
1000
1000
1003
,  // measure 45
2100
0100
0100
0100
,  // measure 46
0100
0100
0100
3100
,  // measure 47
0021
0001
0001
0031
,  // measure 48
1001
0000
0010
0000
0110
0000
1000
0001
,  // measure 49
1000
1100
0001
0101
,  // measure 50
1000
1010
0001
0011
,  // measure 51
0001
1010
0100
0011
,  // measure 52
0001
0101
0001
1100
,  // measure 53
0010
1100
0101
1010
,  // measure 54
0011
1100
1001
0110
,  // measure 55
0001
0010
1000
0100
0010
0001
0100
0010
,  // measure 56
1000
0001
1000
0001
1000
0001
1000
0001
1000
0000
0100
0000
0010
0000
0000
0000
,  // measure 57
0001
0000
0000
0000
;
