#TITLE:black storm;
#SUBTITLE:;
#ARTIST:sun3;
#TITLETRANSLIT:;
#SUBTITLETRANSLIT:;
#ARTISTTRANSLIT:;
#CREDIT:;
#BANNER:;
#BACKGROUND:;
#LYRICSPATH:;
#CDTITLE:;
#MUSIC:black storm.mp3;
#OFFSET:-12.740;
#SAMPLESTART:24.030;
#SAMPLELENGTH:12.000;
#SELECTABLE:YES;
#BPMS:0.000=170.000;
#STOPS:;
#BGCHANGES:;

//---------------dance-single - ----------------
#NOTES:
     dance-single:
     :
     Beginner:
     2:
     0.123,0.177,0.011,0.000,0.000: // measure 1
1000
0000
0000
0000
,  // measure 2
0010
0000
0000
0000
,  // measure 3
0100
0000
0000
0000
,  // measure 4
0001
0000
0000
0000
,  // measure 5
0010
0000
0000
0000
,  // measure 6
0100
0000
0000
0000
,  // measure 7
1000
0000
0000
0000
,  // measure 8
0001
0000
0000
0000
,  // measure 9
1000
0000
0000
0000
,  // measure 10
1000
0000
0000
0000
,  // measure 11
0001
0000
0000
0000
,  // measure 12
0001
0000
0000
0000
,  // measure 13
0100
0000
0000
0000
,  // measure 14
0100
0000
0000
0000
,  // measure 15
0010
0000
0000
0000
,  // measure 16
0010
0000
0000
0000
,  // measure 17
1000
0000
0000
0000
,  // measure 18
1000
0000
0000
0000
,  // measure 19
0100
0000
0000
0000
,  // measure 20
0100
0000
0000
0000
,  // measure 21
0010
0000
0000
0000
,  // measure 22
0010
0000
0000
0000
,  // measure 23
0001
0000
0000
0000
,  // measure 24
0001
0000
0000
0000
,  // measure 25
0100
0000
0100
0000
,  // measure 26
0100
0000
0000
0000
,  // measure 27
0010
0000
0010
0000
,  // measure 28
0010
0000
0000
0000
,  // measure 29
1000
0000
1000
0000
,  // measure 30
1000
0000
0000
0000
,  // measure 31
0001
0000
0001
0000
,  // measure 32
0001
0000
0000
0000
,  // measure 33
1000
0000
1000
0000
,  // measure 34
1000
0000
0000
0000
,  // measure 35
0010
0000
0010
0000
,  // measure 36
0010
0000
0000
0000
,  // measure 37
0100
0000
0100
0000
,  // measure 38
0100
0000
0000
0000
,  // measure 39
0001
0000
0001
0000
,  // measure 40
0001
0000
0000
0000
,  // measure 41
0010
0000
0010
0000
,  // measure 42
0010
0010
0010
0000
,  // measure 43
0100
0000
0100
0000
,  // measure 44
0100
0000
0000
0000
,  // measure 45
0001
0000
0001
0000
,  // measure 46
0001
0001
0001
0000
,  // measure 47
1000
0000
1000
0000
,  // measure 48
1000
0000
0000
0000
,  // measure 49
0010
0010
0010
0000
,  // measure 50
0010
0000
0000
0000
,  // measure 51
0100
0100
0100
0000
,  // measure 52
0100
0000
0000
0000
,  // measure 53
0001
0000
0001
0000
,  // measure 54
1000
0000
1000
0000
,  // measure 55
0010
0000
0010
0000
,  // measure 56
0100
0000
0100
0000
,  // measure 57
1001
0000
0000
0000
;

//---------------dance-single - ----------------
#NOTES:
     dance-single:
     :
     Medium:
     6:
     0.397,0.442,0.042,0.063,0.011: // measure 1
0010
0000
1000
0000
0100
0010
0100
0000
,  // measure 2
1000
0000
0001
0000
1000
0001
0000
0001
,  // measure 3
1000
0000
0010
0000
0100
0001
0100
0000
,  // measure 4
0001
0000
0010
0000
0001
0010
0001
0000
,  // measure 5
1000
0000
0010
0000
0100
0001
0100
0000
,  // measure 6
0010
0000
1000
0000
0001
0010
0001
0000
,  // measure 7
0100
0000
0010
0000
1000
0001
0010
0000
,  // measure 8
0100
0000
0100
0010
0000
0010
0001
0000
0000
1001
0000
0000
,  // measure 9
0001
0000
0100
0000
0010
1000
0100
0000
,  // measure 10
0010
0000
0100
0000
1000
0001
0100
0000
,  // measure 11
0010
0000
0100
0000
0001
0010
0100
0000
,  // measure 12
1000
0000
0010
0000
0100
0001
0010
0000
,  // measure 13
0001
0000
0100
0000
0010
1000
0001
0000
,  // measure 14
0010
0000
0100
0000
1000
0100
0010
0000
,  // measure 15
0001
1000
0010
1000
,  // measure 16
0001
1000
0002
0000
,  // measure 17
1003
0000
0010
0000
0100
0001
0010
0000
,  // measure 18
0001
0000
0100
0000
0010
1000
0001
0000
,  // measure 19
0010
0000
0100
0000
1000
0100
0010
0000
,  // measure 20
0001
0000
0100
0000
0010
1000
0000
1000
,  // measure 21
0010
0000
0100
0000
0001
0010
0100
0000
,  // measure 22
1000
0000
0100
0000
0010
0001
0100
0000
,  // measure 23
0010
0000
1000
0000
0001
0010
0100
0000
,  // measure 24
2000
0000
0000
0000
,  // measure 25
3001
0010
0000
0000
0010
0100
0000
0000
,  // measure 26
0100
1000
0000
0000
1000
0010
0000
0000
,  // measure 27
0010
0100
0000
0000
0100
0001
0000
0000
,  // measure 28
0000
1000
0000
0001
0000
1000
0000
0001
,  // measure 29
1000
0001
0000
0000
0001
0100
0000
0000
,  // measure 30
0100
0010
0000
0000
0010
1000
0000
0000
,  // measure 31
1000
0100
0000
0000
0100
0010
0000
0000
,  // measure 32
0010
0001
0100
0010
,  // measure 33
1000
0100
0000
0000
0100
1000
0000
0000
,  // measure 34
0001
0010
0000
0000
0010
0001
0000
0000
,  // measure 35
0001
0100
0000
0000
0100
0001
0000
0000
,  // measure 36
0000
1000
0000
0010
0000
1000
0000
0100
,  // measure 37
1000
0001
0000
0000
0001
0010
0000
0000
,  // measure 38
0010
0100
0000
0000
0100
1000
0000
0000
,  // measure 39
1000
0010
0000
0000
0010
0100
0000
0000
,  // measure 40
2002
0000
0000
3003
,  // measure 41
0001
0000
0010
0000
0001
0100
0010
0000
,  // measure 42
0100
0000
0001
0000
0010
0100
1000
0001
,  // measure 43
0100
0000
0010
0000
1000
0100
0010
0000
,  // measure 44
0100
1000
0000
0001
0000
0100
0000
0010
,  // measure 45
1000
0000
0001
0000
0010
0100
0010
0000
,  // measure 46
0001
0000
0100
0000
0010
1000
0001
0010
,  // measure 47
0100
0000
0010
0000
0001
0100
0010
0000
,  // measure 48
0220
0000
0000
0330
,  // measure 49
0010
0000
1000
0000
0100
0001
0100
0000
,  // measure 50
0010
0000
0100
0000
,  // measure 51
0001
0000
0010
0000
1000
0100
0001
0000
,  // measure 52
0100
0000
0010
0000
,  // measure 53
1000
0001
1000
0001
0100
0010
0100
0010
,  // measure 54
1000
0001
0000
0010
0000
0100
0000
1000
,  // measure 55
0010
0100
0001
0000
0001
0100
0010
0000
,  // measure 56
0010
1000
0001
0010
0100
1000
0010
0000
,  // measure 57
0110
0000
0000
0000
;

//---------------dance-single - ----------------
#NOTES:
     dance-single:
     :
     Hard:
     8:
     0.548,0.501,0.137,0.084,0.294: // measure 1
1000
0010
0100
0001
0010
0001
0100
0010
,  // measure 2
0000
1000
0000
0100
0000
0001
0000
0000
0000
0000
1001
0000
0000
0000
0100
0000
,  // measure 3
0001
0100
0010
1000
0001
0010
0100
0000
,  // measure 4
0100
0010
0001
0100
0010
1000
0001
0000
,  // measure 5
0010
0001
0100
1000
0100
0001
0010
0000
,  // measure 6
0001
0100
0010
1000
0001
0010
0100
1000
,  // measure 7
0010
0000
0100
0000
0001
0000
0000
0000
0010
0000
0000
0010
0000
0000
0010
0000
,  // measure 8
0001
0010
0100
1000
0010
0100
0001
0000
0000
1001
0000
0000
,  // measure 9
1000
0000
0010
0000
0100
0001
0000
0010
,  // measure 10
0000
0001
0000
0100
0010
1000
0000
0001
,  // measure 11
0010
0000
0001
0000
0100
0010
0000
1000
,  // measure 12
0000
1000
0010
0100
0000
0001
0000
0010
,  // measure 13
0001
0000
0100
0000
0010
1000
0001
0010
,  // measure 14
0100
0000
1000
0000
0100
0010
0001
0100
,  // measure 15
0010
0100
0010
1000
,  // measure 16
0001
0000
0010
0000
0100
1000
0001
0000
,  // measure 17
0100
0000
0010
0000
1000
0010
0000
0100
,  // measure 18
0000
0001
0000
0010
0100
0010
0000
0001
,  // measure 19
0100
0000
0010
0000
1000
0001
0000
0010
,  // measure 20
0000
0001
0100
0010
0000
1000
0010
0100
,  // measure 21
0001
0000
0010
0000
0001
0100
0010
1000
,  // measure 22
0001
0000
0010
0000
0100
1000
0010
0100
,  // measure 23
0001
0000
0010
0000
0001
0100
0010
0000
,  // measure 24
2002
0000
0000
3003
,  // measure 25
0100
1000
0000
0100
0000
0000
0010
0000
0001
0010
0000
0001
0000
0000
1000
0000
,  // measure 26
0010
0100
0000
0010
0000
0000
1000
0000
0010
0100
0000
0001
0000
0000
0010
0000
,  // measure 27
0100
0010
0000
0100
0000
0000
1000
0000
0001
1000
0000
0001
0000
0000
0100
0000
,  // measure 28
0010
0100
0000
0010
0000
0100
0000
0010
,  // measure 29
1000
0100
0000
1000
0000
0000
0010
0000
0100
0001
0000
0100
0000
0000
0001
0000
,  // measure 30
0010
0001
0000
0100
0000
0000
0010
0000
1000
0001
0000
0010
0000
0000
0100
0000
,  // measure 31
1000
0001
0000
0100
0000
0000
0010
0000
0100
0001
0000
0010
0000
0000
0100
0000
,  // measure 32
2002
0000
0000
3003
,  // measure 33
1000
0010
0000
0100
0000
0000
0001
0000
0010
0100
0000
1000
0000
0000
0100
0000
,  // measure 34
0010
0001
0000
0100
0000
0000
0010
0000
0100
0001
0000
0010
0000
0000
0100
0000
,  // measure 35
1000
0001
0000
0100
0000
0000
0010
0000
1000
0001
0000
0010
0000
0000
0100
0000
,  // measure 36
1000
1001
0000
0101
0000
0110
0000
0010
,  // measure 37
1000
0100
0000
1000
0000
0000
0001
0000
0100
0010
0000
0100
0000
0000
0001
0000
,  // measure 38
0010
0100
0000
1000
0000
0000
0100
0000
0010
0001
0000
0100
0000
0000
0010
0000
,  // measure 39
1000
0001
0000
0010
0000
0000
0100
0000
1000
0001
0000
0100
0000
0000
0010
0000
,  // measure 40
0220
0000
0000
0330
,  // measure 41
0010
1000
0100
0010
0100
1000
0001
0100
,  // measure 42
0010
1000
0001
0010
0100
1000
0010
0000
,  // measure 43
0010
1000
0100
0001
0100
0010
1000
0001
,  // measure 44
0010
0100
1000
0010
0100
0001
0010
0000
,  // measure 45
0010
0001
0100
1000
0100
0001
0010
0000
,  // measure 46
0010
1000
0100
0001
0100
1000
0010
0000
,  // measure 47
0100
0001
0010
0000
0100
1000
0010
0000
,  // measure 48
0220
0000
0000
0330
,  // measure 49
0001
0100
0010
1000
0001
0010
0100
0000
,  // measure 50
1000
0001
0100
0010
,  // measure 51
1000
0001
0010
0001
0100
0010
1000
0000
,  // measure 52
0001
0010
0100
1000
,  // measure 53
0010
0010
0100
0100
0001
0001
1000
1000
,  // measure 54
0001
0011
0000
0101
0000
1100
0000
0010
,  // measure 55
1000
0100
0010
0000
0100
1000
0001
0000
,  // measure 56
0100
0010
1000
0001
0100
1000
0010
0000
,  // measure 57
1001
0000
0000
0000
;

//---------------dance-single - ----------------
#NOTES:
     dance-single:
     :
     Easy:
     3:
     0.200,0.236,0.011,0.000,0.000: // measure 1
1000
0000
0001
0000
,  // measure 2
1000
0000
1000
0000
,  // measure 3
0001
0000
1000
0000
,  // measure 4
0001
0000
0001
0000
,  // measure 5
0100
0000
0010
0000
,  // measure 6
0100
0000
0100
0000
,  // measure 7
0010
0000
0100
0000
,  // measure 8
0010
0000
0010
0000
,  // measure 9
1000
1000
1000
1000
,  // measure 10
1000
1000
1000
0000
,  // measure 11
0010
0010
0010
0010
,  // measure 12
0010
0010
0010
0000
,  // measure 13
0100
0100
0100
0100
,  // measure 14
0100
0100
0100
0000
,  // measure 15
0001
0001
0001
0001
,  // measure 16
0001
0000
0001
0000
,  // measure 17
0001
0001
0001
0001
,  // measure 18
0001
0001
0001
0000
,  // measure 19
0010
0010
0010
0010
,  // measure 20
0010
0010
0010
0000
,  // measure 21
0100
0100
0100
0100
,  // measure 22
0100
0100
0100
0000
,  // measure 23
1000
1000
1000
1000
,  // measure 24
1000
0000
1000
0000
,  // measure 25
0010
0000
0010
0000
,  // measure 26
0100
0000
0100
0000
,  // measure 27
0001
0000
0001
0000
,  // measure 28
1000
0000
1000
0000
,  // measure 29
0010
0000
0010
0000
,  // measure 30
0100
0000
0100
0000
,  // measure 31
0001
0000
0001
0000
,  // measure 32
1000
0000
1000
0000
,  // measure 33
1000
0000
0100
0000
,  // measure 34
1000
0000
0100
0000
,  // measure 35
0010
0000
0001
0000
,  // measure 36
0010
0000
0001
0000
,  // measure 37
0100
0000
0001
0000
,  // measure 38
0100
0000
0001
0000
,  // measure 39
1000
0000
0010
0000
,  // measure 40
1000
0000
1000
0000
,  // measure 41
0010
0000
0010
0000
,  // measure 42
0010
0000
0000
0000
,  // measure 43
0100
0000
0100
0000
,  // measure 44
0100
0000
0000
0000
,  // measure 45
0001
0000
0001
0000
,  // measure 46
0001
0000
0000
0000
,  // measure 47
1000
0000
1000
0000
,  // measure 48
1000
0000
0000
0000
,  // measure 49
0010
0000
0100
0000
,  // measure 50
0010
0000
0000
0000
,  // measure 51
1000
0000
0001
0000
,  // measure 52
1000
0000
0000
0000
,  // measure 53
0001
0001
0001
0000
,  // measure 54
1000
0000
1000
0000
,  // measure 55
0010
0010
0010
0000
,  // measure 56
0100
0100
0100
0000
,  // measure 57
1001
0000
0000
0000
;
