#TITLE:beyond the limit;
#SUBTITLE:;
#ARTIST:Syatten;
#TITLETRANSLIT:;
#SUBTITLETRANSLIT:;
#ARTISTTRANSLIT:;
#CREDIT:;
#BANNER:banner.png;
#BACKGROUND:bgblack.PNG;
#LYRICSPATH:;
#CDTITLE:;
#MUSIC:beyond the limit.mp3;
#OFFSET:-13.020;
#SAMPLESTART:51.950;
#SAMPLELENGTH:12.000;
#SELECTABLE:YES;
#BPMS:0.000=148.000;
#STOPS:;
#BGCHANGES:;

//---------------dance-single - ----------------
#NOTES:
     dance-single:
     :
     Beginner:
     1:
     0.096,0.101,0.011,0.000,0.000:
1000
0000
0000
0000
,
1000
0000
0000
0000
,
0001
0000
0000
0000
,
0001
0000
0000
0000
,
0100
0000
0000
0000
,
0100
0000
0000
0000
,
0010
0000
0000
0000
,
0010
0000
0000
0000
,
0010
0000
0100
0000
,
0010
0000
0000
0000
,
1000
0000
0001
0000
,
1000
0000
0000
0000
,
0001
0000
0010
0000
,
0001
0000
0000
0000
,
1000
0000
0100
0000
,
1000
0000
0000
0000
,
0001
0000
0010
0000
,
0001
0000
0000
0000
,
1000
0000
0010
0000
,
1000
0000
0000
0000
,
0001
0000
0000
0000
,
0100
0000
0000
0000
,
1000
0000
0000
0000
,
0010
0000
0000
0000
,
0100
0000
0100
0000
,
0100
0000
0000
0000
,
0010
0000
0010
0000
,
0010
0000
0000
0000
,
1000
0000
1000
0000
,
1000
0000
0000
0000
,
0001
0000
0001
0000
,
0001
0000
0000
0000
,
0010
0000
0100
0000
,
0010
0000
0000
0000
,
1000
0000
0001
0000
,
1000
0000
0000
0000
,
0001
0000
0010
0000
,
0001
0000
0000
0000
,
1000
0000
0100
0000
,
1000
0000
0000
0000
,
0010
0000
0000
0000
,
1000
0000
0000
0000
,
0100
0000
0000
0000
,
0001
0000
0000
0000
,
0010
0000
0000
0000
,
0001
0000
0000
0000
,
0100
0000
0000
0000
,
1000
0000
0000
0000
,
1001
0000
0000
0000
;

//---------------dance-single - ----------------
#NOTES:
     dance-single:
     :
     Easy:
     4:
     0.263,0.227,0.032,0.000,0.000: // measure 1
1000
0001
1000
0001
,  // measure 2
0100
0010
0100
0010
,  // measure 3
1000
0100
0010
0001
,  // measure 4
0100
0010
1000
0001
,  // measure 5
0010
0001
0010
0001
,  // measure 6
1000
0100
1000
0100
,  // measure 7
1000
0010
0100
0001
,  // measure 8
0010
0100
1000
0000
,  // measure 9
0001
0100
0001
0010
,  // measure 10
0100
1000
0010
0000
,  // measure 11
0010
1000
0100
0001
,  // measure 12
0010
0001
0100
0000
,  // measure 13
0100
0001
0010
1000
,  // measure 14
0010
0001
0100
0000
,  // measure 15
0010
1000
0100
0001
,  // measure 16
0100
1000
0010
0000
,  // measure 17
0100
0001
0100
0001
,  // measure 18
1000
0010
1000
0000
,  // measure 19
0010
0100
0010
0100
,  // measure 20
0001
0100
1000
0100
,  // measure 21
1000
0010
1000
0000
,  // measure 22
0001
0010
0001
0000
,  // measure 23
0100
0000
0010
0000
,  // measure 24
1001
0000
1001
0000
,  // measure 25
1000
0100
0100
1000
,  // measure 26
1000
0010
0010
0100
,  // measure 27
0100
0001
0001
0010
,  // measure 28
0010
0100
0100
1000
,  // measure 29
1000
0001
0100
0010
,  // measure 30
0100
0001
0010
0100
,  // measure 31
1000
0010
0100
0000
,  // measure 32
0001
0010
0100
0000
,  // measure 33
0010
0001
0001
0100
,  // measure 34
0100
0010
0010
1000
,  // measure 35
1000
0100
0100
0010
,  // measure 36
0010
0001
0001
1000
,  // measure 37
1000
0010
1000
0100
,  // measure 38
0010
0001
0100
0010
,  // measure 39
0100
0001
1000
0100
,  // measure 40
0010
0001
1000
0010
,  // measure 41
0100
0001
0100
0000
,  // measure 42
0010
1000
0010
0000
,  // measure 43
1000
0001
0010
0000
,  // measure 44
0010
0001
1000
0000
,  // measure 45
0010
0100
0001
0000
,  // measure 46
0010
0100
1000
0000
,  // measure 47
0010
1000
0001
0000
,  // measure 48
0100
0010
1000
0001
,  // measure 49
1001
0000
0000
0000
;

//---------------dance-single - ----------------
#NOTES:
     dance-single:
     :
     Medium:
     6:
     0.379,0.379,0.116,0.011,0.000:
0010
0000
1000
0000
0100
0010
0100
0000
,
1000
0000
0001
0000
0100
0010
0100
0000
,
0001
0000
0010
0000
0100
1000
0100
0000
,
0010
0000
0001
0000
0100
0001
0100
0000
,
0010
0000
1000
0000
0001
0010
0001
0000
,
0100
0000
0010
0000
1000
0010
1000
0000
,
0010
0000
0100
0000
0001
1000
0100
0000
,
0020
0000
0000
0030
,
0001
0000
0100
0000
0010
1000
0010
0000
,
0100
0000
0001
0000
0010
0100
0010
0000
,
0001
0000
1000
0000
0010
0100
0010
0000
,
1000
0000
0100
0000
0010
0001
1000
0000
,
0010
0000
0100
0000
0001
0100
0010
0000
,
1000
0000
0001
0000
0010
0100
1000
0000
,
0100
0000
0010
0000
0001
1000
0010
0000
,
0100
0000
0001
0000
0100
0010
1000
0000
,
0001
0000
0010
0000
0100
0010
0001
0000
,
0100
0000
0010
0000
1000
0100
0010
0000
,
0100
0000
1000
0000
0001
0100
0010
0000
,
1000
0000
0001
0000
0010
0001
0100
0010
,
1000
0100
1000
0000
,
0001
0000
0010
0000
,
0100
0000
1000
0000
,
0001
1000
0001
1000
,
0001
0000
0100
0000
0010
1000
0100
1000
,
0010
0000
0100
0000
0001
0010
0100
0010
,
0001
0000
0100
0000
0010
1000
0001
0010
,
0100
0000
0010
0000
0001
0100
0010
1000
,
0001
0000
0011
0000
0010
0100
1000
0100
,
0010
0000
0101
0000
0001
0010
0100
1000
,
0010
0000
1010
0000
0010
1000
0100
0001
,
0100
0000
0110
0000
0010
1000
0100
0010
,
0100
0000
1000
0000
0001
0100
0010
0100
,
0001
0000
0010
0000
0100
1000
0100
0010
,
0001
0000
1000
0000
0010
0100
0001
0100
,
0010
0000
1000
0000
0001
0010
0100
0010
,
0001
0000
0101
0000
0100
0010
1000
0001
,
0010
0000
0011
0000
0010
0100
1000
0010
,
0100
0000
1001
0000
0100
0010
0001
0100
,
0010
1010
1001
0101
,
0001
0000
0100
0000
0010
0000
1000
0100
,
1000
0000
0010
0000
0100
0000
0001
0010
,
0001
0000
0100
0000
0010
0000
1000
0100
,
1000
0000
0001
0010
0001
0000
0100
0010
,
0100
0001
0010
0001
,
1000
0100
0010
0100
,
1000
0001
0100
0010
,
1000
0001
1000
0001
,
1001
0000
0000
0000
;

//---------------dance-single - ----------------
#NOTES:
     dance-single:
     :
     Hard:
     7:
     0.459,0.404,0.000,0.000,0.147:
0010
1000
0100
0010
0100
1000
0001
0000
,
0100
0010
1000
0001
0010
0100
1000
0000
,
0100
0010
0001
1000
0010
0100
0001
0000
,
0100
0010
1000
0001
0010
0100
1000
0000
,
0100
0010
0001
1000
0010
0100
0010
0000
,
1000
0001
0010
0100
1000
0100
0010
0000
,
0010
0001
0100
1000
0100
0001
0010
0000
,
0001
0100
0010
1000
0001
0010
0100
1000
,
0001
0000
0100
0000
0010
1000
0001
0010
,
0100
0000
1000
0000
0100
0010
0001
1000
,
0010
0000
0100
0000
0001
0100
0010
1000
,
0001
0010
0100
1000
0100
0010
0001
1000
,
0010
0000
0100
0000
0001
0010
0100
1000
,
0100
0000
0010
0000
0001
0100
0010
1000
,
0001
0000
0010
0000
1000
0100
0001
0100
,
1000
0000
0010
0000
0100
0001
0100
0010
,
1000
0100
0010
0100
1000
0001
0100
0010
,
1000
0001
0010
0100
1000
0100
0010
0000
,
0010
0001
0100
1000
0100
0001
0010
0100
,
1000
0010
0100
0001
0010
0100
1000
0000
,
0010
0100
0001
0100
0010
1000
0001
0000
,
0010
0100
1000
0001
0010
0100
1000
0000
,
0010
0000
0100
0000
,
0001
0000
1000
0000
0000
0010
0000
0000
0100
0000
0000
0001
0000
0000
0010
0000
,
0001
0000
0100
0000
0010
0000
0000
0000
1000
0000
0000
0010
0000
0000
1000
0000
,
0010
0000
0000
0100
0000
0000
0001
0000
0100
0000
0000
0001
0000
0000
0010
0000
,
0100
0000
0000
1000
0000
0000
0100
0000
0010
0000
0000
0001
0000
0000
0100
0000
,
0010
0000
0000
1000
0000
0000
0001
0000
0100
0000
0000
0001
0000
0000
0010
0000
,
0100
0000
0000
1000
0000
0000
0010
0000
0100
0000
0000
0001
0000
0000
0100
0000
,
0010
0000
0000
1000
0000
0000
0100
0000
0010
0000
0000
0001
0000
0000
0100
0000
,
0010
0000
0000
0100
0000
0000
0001
0000
1000
0000
0000
0100
0000
0000
0010
0000
,
0100
0000
0000
1000
0000
0000
0001
0000
0100
0000
0000
0010
0000
0000
0100
0000
,
0001
0010
0100
1000
0100
0010
0001
1000
,
0010
0100
0001
0010
0100
1000
0100
0000
,
0010
0001
0100
1000
0100
0001
0010
1000
,
0100
0001
0100
0010
1000
0001
0010
0000
,
0100
1000
0000
0100
0000
0000
1000
0000
0010
0000
0000
0100
0000
0000
0001
0000
,
0010
0000
0000
0001
0000
0000
0100
0000
0010
0000
0000
1000
0000
0000
0100
0000
,
1000
0000
0000
0001
0000
0000
0100
0000
0010
0000
0000
0100
0000
0000
0001
0000
,
0010
0000
0000
0100
0000
0000
1000
0000
0010
0000
0000
0100
0000
0000
0001
0000
,
0010
0000
0001
0000
0100
0010
1000
0001
,
0010
0000
0100
0000
1000
0010
0100
0001
,
1000
0000
0010
0000
0100
0001
0010
0100
,
0010
0000
0001
0000
0100
0010
1000
0001
,
0010
0001
0100
0010
,
1000
0100
0010
0100
,
1000
0001
0100
0010
,
1000
0000
0100
0000
0000
1000
0000
0000
0001
0000
0000
0010
0000
0000
0001
0000
,
1000
0000
0000
0000
;
