#TITLE:axs;
#SUBTITLE:;
#ARTIST:DJ TECHNORCH;
#TITLETRANSLIT:;
#SUBTITLETRANSLIT:;
#ARTISTTRANSLIT:;
#CREDIT:;
#BANNER:;
#BACKGROUND:bgblack.PNG;
#LYRICSPATH:;
#CDTITLE:;
#MUSIC:axs (DDR Edit).mp3;
#OFFSET:-0.700;
#SAMPLESTART:51.910;
#SAMPLELENGTH:12.000;
#SELECTABLE:YES;
#BPMS:0.000=300.000,128.000=150.000,192.000=300.000,320.000=150.000;
#STOPS:;
#BGCHANGES:;

//---------------dance-single - ----------------
#NOTES:
     dance-single:
     :
     Beginner:
     3:
     0.141,0.448,0.082,0.020,0.000:
0000
0000
0000
0000
,
0000
0000
0000
0000
,
0000
0000
0000
0000
,
0000
0000
0000
0000
,
0000
0000
0000
0000
,
0000
0000
0000
0000
,
0000
0000
0000
0000
,
0000
0000
0000
0000
,
1000
0000
0000
0000
,
0100
0000
0000
0000
,
1000
0000
0000
0000
,
0010
0000
0000
0000
,
0100
0000
0000
0000
,
0001
0000
0000
0000
,
2002
0000
0000
0000
,
3003
0000
0000
0000
,
1000
0000
1000
0000
,
1000
0000
0000
0000
,
0100
0000
0100
0000
,
0100
0000
0000
0000
,
0001
0000
0001
0000
,
0001
0000
0000
0000
,
0010
0000
0010
0000
,
0010
0000
0000
0000
,
1000
0000
0001
0000
,
1000
0000
0000
0000
,
0010
0000
0100
0000
,
0010
0000
0000
0000
,
1000
0000
0001
0000
,
1000
0000
0001
0000
,
1001
0000
1001
0000
,
1001
0000
1001
0000
,
1001
0000
0000
0000
,
0000
0000
0000
0000
,
0000
0000
0000
0000
,
0000
0000
0000
0000
,
0000
0000
0000
0000
,
0000
0000
0000
0000
,
0000
0000
0000
0000
,
0000
0000
0000
0000
,
1000
0000
0000
0000
,
0010
0000
0000
0000
,
0100
0000
0000
0000
,
0001
0000
0000
0000
,
1001
0000
0000
0000
,
1000
0000
0000
0000
,
0010
0000
0000
0000
,
0100
0000
0000
0000
,
0001
0000
0000
0000
,
0100
0000
0000
0000
,
0001
0000
0000
0000
,
0100
0000
0000
0000
,
0010
0000
0000
0000
,
1000
0000
0000
0000
,
0010
0000
0000
0000
,
1000
0000
0000
0000
,
0100
0000
0000
0000
,
0010
0000
0000
0000
,
0001
0000
0000
0000
,
1000
0000
0000
0000
,
0010
0000
0000
0000
,
0100
0000
0000
0000
,
0001
0000
0000
0000
,
1000
0000
0000
0000
,
0001
0000
0000
0000
,
1000
0000
0000
0000
,
0001
0000
0000
0000
,
1000
0000
0000
0000
,
0010
0000
0000
0000
,
0100
0000
0000
0000
,
0010
0000
0000
0000
,
0100
0000
0000
0000
,
0001
0000
0100
0000
,
0001
0000
0000
0000
,
1000
0000
0010
0000
,
1000
0000
0000
0000
,
0010
0000
0100
0000
,
0010
0000
0000
0000
,
1000
0000
0001
0000
,
1000
0000
0000
0000
,
0010
0000
0000
0000
,
1000
0000
0000
0000
,
0100
0000
0000
0000
,
0001
0000
0000
0000
,
0010
0000
0000
0000
,
0100
0000
0000
0000
,
1000
0000
0000
0000
,
0001
0000
0000
0000
,
1001
0000
0000
0000
;

//---------------dance-single - ----------------
#NOTES:
     dance-single:
     :
     Easy:
     6:
     0.336,0.544,0.132,0.031,0.000:
0000
0000
0000
0000
,
0000
0000
0000
0000
,
0000
0000
0000
0000
,
0000
0000
0000
0000
,
0000
0000
0000
0000
,
0000
0000
0000
0000
,
0000
0000
0000
0000
,
0000
0000
0000
0000
,
1000
0000
0100
0000
,
1000
0000
0010
0000
,
0100
0000
0001
0000
,
0010
0000
0100
0000
,
1000
0000
0100
0000
,
0010
0000
0001
0000
,
2002
0000
0000
0000
,
3003
0000
0000
0000
,
1000
0000
0100
0000
,
0001
0000
0100
0000
,
1000
0000
0010
0000
,
0001
0000
0010
0000
,
1000
0000
0100
0000
,
0010
0000
0100
0000
,
0001
0000
0100
0000
,
0010
0000
0100
0000
,
0001
0000
1000
0000
,
0010
0000
0100
0000
,
0001
0000
0010
0000
,
0100
0000
1000
0000
,
0001
0000
1000
0000
,
0001
0000
1000
0000
,
0001
1000
0001
1000
,
0001
1000
0001
1000
,
0002
0000
0000
0000
,
0000
0000
0000
0000
,
0000
0000
0000
0000
,
0003
0000
0000
0000
,
1000
0000
0000
0000
,
0010
0000
0000
0000
,
0110
0110
0000
0000
,
0000
0000
0000
0000
,
1000
0010
1000
1000
,
0001
0100
0010
1000
,
0001
0000
0010
0000
0100
0000
1000
0001
,
0100
0001
1000
0100
,
0001
1000
0000
0001
0000
1000
0000
0001
,
0000
0100
0000
0010
0000
0100
0000
0010
,
0000
1000
0000
0100
0000
0010
0000
0001
,
1000
0000
0001
0000
0100
0010
1000
0001
,
0010
0000
0100
0000
,
1000
0001
0100
0010
,
1000
0000
0010
0000
,
0100
0001
0010
0100
,
1000
0000
0100
0000
,
0010
0001
0100
1000
,
0100
0000
0001
0000
,
0100
0010
1000
0001
,
0010
0000
0100
0000
,
1000
0100
0010
0001
,
1000
0000
0010
0000
,
0100
0001
0100
0010
,
1000
0001
0010
0100
,
1000
0100
0010
0001
,
1000
0001
1000
0001
,
1000
0001
1000
0001
,
1000
0000
0001
0000
,
0101
0000
0101
0000
,
1000
0000
0001
0000
,
1100
0000
1100
0000
,
0001
0000
1000
0000
,
0011
0000
0011
0000
,
1000
0000
0001
0000
,
1010
0000
1010
0000
,
0010
0000
0100
0000
,
0010
0000
0100
0000
,
0001
0000
1000
0000
,
0001
0000
1000
0000
,
0010
0000
0001
0000
,
0100
0000
1000
0000
,
0100
0000
0001
0000
,
0010
0000
1000
0000
,
1100
0000
0100
0000
0010
0000
0001
0100
,
0001
0000
0010
0000
0100
0000
1000
0100
,
1000
0000
0010
0000
0100
0000
0001
1000
,
0001
0000
0010
0000
0001
0000
0100
0010
,
0100
0000
0001
0000
0010
0000
0100
1000
,
0100
0000
0010
0000
0001
0000
0100
1000
,
0100
0000
0001
0000
0010
0000
0100
1000
,
0010
0100
0001
1000
,
1001
0000
0000
0000
,
0010
0000
0000
0000
;

//---------------dance-single - ----------------
#NOTES:
     dance-single:
     :
     Medium:
     7:
     0.444,0.773,0.153,0.051,0.000:
0000
0000
0000
0000
,
0000
0000
0000
0000
,
0000
0000
0000
0000
,
0000
0000
0000
0000
,
0000
0000
0000
0000
,
0000
0000
0000
0000
,
0000
0000
0000
0000
,
0000
0000
0000
0000
,
1000
0000
0100
0000
,
1000
0000
0010
0000
,
0100
0000
0001
0000
,
0100
0000
0010
0000
,
1000
0000
0001
0000
,
0010
0000
0100
0000
,
2002
0000
0000
0000
,
3003
0000
0000
0000
,
0010
1000
0010
0000
,
0010
1000
0010
0000
,
0100
0001
0100
0000
,
0100
0001
0100
0000
,
0001
0010
0001
0000
,
0001
0010
0001
0000
,
1000
0100
1000
0000
,
1000
0100
1000
0000
,
0010
0100
0001
0000
,
0010
0100
1000
0000
,
0100
0010
0001
0000
,
1000
0010
0100
0000
,
0001
0001
1000
1000
,
0001
0001
1000
1000
,
0001
1000
0001
1000
,
0001
1000
0001
1000
,
2002
0000
0000
0000
,
0000
0000
0000
0000
,
0000
0000
0000
0000
,
0000
0000
0000
0000
,
3003
0000
0000
0000
,
0000
0000
0000
0000
,
0010
0000
0000
0000
,
0000
0000
0000
0000
,
1100
0000
1000
0000
0010
1000
0010
0000
,
0100
0000
0101
0000
0001
0010
0001
0000
,
0010
0000
0011
0000
0010
0100
0010
0000
,
0100
0000
1100
0000
1000
0010
1000
0000
,
1000
0001
0000
0001
0000
0001
0000
0001
,
0000
0010
0000
1000
0000
1000
0000
1000
,
0000
0100
0000
0010
0000
0010
0000
0010
,
0100
0010
0100
0010
0100
0010
0100
0010
,
0100
0001
0100
0010
,
1000
0000
0010
0000
1000
0100
1000
0100
,
1000
0001
0010
0100
,
1000
0000
0100
0000
0010
0001
0010
0001
,
0010
0001
0100
0010
,
1000
0000
0001
0000
0100
0001
0100
0000
,
0001
0010
0100
1000
,
0100
0000
0010
0000
0001
1000
0001
0000
,
0100
0010
1000
0001
,
0010
0100
1000
0100
,
0010
0001
1000
0010
,
0100
0001
0100
0010
,
1000
0001
0010
0100
,
1000
0001
0010
0100
,
1000
0001
1000
0001
1000
0001
1000
0001
,
1000
0010
1000
0001
1000
0010
1000
0100
,
1000
0000
0001
0000
0010
0000
0100
1000
,
0000
1000
0000
0000
0001
0000
0010
0000
,
0100
0000
1000
0000
0010
0100
0000
0001
,
0000
1000
0000
0000
0001
0100
0001
0000
,
0010
0000
0100
0000
1000
0000
0100
0010
,
0000
0010
0000
0000
0100
0000
0001
0000
,
0100
0000
1000
0000
0010
1000
0000
0001
,
0000
0100
0000
0001
0100
0001
0000
0000
,
0101
0000
0000
0000
1010
0000
0000
0010
,
0000
0100
0000
0000
0011
0000
0000
0000
,
1100
0000
0000
0000
0001
0100
0000
0010
,
0000
1000
0000
0000
0100
1000
0000
0000
,
0011
0000
0000
0000
1100
0000
0000
0001
,
0000
0100
0000
0000
1100
0000
0000
0000
,
1010
0000
0000
0000
0010
0100
0000
0001
,
1000
0002
0000
0000
,
1003
0000
0100
0000
1000
0010
1000
0000
,
0001
0000
0010
0000
0100
1000
0100
0000
,
0010
0000
0001
0000
0100
0010
1000
0000
,
0010
0000
0100
0000
0001
0010
0100
0000
,
1000
0000
0001
0000
0100
0010
1000
0000
,
0100
0000
0001
0000
0100
1000
0100
0000
,
0010
0000
0001
0000
0100
0010
1000
0000
,
0001
0000
0010
0000
0100
1000
0000
0000
,
1001
0000
0000
0000
,
0100
0100
0000
0000
;

//---------------dance-single - Copied from----------------
#NOTES:
     dance-single:
     Copied from:
     Hard:
     10:
     0.725,1.000,0.591,0.041,0.423: // measure 1
0000
0000
0000
0000
,  // measure 2
0000
0000
0000
0000
,  // measure 3
0000
0000
0000
0000
,  // measure 4
0000
0000
0000
0000
,  // measure 5
0000
0000
0000
0000
,  // measure 6
0000
0000
0000
0000
,  // measure 7
0000
0000
0000
0000
,  // measure 8
0000
0000
0000
0000
,  // measure 9
0001
0100
0001
0100
,  // measure 10
0010
1000
0010
1000
,  // measure 11
0001
0010
0001
0010
,  // measure 12
0100
1000
0100
1000
,  // measure 13
0001
0100
0010
1000
,  // measure 14
0001
0010
0100
1000
,  // measure 15
0010
0000
0000
0010
0100
0000
0000
0001
,  // measure 16
1000
0002
0000
0000
0000
0000
0003
0000
,  // measure 17
1000
0000
0100
0000
1000
0100
1000
0000
,  // measure 18
0010
0000
0100
0000
0010
0001
0010
0000
,  // measure 19
0100
0000
0001
0000
0100
0001
0100
0000
,  // measure 20
0001
0000
0010
0000
0001
1000
0001
0000
,  // measure 21
0010
0000
0100
0000
1000
0010
1000
0000
,  // measure 22
0010
0000
0100
0000
0001
0010
0001
0000
,  // measure 23
0010
0000
0001
0000
0010
0001
0010
0000
,  // measure 24
0100
0000
1000
0000
0100
1000
0100
0000
,  // measure 25
0010
0001
1000
0010
,  // measure 26
0100
0001
0100
0010
,  // measure 27
1000
0001
0010
0100
,  // measure 28
1000
0100
0010
0001
,  // measure 29
1000
0010
1000
0000
0010
0001
0010
0000
,  // measure 30
0100
1000
0100
0000
0001
0100
0001
0000
,  // measure 31
1000
0001
1000
0001
1000
0001
1000
0001
,  // measure 32
1000
0001
1000
0001
1000
0001
1000
0001
,  // measure 33
2000
0000
0000
0000
,  // measure 34
0000
0000
0000
0000
,  // measure 35
0000
0000
0000
0000
,  // measure 36
0000
0000
0000
0000
,  // measure 37
3000
0000
0000
0000
,  // measure 38
0000
0000
0000
0000
,  // measure 39
0110
0110
0000
0000
,  // measure 40
0000
0000
0000
0000
,  // measure 41
1100
0000
1000
0010
0000
0100
0000
0001
0000
0010
0000
0001
0010
0000
0001
0000
,  // measure 42
0101
0000
0100
0010
0000
1000
0000
0001
0000
0010
0000
0100
1000
0000
0010
0000
,  // measure 43
0011
0000
1000
0010
0000
0100
0000
0001
0000
0100
0000
0010
1000
0000
0001
0000
,  // measure 44
1001
0000
1000
0100
0000
0001
0000
0010
0000
0001
0000
1000
0010
0000
0100
0000
,  // measure 45
0101
0000
0001
0010
0000
0100
0000
1000
0000
0100
0000
0010
0001
0000
1000
0000
,  // measure 46
0010
0000
0100
0001
0000
0100
0000
0010
0000
1000
0000
0001
0010
0000
0001
0000
,  // measure 47
1000
0000
0010
0100
0000
0001
0000
0010
0000
0100
0000
1000
0100
0000
0010
0000
,  // measure 48
0001
0010
0001
0010
0100
1000
0100
1000
0001
0100
0010
1000
0001
0010
0100
1000
,  // measure 49
0001
0000
0100
0010
0000
1010
0000
0110
,  // measure 50
0000
0101
0000
0001
0010
0000
0001
0000
,  // measure 51
0100
0000
0010
1000
0000
1100
0000
0011
,  // measure 52
0000
0101
0000
0001
0010
0000
0001
0000
,  // measure 53
0100
0000
0010
1000
0000
1010
0000
0101
,  // measure 54
0000
0011
0000
0001
0010
0000
0100
0000
,  // measure 55
1000
0000
0010
0100
0000
0101
0000
0011
,  // measure 56
0000
1100
0000
0100
0010
0000
0001
0000
,  // measure 57
1000
0000
0010
0100
0000
0101
0000
0001
,  // measure 58
0010
0100
0000
1000
0001
0000
0010
0000
,  // measure 59
0011
0000
0001
0100
0010
1000
0100
0000
,  // measure 60
0100
1000
0000
1000
0010
0000
0100
0000
,  // measure 61
0001
0100
0001
0100
0010
1000
0010
1000
,  // measure 62
0001
1000
0001
1000
0100
0010
0100
0000
,  // measure 63
0001
1000
0001
0100
0010
1000
0001
0010
,  // measure 64
0100
1000
0010
0100
0001
1000
0100
0010
,  // measure 65
0001
0000
0100
0010
0000
1010
0000
1100
,  // measure 66
0000
0011
0000
0001
0100
0000
0010
0000
,  // measure 67
1000
0000
0100
0010
0000
0110
0000
1100
,  // measure 68
0000
0101
0000
0001
0010
0001
0000
0100
,  // measure 69
0010
0000
1000
0100
0000
1100
0000
0011
,  // measure 70
0000
0101
0000
0001
0010
0001
0000
0100
,  // measure 71
0010
0000
1000
0100
0000
1100
0000
0011
,  // measure 72
0000
0101
0000
0001
0010
0001
0100
0010
,  // measure 73
1000
0000
0100
1000
0000
0011
0000
0101
,  // measure 74
0000
1010
0000
0100
1000
0000
0010
0000
,  // measure 75
0100
0000
0001
0010
0000
1100
0000
0011
,  // measure 76
0000
0101
0000
0100
0010
1000
0000
0100
,  // measure 77
1000
0000
0100
0010
0000
0011
0000
0101
,  // measure 78
0000
1010
0000
1000
0100
0010
0001
0100
,  // measure 79
0010
0000
1000
0100
0000
0010
0000
0001
,  // measure 80
0200
0020
0000
0000
0000
0000
0330
0000
,  // measure 81
1000
0000
0100
0010
0000
0011
0000
0101
0000
0110
0000
0010
1000
0000
0100
0000
,  // measure 82
1000
0000
0010
0100
0000
0101
0000
0011
0000
1001
0000
1000
0010
0000
0100
0000
,  // measure 83
0001
0000
0010
0001
0000
0101
0000
0110
0000
1010
0000
1000
0100
0000
1000
0000
,  // measure 84
0010
0000
0100
0001
0000
0011
0000
1100
0000
1010
0000
0010
0100
0000
0001
0000
,  // measure 85
0010
0000
0001
0010
0000
0100
0000
1000
0000
0001
0000
0100
0010
0000
1000
0000
,  // measure 86
0001
0000
0010
0100
0000
1000
0000
0100
0000
0010
0000
0001
0100
0000
0010
0000
,  // measure 87
1000
0000
0010
0100
0000
0001
0000
0100
0000
0010
0000
1000
0001
0000
0010
0000
,  // measure 88
0100
0000
1000
0100
0000
0010
0000
0001
0000
0100
0000
0010
1000
0000
1100
0000
,  // measure 89
0011
0000
0000
0000
,  // measure 90
1001
1001
0000
0000
;
