#TITLE:夜桜;
#SUBTITLE:;
#ARTIST:彩音 feat. 小宮真央;
#TITLETRANSLIT:Yozakura;
#SUBTITLETRANSLIT:;
#ARTISTTRANSLIT:;
#CREDIT:;
#BANNER:banner.png;
#BACKGROUND:bgblack.PNG;
#LYRICSPATH:;
#CDTITLE:;
#MUSIC:Yozakura.mp3;
#OFFSET:-7.640;
#SAMPLESTART:72.950;
#SAMPLELENGTH:12.000;
#SELECTABLE:YES;
#BPMS:0.000=135.000;
#STOPS:;
#BGCHANGES:;

//---------------dance-single - ----------------
#NOTES:
     dance-single:
     :
     Beginner:
     1:
     0.084,0.123,0.000,0.000,0.000:
1000
0000
0000
0000
,
0100
0000
0000
0000
,
0001
0000
0000
0000
,
0100
0000
0000
0000
,
0000
0000
0000
0000
,
0010
0000
0000
0000
,
0010
0000
0000
0000
,
0001
0000
0000
0000
,
0001
0000
0000
0000
,
0100
0000
0000
0000
,
0100
0000
0000
0000
,
1000
0000
0000
0000
,
1000
0000
0000
0000
,
0010
0000
0000
0000
,
1000
0000
0000
0000
,
0010
0000
0000
0000
,
1000
0000
0000
0000
,
0001
0000
0000
0000
,
0100
0000
0000
0000
,
0001
0000
0000
0000
,
0100
0000
0000
0000
,
0010
0000
0000
0000
,
1000
0000
0000
0000
,
0100
0000
0000
0000
,
0001
0000
0000
0000
,
0010
0000
0000
0000
,
0001
0000
0000
0000
,
0100
0000
0000
0000
,
1000
0000
0000
0000
,
0010
0000
0010
0000
,
0010
0000
0000
0000
,
0100
0000
0100
0000
,
0100
0000
0000
0000
,
0001
0000
0001
0000
,
0001
0000
0000
0000
,
1000
0000
1000
0000
,
1000
0000
0000
0000
,
0010
0000
1000
0000
,
0010
0000
1000
0000
,
0001
0000
0100
0000
,
0001
0000
0000
0000
,
0010
0000
0001
0000
,
0010
0000
0001
0000
,
1000
0000
0100
0000
,
1000
0000
0000
0000
,
1000
0000
0000
0000
,
0100
0000
0000
0000
,
0010
0000
0000
0000
,
0001
0000
0000
0000
,
0010
0000
0000
0000
,
0100
0000
0000
0000
,
1000
0000
0000
0000
,
0001
0000
0001
0000
;

//---------------dance-single - ----------------
#NOTES:
     dance-single:
     :
     Easy:
     2:
     0.168,0.197,0.009,0.009,0.000: // measure 1
1000
0000
1000
0000
,  // measure 2
0001
0000
0001
0000
,  // measure 3
0100
0000
0100
0000
,  // measure 4
0020
0000
0000
0000
,  // measure 5
0030
0000
0000
0000
,  // measure 6
0010
0010
0010
0000
,  // measure 7
0010
0010
0010
0000
,  // measure 8
1000
1000
1000
0000
,  // measure 9
1000
1000
1000
0000
,  // measure 10
0100
0100
0100
0000
,  // measure 11
0100
0100
0100
0000
,  // measure 12
0001
0001
0001
0000
,  // measure 13
0001
0001
0001
0000
,  // measure 14
0001
0000
0100
0000
,  // measure 15
0001
0000
0000
0000
,  // measure 16
1000
0000
0010
0000
,  // measure 17
1000
0000
0000
0000
,  // measure 18
0010
0000
0100
0000
,  // measure 19
0010
0000
0000
0000
,  // measure 20
1000
0000
0001
0000
,  // measure 21
1000
0000
0000
0000
,  // measure 22
0010
0000
0001
0000
,  // measure 23
0100
0000
1000
0000
,  // measure 24
0010
0000
1000
0000
,  // measure 25
0100
0000
0001
0000
,  // measure 26
0010
0000
0100
0000
,  // measure 27
1000
0000
0001
0000
,  // measure 28
0100
0000
0010
0000
,  // measure 29
1000
0000
0001
0000
,  // measure 30
0010
0010
0010
0000
,  // measure 31
0001
0001
0001
0000
,  // measure 32
0100
0100
0100
0000
,  // measure 33
1000
1000
1000
0000
,  // measure 34
0010
0100
0010
0000
,  // measure 35
0100
0010
0100
0000
,  // measure 36
0001
1000
0001
0000
,  // measure 37
1000
0000
0000
0000
,  // measure 38
0001
0000
0100
0000
,  // measure 39
0010
1000
0010
0000
,  // measure 40
0100
0000
0001
0000
,  // measure 41
0010
0001
0010
0000
,  // measure 42
0100
0000
1000
0000
,  // measure 43
0010
0100
0010
0000
,  // measure 44
1000
0000
0100
0000
,  // measure 45
0001
0100
1000
0000
,  // measure 46
0010
0010
0100
0100
,  // measure 47
0001
1000
0001
0000
,  // measure 48
1000
1000
0001
0001
,  // measure 49
0100
0000
0010
0000
,  // measure 50
1000
0000
0100
0000
,  // measure 51
0010
0001
0010
0000
,  // measure 52
0100
0000
1000
0000
,  // measure 53
0001
0000
1001
0000
;

//---------------dance-single - ----------------
#NOTES:
     dance-single:
     :
     Medium:
     5:
     0.275,0.296,0.009,0.019,0.000:
1000
0000
0100
0000
,
0010
0001
0010
0000
,
0100
0000
1000
0000
,
0002
0000
0003
0000
,
0000
0000
0000
0000
,
1000
0000
0100
0000
0010
0001
0010
0000
,
0100
0000
1000
0000
0010
1000
0010
0000
,
0100
0000
0001
0000
1000
0100
1000
0000
,
0010
0000
0100
0000
0001
0100
0001
0000
,
0010
0000
0001
0000
1000
0010
1000
0000
,
0010
0000
0100
0000
0001
1000
0001
0000
,
0010
0000
0100
0000
1000
0001
0100
0000
,
0010
0000
0100
0001
1000
0001
1000
0000
,
0001
0000
0100
0000
0010
1000
0010
0000
,
1000
0100
0010
0000
,
0010
0000
0100
0000
1000
0001
0100
0000
,
0010
0100
0001
0000
,
0010
0000
0001
0000
0100
0010
0100
0000
,
0010
1000
0100
0000
,
1000
0000
0010
0000
0100
0001
0100
0000
,
0001
0010
0100
0000
,
0010
0001
0010
0001
,
0100
0001
0100
0000
,
0010
1000
0010
1000
,
0100
1000
0100
0000
,
1000
0010
0100
0001
,
0010
0001
0100
0000
,
0010
1000
0001
0010
,
0100
1000
0100
0000
,
0010
0000
0001
0000
0100
0010
1000
0000
,
0100
0010
0100
0000
,
1000
0000
0010
0000
0100
0001
0010
0000
,
0001
0100
0010
0000
,
1000
0010
1000
0010
,
0100
0001
0100
0001
,
0010
0001
0010
0001
,
1000
0000
0100
0000
,
0010
0001
0100
0010
,
1000
0100
1000
0100
1000
0000
0000
0000
,
0010
0100
0001
0010
,
0100
0000
0000
0000
,
0010
0001
0100
0010
,
0100
0001
0100
0001
0100
0000
0001
0000
,
0010
0100
1000
0001
,
0200
0000
0310
0000
,
0010
1000
0001
0100
,
0010
1000
0010
1000
0010
0000
0100
0000
,
0001
0010
0100
1000
,
0100
0010
0001
0000
,
1000
0010
0100
0001
,
0010
0001
0010
0001
0010
0000
0100
0000
,
1000
0001
0100
0010
,
1000
0000
1001
0000
;

//---------------dance-single - ----------------
#NOTES:
     dance-single:
     :
     Hard:
     7:
     0.408,0.398,0.019,0.066,0.061:
0010
1000
0001
0100
,
0010
0100
0001
0010
0100
0000
1000
0001
,
0100
0010
0100
0001
,
2002
0000
0000
0000
,
3003
0000
0000
0000
,
1000
0000
0010
0000
0000
0100
0000
0000
0001
0000
0000
0010
0000
0000
0100
0000
,
0000
0000
0100
0000
0000
0010
0000
0000
0001
0000
0000
0100
0000
0000
0010
0000
,
0000
0000
1000
0000
0000
0100
0000
0000
0010
0000
0000
0001
0000
0000
0010
0000
,
0001
0100
0010
1000
0001
0100
0010
0000
,
0000
0000
1000
0000
0000
0010
0000
0000
0100
0000
0000
0001
0000
0000
0010
0000
,
0000
0000
0001
0000
0000
0010
0000
0000
0001
0000
0000
0100
0000
0000
0010
0000
,
0000
0000
1000
0000
0000
0100
0000
0000
1000
0000
0000
0010
0000
0000
0100
0000
,
0001
0010
0001
0100
0010
1000
0001
0000
,
0010
0001
0100
0010
1000
0001
0010
0100
,
1000
0000
0100
0000
0010
0001
0100
0010
,
1000
0001
0010
0001
0000
0100
0010
1000
,
0001
0000
0010
0000
0100
0000
0010
0001
,
0100
0010
1000
0001
0010
0100
1000
0100
,
0010
0000
0001
0100
0000
0100
0001
0010
,
0100
1000
0010
0100
0000
0100
0001
0010
,
0000
0001
0100
0010
1000
0001
0010
0100
,
1000
0001
0100
0010
1000
0001
0010
0100
,
2000
0000
0000
0000
0000
3010
0100
0001
,
0010
0001
0100
0010
0000
1000
0100
1000
,
0020
0100
0000
0100
,
0030
0100
0001
0010
0001
0100
0010
1000
,
0001
0000
0010
0001
0000
0001
0100
0010
,
1000
0001
0010
0100
0000
0100
0010
0001
,
0000
0100
0010
0000
1000
0000
0001
0000
,
0100
0001
0010
0100
1000
0010
0100
0001
,
0010
0001
0100
0010
1000
0001
0010
0000
,
0010
0001
0100
0010
1000
0001
0010
0001
,
0100
0010
1000
0001
0010
0100
1000
0000
,
1000
0010
0100
0000
0100
0001
0010
0000
,
0010
0001
0100
0000
0100
0010
1000
0000
,
0001
0000
0010
0000
0001
0100
0010
0000
,
2000
0000
0000
3000
,
0001
0100
0010
1000
,
0001
0010
0100
0010
0001
0000
0100
0010
,
1000
0001
0010
0100
,
1000
0000
0000
1000
0010
0000
0100
0000
0001
0000
0010
0000
0100
0000
0010
0000
,
0001
0100
0010
1000
,
0001
0010
0100
1000
0010
0000
0100
0001
,
0010
0001
0100
0010
,
1000
0100
1000
0000
0010
0100
0001
0010
,
0100
1000
0010
0100
,
0010
1000
0001
0010
0100
0000
0010
0001
,
0100
0010
1000
0001
,
0010
0001
0100
0010
1000
0001
0010
0001
,
0100
0010
1000
0001
,
0010
0100
0010
0001
1000
0000
0010
0100
,
0001
0010
0100
1000
,
0001
0100
0220
0000
,
0330
0000
0000
0000
;
