#TITLE:Yoshi Come Here!;
#SUBTITLE:;
#ARTIST:fether;
#TITLETRANSLIT:;
#SUBTITLETRANSLIT:;
#ARTISTTRANSLIT:;
#CREDIT:;
#BANNER:yoshicomehere-banner.png;
#BACKGROUND:yoshicomehere-background.png;
#LYRICSPATH:;
#CDTITLE:dreamix1dl200cdtitle.png;
#MUSIC:fether - yoshi come here!.mp3;
#OFFSET:-1.100;
#SAMPLESTART:12.840;
#SAMPLELENGTH:12.000;
#SELECTABLE:YES;
#BPMS:0.000=164.000,227.000=175.000;
#STOPS:;
#BGCHANGES:;

//---------------dance-single - ----------------
#NOTES:
     dance-single:
     :
     Beginner:
     1:
     0.125,0.230,0.034,0.045,0.000:
1000
0000
0000
0000
,
0100
0000
0000
0000
,
0010
0000
0000
0000
,
0001
0000
0000
0000
,
1000
0000
0000
0000
,
0010
0000
0000
0000
,
0100
0000
0000
0000
,
0001
0000
0000
0000
,
1000
0000
0000
0000
,
0010
0000
0000
0000
,
0100
0000
0000
0000
,
0001
0000
0000
0000
,
1000
0000
0000
0000
,
0001
0000
0000
0000
,
0100
0000
0000
0000
,
0010
0000
0000
0000
,
0010
0000
0000
0000
,
1000
0000
0000
0000
,
0001
0000
0000
0000
,
0100
0000
0000
0000
,
0010
0000
0000
0000
,
0100
0000
0000
0000
,
0001
0000
0000
0000
,
1000
0000
0000
0000
,
2000
0000
0000
0000
,
0000
0000
3000
0000
,
0020
0000
0000
0000
,
0000
0000
0030
0000
,
0200
0000
0000
0000
,
0000
0000
0300
0000
,
0002
0000
0000
0000
,
0000
0000
0003
0000
,
0100
0000
0000
0000
,
0001
0000
0000
0000
,
0010
0000
0000
0000
,
1000
0000
0000
0000
,
0100
0000
0000
0000
,
1000
0000
0000
0000
,
0010
0000
0000
0000
,
0001
0000
0000
0000
,
0001
0000
0001
0000
,
0001
0000
0001
0000
,
0100
0000
0100
0000
,
0100
0000
0100
0000
,
0010
0000
0010
0000
,
0010
0000
0010
0000
,
1000
0000
1000
0000
,
1000
1000
1000
1000
,
1000
0000
0000
0000
,
0001
0000
0000
0000
,
0010
0000
0000
0000
,
0100
0000
0000
0000
,
0010
0000
0000
0000
,
1000
0000
0000
0000
,
0010
0000
0010
0000
,
0001
0000
0001
0000
,
1000
1000
1000
1000
,
0000
0000
0000
0000
,
1001
1001
1001
0000
;

//---------------dance-single - ----------------
#NOTES:
     dance-single:
     :
     Easy:
     3:
     0.254,0.427,0.169,0.045,0.000:
1000
0000
1000
0000
,
0100
0000
0100
0000
,
0010
0000
0010
0000
,
0001
0000
0001
0000
,
1000
0000
1000
0000
,
0010
0000
0010
0000
,
0100
0000
0100
0000
,
0001
0000
0001
0000
,
1000
0000
1000
0000
,
0010
0000
0010
0000
,
0100
0000
0100
0000
,
0001
0000
0001
0000
,
1000
0000
1000
0000
,
0001
0000
0001
0000
,
0100
0000
0100
0000
,
0010
0000
0010
0000
,
0010
0000
1000
0000
,
1000
0000
0001
0000
,
0001
0000
0100
0000
,
0100
0000
0010
0000
,
0010
0000
1000
0000
,
0100
0000
0010
0000
,
0001
0000
0001
0000
,
1000
0000
1000
0000
,
2001
0000
0001
0000
,
0001
0000
3001
0000
,
1002
0000
1000
0000
,
1000
0000
1003
0000
,
0210
0000
0010
0000
,
0010
0000
0310
0000
,
0120
0000
0100
0000
,
0100
0000
0130
0000
,
0100
0000
0100
0000
,
0001
0000
0001
0000
,
0010
0000
0010
0000
,
1000
0000
1000
0000
,
0100
0000
0100
0000
,
1000
0000
1000
0000
,
0010
0000
0010
0000
,
0001
0000
0001
0000
,
0001
0001
0001
0001
,
0001
0001
0001
0001
,
0100
0100
0100
0100
,
0100
0100
0100
0100
,
0010
0010
0010
0010
,
0010
0010
0010
0010
,
1000
1000
1000
1000
,
1001
1001
1001
1001
,
1000
0000
1000
0000
,
0001
0000
0001
0000
,
0010
0000
0010
0000
,
0100
0000
0100
0000
,
0010
0000
0010
0000
,
1000
0000
1000
0000
,
0010
0010
0010
0010
,
0001
0001
0001
0001
,
1001
1001
1001
1001
,
0000
0000
0000
0000
,
0110
1001
0110
0000
;

//---------------dance-single - ----------------
#NOTES:
     dance-single:
     :
     Medium:
     5:
     0.446,0.591,0.438,0.404,0.000:
1000
0010
1000
0000
,
0001
0100
0001
0000
,
0010
0100
0010
0000
,
1000
0001
1000
0000
,
1000
0100
0010
0001
,
0010
0100
1000
0100
,
1000
0010
0001
0100
,
1000
0010
0001
0100
,
0010
1000
0100
0001
,
0201
0001
0301
0000
,
1020
1000
1030
0000
,
0120
0100
0100
0130
,
1000
0100
0010
0001
,
1002
1000
1003
0001
,
0102
0103
1020
1030
,
1001
1001
2002
3003
,
1000
0010
0001
0100
,
0102
0100
0103
0000
,
2010
0010
3010
0000
,
2001
0001
0001
3001
,
0010
0001
1000
0100
,
0210
0010
0310
0100
,
0201
0301
2010
3010
,
0110
0110
0220
0330
,
2001
0001
0001
0001
,
0001
0001
3001
0000
,
1002
1000
1000
1000
,
1000
1000
1003
0000
,
0210
0010
0010
0010
,
0010
0010
0310
0000
,
0120
0100
0100
0100
,
0100
0100
0100
0130
,
1000
0010
0001
0100
,
0102
0100
0103
0000
,
2010
0010
3010
0000
,
2001
0001
0001
3001
,
0010
0001
1000
0100
,
0210
0010
0310
0100
,
0201
0301
2010
3010
,
0110
0110
0220
0330
,
1000
0000
0100
0000
,
0010
0000
0001
0000
,
1000
0000
0010
0000
,
0100
0001
0100
0001
,
0100
0000
0010
0000
,
1000
0000
0100
0000
,
0010
0000
0001
0000
,
0100
1000
0010
0001
,
0001
0100
0010
1000
,
1020
1000
1030
0000
,
0102
0100
0103
0000
,
0012
0010
0010
0013
,
0100
0010
0001
1000
,
2100
0100
3100
1000
,
2000
3100
2000
3010
,
0002
0103
0002
0013
,
1100
0101
0011
1010
,
0000
0000
0000
0000
,
1000
0001
1000
0001
1000
0000
0000
0000
;

//---------------dance-single - ----------------
#NOTES:
     dance-single:
     :
     Hard:
     7:
     0.520,0.559,0.101,0.416,0.045:
1000
0000
0001
0000
1000
0001
0000
0000
0001
0000
0000
0001
0000
0000
0001
0000
,
0010
0000
0100
0000
0010
0100
0000
0000
0100
0000
0000
0100
0000
0000
0100
0000
,
0001
0000
0010
0000
0001
0010
0000
0000
0010
0000
0000
0010
0000
0000
0010
0000
,
0100
0000
1000
0000
0100
1000
0000
0000
1000
0000
0000
1000
0000
0000
1000
0000
,
0010
1000
0100
1000
,
0010
0001
0100
0001
,
0010
0100
1000
0010
,
0100
0001
1000
0001
,
1000
0000
0100
1000
0100
0000
0010
0000
,
0001
0010
0200
0300
,
0010
0000
1000
0100
0002
0000
0003
0000
,
1000
0010
0100
0001
1000
0000
1001
0000
,
0010
0000
0001
0010
0001
0000
1000
0000
,
0100
1000
0002
0003
,
1000
0100
0001
0000
0001
0100
1000
0000
,
0010
1000
0001
0100
0020
0000
0030
0000
,
0010
0000
0001
0010
0001
0000
1000
0000
,
0100
1000
0002
0003
,
1000
0000
0010
0001
0200
0000
0300
0000
,
0010
1000
0001
0100
0010
0000
0110
0000
,
1000
0000
0100
1000
0100
0000
0010
0000
,
0001
0010
0200
0300
,
0010
0001
0100
0000
0100
0001
0010
0000
,
1000
0010
0100
0001
2000
0000
3000
0000
,
2000
3100
0020
0031
,
0200
0310
2000
3100
,
0020
0031
0200
0310
,
2000
3001
0100
0000
,
0020
1030
0002
0103
,
0002
0013
0200
1300
,
0020
1030
0002
0103
,
0020
2030
3002
0203
,
0301
0000
0010
0100
0010
0000
0001
0000
,
1000
0001
0020
0030
,
0001
0000
0100
0010
2000
0000
3000
0000
,
0100
0001
0010
1000
0100
0000
1100
0000
,
0001
0000
1000
0001
1000
0000
0100
0000
,
0010
0100
2000
3000
,
0100
0010
1000
0000
1000
0010
0100
0000
,
0001
0100
1000
0010
0002
0000
0003
0000
,
1000
0000
0100
1000
0100
0000
1000
0000
,
0010
0000
0100
0001
0100
0000
0001
0000
,
0100
0000
0010
1000
0010
0000
0100
0000
,
0001
0100
0010
0100
0001
0000
1000
0000
,
0010
0000
0100
0001
1000
0000
0100
0000
,
0010
0000
0100
1000
0010
0000
0100
0000
,
0001
0010
0001
0010
0100
1000
0100
1000
,
0200
0320
0032
2003
,
3001
0000
0010
0100
0010
0000
0001
0000
,
1000
0001
0020
0030
,
0001
0000
0100
0010
2000
0000
3000
0000
,
0100
0001
0010
1000
0100
0000
1100
0000
,
0001
0000
1000
0001
1000
0000
0100
0000
,
0010
0100
2000
3000
,
0100
0010
1000
0000
1000
0010
0100
0000
,
0001
0100
1000
0000
1000
0100
0001
0000
,
0001
0010
1000
0000
1000
0010
0002
0000
,
0000
0000
0000
0003
,
1100
1010
0101
0011
1001
0000
0000
0000
;
