#TITLE:YAMANOTE-LINE;
#SUBTITLE:;
#ARTIST:Pinky;
#TITLETRANSLIT:;
#SUBTITLETRANSLIT:;
#ARTISTTRANSLIT:;
#CREDIT:;
#BANNER:yamanotelinebanner.png;
#BACKGROUND:bgblack.PNG;
#LYRICSPATH:;
#CDTITLE:;
#MUSIC:YAMANOTE-LINE.mp3;
#OFFSET:-5.380;
#SAMPLESTART:16.010;
#SAMPLELENGTH:12.000;
#SELECTABLE:YES;
#BPMS:0.000=90.000;
#STOPS:;
#BGCHANGES:;

//---------------dance-single - ----------------
#NOTES:
     dance-single:
     :
     Beginner:
     1:
     0.092,0.103,0.000,0.043,0.000:
0010
0000
0000
0000
,
0010
0000
0000
0000
,
0100
0000
0000
0000
,
0100
0000
0000
0000
,
2000
0000
3000
0000
,
0002
0000
0003
0000
,
0020
0000
0030
0000
,
0200
0000
0300
0000
,
0001
0000
0001
0000
,
1000
0000
1000
0000
,
0010
0000
0010
0000
,
0100
0000
0100
0000
,
0001
0000
0001
0000
,
1000
0000
1000
0000
,
0010
0000
0010
0000
,
0100
0000
0100
0000
,
0001
0000
0001
0000
,
0100
0000
0100
0000
,
1000
0000
1000
0000
,
0010
0000
0010
0000
,
0100
0000
0100
0000
,
0001
0000
0001
0000
,
0010
0000
0010
0000
,
0100
0000
0100
0100
,
0100
0000
0010
0000
,
0100
0000
0000
0000
,
0001
0000
1000
0000
,
0001
0000
0000
0000
,
1000
0000
0010
0000
,
0100
0000
0001
0000
,
0010
0000
0001
0000
,
0100
0000
1000
0000
,
0010
0000
0000
0000
;

//---------------dance-single - ----------------
#NOTES:
     dance-single:
     :
     Easy:
     2:
     0.198,0.176,0.011,0.150,0.000:
1000
1000
1000
0000
,
0010
0010
0010
0000
,
0100
0100
0100
0000
,
0001
0001
0001
0000
,
0010
0001
0020
0030
,
0100
1000
0200
0300
,
0010
0001
0200
0300
,
0010
1000
0200
0300
,
0001
0100
2000
3000
,
0100
0001
0020
0030
,
1000
0100
0002
0003
,
0001
0010
2000
3000
,
0010
0010
0001
0001
,
0100
0100
0010
0010
,
1000
1000
0100
0100
,
0010
0010
0001
0001
,
1000
0100
2000
0000
,
3001
0010
0002
0000
,
0103
1000
0200
0000
,
0310
0001
0020
0000
,
1030
0100
0010
0001
,
0001
0010
0100
1000
,
0010
0001
0100
0001
,
0010
0000
1000
0000
0100
0100
0100
0000
,
0010
1000
0010
1000
,
0001
0100
0001
0100
,
0010
1000
0100
0001
,
0010
0001
0100
1000
,
0010
0100
0010
0100
,
0001
1000
0001
1000
,
0010
1000
0100
0010
,
0001
0010
0100
1000
,
2002
0000
0000
0000
0000
0000
0000
0000
3000
0000
0000
0003
0000
0000
0000
0000
;

//---------------dance-single - Copied from----------------
#NOTES:
     dance-single:
     Copied from:
     Medium:
     4:
     0.247,0.246,0.032,0.000,0.005:
1000
0000
0100
0000
1000
1000
0000
0000
,
0010
0000
0100
0000
0010
0010
0000
0000
,
1000
0000
0100
0000
0001
0001
0000
0000
,
0010
0000
0001
0000
0100
0100
0000
0000
,
0010
1000
0010
0010
,
0100
0001
0100
0100
,
0001
0010
0001
0001
,
1000
0100
1000
1000
,
0010
1000
0010
0000
0010
1000
0010
0000
,
0100
0001
0100
0000
0100
0001
0100
0000
,
0001
0010
0001
0000
0001
0010
0001
0000
,
1000
0100
1000
0000
1000
0100
1000
0000
,
0010
0000
1000
0000
0010
0010
0000
0000
,
0100
0000
0001
0000
0100
0100
0000
0000
,
0001
0000
0010
0000
0001
0001
0000
0000
,
1000
0000
0100
0000
1000
1000
0000
0000
,
0010
0000
1000
0000
0100
1000
0000
0000
,
0010
0000
0001
0000
0100
0001
0000
0000
,
0010
0000
0100
0000
1000
0001
0000
0000
,
0100
0000
0010
0000
0100
0001
0000
0000
,
1000
0000
0100
0000
1000
0010
1000
0000
,
0010
0000
0100
0000
0001
0100
0001
0000
,
0010
0000
0100
0000
1000
0010
0100
0000
,
0001
0000
1000
0000
1001
0110
1001
0000
,
0001
0000
0100
0000
0010
1000
0010
0000
,
0100
0000
0001
0000
0010
0100
1000
0000
,
0100
0000
0010
0000
0001
0100
1000
0000
,
0100
0000
0010
0000
0001
1000
0010
0000
,
0100
0000
0001
0000
0100
0001
0100
0100
,
0010
0000
1000
0000
0100
1000
0010
0010
,
1000
0000
0100
0000
0010
0001
0100
0100
,
0010
0000
1000
0000
0100
1000
0001
0000
,
0001
0000
0100
0000
0001
0000
1000
0000
0010
0000
1000
0010
0000
0000
0000
0000
;

//---------------dance-single - ----------------
#NOTES:
     dance-single:
     :
     Hard:
     6:
     0.365,0.369,0.011,0.011,0.236: // measure 1
1000
0100
0000
0010
0001
0010
0000
0010
,  // measure 2
0100
1000
0000
0001
0100
0010
0000
1000
,  // measure 3
0010
0100
0000
0001
0010
0100
0000
0010
,  // measure 4
0001
0100
0000
0010
1000
0001
0000
1001
,  // measure 5
0010
1000
0100
0001
0100
0000
1000
0000
,  // measure 6
0010
0001
0100
1000
0100
0000
0001
0000
,  // measure 7
0010
0100
1000
0100
0010
0000
0001
0000
,  // measure 8
0100
0010
1000
0001
0010
0000
0100
0000
,  // measure 9
1000
0100
1000
0000
0010
0000
0100
0000
0001
0010
0001
0000
0100
0000
0010
0000
,  // measure 10
1000
0100
0010
0000
0100
0000
1000
0000
0001
0100
0010
0000
0100
0000
0001
0000
,  // measure 11
0010
0001
0010
0000
0100
0000
1000
0000
0100
1000
0010
0000
0100
0000
0001
0000
,  // measure 12
0010
0100
1000
0000
0100
0000
0010
0000
0001
0100
0010
0000
1000
0000
0100
0000
,  // measure 13
0000
0000
1000
0000
0100
0000
0010
0000
0001
0000
0010
0100
0000
0000
0000
0000
,  // measure 14
0000
0000
1000
0000
0010
0000
0100
0000
0001
0010
0001
0100
0000
0000
0000
0000
,  // measure 15
0000
0000
0010
0000
1000
0000
0100
0000
0010
0000
0010
0100
0000
0000
0000
0000
,  // measure 16
0000
0000
1000
0000
0001
0000
0100
0000
0010
0100
0001
1000
0000
0000
0000
0000
,  // measure 17
0000
0000
0001
0000
0010
0000
0001
0000
0100
0010
1000
0001
0000
0000
0000
0000
,  // measure 18
0000
1000
0100
0010
0000
0100
0000
0000
1000
0001
1000
0001
0000
0000
0000
0000
,  // measure 19
0000
0000
0001
0000
0100
0000
0010
0000
1000
0010
0100
0001
0000
0000
0000
0000
,  // measure 20
0000
0000
1000
0000
0001
1000
0000
1000
0001
0000
0100
0000
0010
0000
0000
0000
,  // measure 21
1000
0100
1000
0100
0010
0001
0010
0001
,  // measure 22
0100
1000
0100
0001
0010
0100
1000
0000
,  // measure 23
1000
0010
0001
0010
1000
0100
0010
0100
,  // measure 24
1000
0000
0001
0000
0100
0000
0010
0000
1000
0001
1000
0001
0020
0000
0030
0000
,  // measure 25
1000
0000
0000
0100
0000
0000
1000
0000
0001
0000
0000
0000
0100
0000
0000
0000
,  // measure 26
0010
0000
0000
1000
0000
0000
0001
0000
0010
0000
0001
0100
0000
0000
0000
0000
,  // measure 27
0010
0000
0000
1000
0000
0000
0100
0000
1000
0000
0001
0000
0100
0000
0000
0000
,  // measure 28
0010
0000
0000
0100
0000
0000
0001
0000
0010
0000
0000
0100
0000
0000
1000
0000
,  // measure 29
0100
0000
0000
0010
0000
0000
0001
0000
0100
0000
0010
0000
0100
0000
0000
0000
,  // measure 30
0001
0000
0100
0000
0010
0000
1000
0000
0100
0000
0010
0001
0000
0000
0000
0000
,  // measure 31
0000
0000
0000
0010
0000
0100
1000
0000
0001
0000
0100
0000
0010
0000
0000
0000
,  // measure 32
0000
0000
1000
0000
0010
0000
0100
0000
0001
0010
0001
0100
0000
0010
1000
0000
,  // measure 33
0001
0100
0010
0000
1000
0000
0010
0100
0001
0010
0100
1000
0000
0000
0000
0000
;
