#TITLE:Wiinter dream;
#SUBTITLE:;
#ARTIST:Yamajet;
#TITLETRANSLIT:;
#SUBTITLETRANSLIT:;
#ARTISTTRANSLIT:;
#CREDIT:;
#BANNER:banner.png;
#BACKGROUND:bgblack.PNG;
#LYRICSPATH:;
#CDTITLE:;
#MUSIC:Wiinter dream -cut-.mp3;
#OFFSET:-0.060;
#SAMPLESTART:41.850;
#SAMPLELENGTH:12.000;
#SELECTABLE:YES;
#BPMS:0.000=132.000;
#STOPS:;
#BGCHANGES:0.000=wiinter dream.avi=1.000=1=1=0,
148.000=bgblack.PNG=1.000=0=0=1,
99999=-nosongbg-=1.000=0=0=0 // don't automatically add -songbackground-
;

//---------------dance-single - ----------------
#NOTES:
     dance-single:
     :
     Beginner:
     1:
     0.099,0.142,0.000,0.000,0.000: // measure 1
0000
0000
0000
0000
,  // measure 2
0000
0000
0000
0000
,  // measure 3
0000
0000
0000
0000
,  // measure 4
0000
0000
0000
0000
,  // measure 5
0000
0000
0000
0000
,  // measure 6
1000
0000
0000
0000
,  // measure 7
0010
0000
0000
0000
,  // measure 8
0100
0000
0000
0000
,  // measure 9
0001
0000
0000
0000
,  // measure 10
0010
0000
0010
0000
,  // measure 11
0010
0000
0000
0000
,  // measure 12
0100
0000
0100
0000
,  // measure 13
0100
0000
0000
0000
,  // measure 14
0001
0000
0001
0000
,  // measure 15
0001
0001
0001
0001
,  // measure 16
0000
0001
0000
0001
,  // measure 17
0000
0100
0000
0100
,  // measure 18
0000
0010
0000
0010
,  // measure 19
0000
1000
0000
1000
,  // measure 20
0000
0010
0000
0010
,  // measure 21
0000
0100
0000
0100
,  // measure 22
0000
0001
0000
0001
,  // measure 23
0000
0010
0000
0010
,  // measure 24
0010
0000
0010
0000
,  // measure 25
0010
0000
0000
0000
,  // measure 26
0100
0000
0100
0000
,  // measure 27
0100
0000
0000
0000
,  // measure 28
0001
0000
0001
0000
,  // measure 29
0001
0000
0000
0000
,  // measure 30
1000
0000
1000
0000
,  // measure 31
1000
0000
0000
0000
,  // measure 32
0010
0000
1000
0000
,  // measure 33
0100
0000
0000
0000
,  // measure 34
0010
0000
0001
0000
,  // measure 35
0100
0000
0000
0000
,  // measure 36
0010
0000
1000
0000
,  // measure 37
0001
0000
0000
0000
,  // measure 38
0001
0000
1000
0000
,  // measure 39
0010
0000
0000
0000
,  // measure 40
0100
0000
0000
0000
;

//---------------dance-single - ----------------
#NOTES:
     dance-single:
     :
     Easy:
     3:
     0.207,0.230,0.000,0.012,0.000: // measure 1
0000
0000
0000
0000
,  // measure 2
0000
0000
0000
0000
,  // measure 3
0000
0000
0000
0000
,  // measure 4
0000
0000
0000
0000
,  // measure 5
0000
0000
0000
0000
,  // measure 6
1000
0100
1000
1000
,  // measure 7
0001
0010
0001
0001
,  // measure 8
0100
0010
0100
0100
,  // measure 9
0010
0000
0000
0000
,  // measure 10
1000
0100
0010
0001
,  // measure 11
0001
0010
0100
1000
,  // measure 12
0000
1000
0010
0100
,  // measure 13
0001
0000
0000
0001
,  // measure 14
0010
0001
0100
0010
,  // measure 15
1000
0001
1000
0001
,  // measure 16
0000
0100
0010
0100
,  // measure 17
0001
1000
0001
1000
,  // measure 18
0001
0010
0100
0010
,  // measure 19
0001
0100
0010
1000
,  // measure 20
0001
0010
1000
0010
,  // measure 21
0001
0100
1000
0100
,  // measure 22
0010
0000
0000
0000
,  // measure 23
0010
0010
0010
0010
,  // measure 24
0001
0100
1000
0100
,  // measure 25
0001
0010
1000
0010
,  // measure 26
0001
0100
0001
0100
,  // measure 27
0010
1000
0010
1000
,  // measure 28
0001
0000
0100
0000
,  // measure 29
0001
0010
0100
0000
,  // measure 30
1000
0000
0010
0000
,  // measure 31
0100
0010
1000
0000
,  // measure 32
0010
1000
0100
0010
,  // measure 33
0001
0010
1000
0010
,  // measure 34
0001
0100
1000
0100
,  // measure 35
0010
0001
1000
0010
,  // measure 36
0100
0001
0100
0000
,  // measure 37
0010
1000
0001
0000
,  // measure 38
0001
0010
0100
1000
,  // measure 39
0100
0010
0001
0000
,  // measure 40
0200
0000
0000
0000
,  // measure 41
0000
0000
0000
0000
,  // measure 42
0000
0000
0000
0000
,  // measure 43
0300
0000
0000
0000
;

//---------------dance-single - ----------------
#NOTES:
     dance-single:
     :
     Medium:
     4:
     0.282,0.281,0.012,0.049,0.000: // measure 1
0000
0000
0000
0000
,  // measure 2
0000
0000
0000
0000
,  // measure 3
0000
0000
0000
0000
,  // measure 4
0000
0000
0000
0000
,  // measure 5
0000
0000
0000
0000
,  // measure 6
1000
0100
0010
0001
,  // measure 7
0010
0100
1000
0010
,  // measure 8
0100
0000
0001
0000
0010
0100
0010
0000
,  // measure 9
0200
0000
0000
0300
,  // measure 10
0010
0000
1000
0000
0100
1000
0100
0000
,  // measure 11
0010
0000
0001
0000
0100
0001
0100
0000
,  // measure 12
0010
0000
1000
0000
0001
0010
0001
0000
,  // measure 13
1000
1000
1000
1000
,  // measure 14
0010
0000
1000
0000
0100
0010
0100
0000
,  // measure 15
1000
0000
0001
0000
1000
0001
1000
0001
,  // measure 16
0000
1000
0010
0100
,  // measure 17
0001
0000
0100
0000
0010
1000
0001
0000
,  // measure 18
0010
0000
0100
0000
1000
0100
0010
0000
,  // measure 19
0001
0000
0100
0000
0010
1000
0001
0000
,  // measure 20
0010
0000
0100
0000
0010
0001
0100
0000
,  // measure 21
0010
0000
1000
0000
0100
0010
0100
0000
,  // measure 22
1000
0000
0001
0000
,  // measure 23
0100
0010
0100
0010
,  // measure 24
1000
0000
0100
0000
0010
0001
1000
0000
,  // measure 25
0010
0100
0001
0100
,  // measure 26
0010
0000
1000
0000
0100
0010
0100
0000
,  // measure 27
1000
0000
0001
0000
0100
0010
0100
0000
,  // measure 28
0001
0000
0010
0000
0001
1000
0010
0000
,  // measure 29
0100
0000
0001
0000
0010
0100
1000
0000
,  // measure 30
0100
0000
0010
0000
0001
1000
0010
0000
,  // measure 31
0100
0010
1001
0000
,  // measure 32
0001
0000
0100
0000
0001
0100
0001
0000
,  // measure 33
1000
0000
0010
0000
1000
0010
1000
0000
,  // measure 34
0010
0000
0100
0000
0010
0100
0010
0000
,  // measure 35
1000
0000
0001
0000
1000
0001
1000
0000
,  // measure 36
0001
0000
0100
0000
0010
1000
0010
0000
,  // measure 37
1000
0000
0100
0000
0010
0001
0100
0000
,  // measure 38
0010
0000
1000
0000
0001
0010
0100
0000
,  // measure 39
0010
0001
0100
0010
,  // measure 40
2000
0000
0000
0000
,  // measure 41
3020
0000
0000
0000
0000
0000
0000
0030
,  // measure 42
0200
0000
0000
0000
,  // measure 43
0300
0000
0000
0000
;

//---------------dance-single - ----------------
#NOTES:
     dance-single:
     :
     Hard:
     6:
     0.365,0.409,0.244,0.073,0.012: // measure 1
0000
0000
0000
0000
,  // measure 2
0000
0000
0000
0000
,  // measure 3
0000
0000
0000
0000
,  // measure 4
0000
0000
0000
0000
,  // measure 5
0000
0000
0000
0000
,  // measure 6
1010
0000
0101
0000
0001
0010
0001
0000
,  // measure 7
0011
0000
1100
0000
1000
0010
0100
0000
,  // measure 8
0101
0000
1010
0000
1000
0001
0010
0000
,  // measure 9
0220
0000
0000
0330
,  // measure 10
0010
0000
0001
0000
0100
0010
0100
0000
,  // measure 11
0001
0010
0001
1000
0100
0000
0010
0100
,  // measure 12
0000
1000
0000
0001
0000
0000
0000
0000
,  // measure 13
0100
0110
0010
0110
,  // measure 14
0010
1000
0100
1000
0001
0100
0010
0000
,  // measure 15
1000
1000
0001
0001
1000
0001
1000
0001
,  // measure 16
0000
1000
0001
0100
0000
0100
0010
1000
,  // measure 17
0000
1000
0001
0000
0010
0000
0100
0010
,  // measure 18
0000
0001
0100
0010
0000
1000
0100
0010
,  // measure 19
0000
0010
0100
1000
0000
0001
0100
0010
,  // measure 20
0000
0010
0100
0001
0000
0010
0100
1000
,  // measure 21
0000
0000
1000
0000
0001
0000
0000
0000
0100
0000
0000
0010
0000
0000
0100
0000
,  // measure 22
0000
0001
0100
0001
0000
1000
0010
1000
,  // measure 23
0010
0010
1001
1001
,  // measure 24
1000
0000
0100
0000
0010
0001
0100
0000
,  // measure 25
0010
1010
1100
0011
,  // measure 26
0101
0000
0001
0000
0100
0010
1000
0000
,  // measure 27
0001
0010
0100
1000
,  // measure 28
0010
0000
0100
0000
0001
1000
0100
0000
,  // measure 29
0010
0110
0001
1001
,  // measure 30
1000
0000
0010
0000
0100
0001
0010
0000
,  // measure 31
0100
0110
0100
1100
,  // measure 32
1000
0010
1000
0000
0001
0100
0001
0000
,  // measure 33
0010
0001
0010
0001
1000
0100
1000
0000
,  // measure 34
0010
1000
0010
0000
0100
0001
0100
0000
,  // measure 35
0001
0010
0100
1000
0100
0010
0001
0000
,  // measure 36
0100
0010
1000
0000
0010
0100
0001
0000
,  // measure 37
0010
0100
1000
0010
0100
0001
0010
0000
,  // measure 38
0010
0001
0100
0010
1000
0100
0010
0100
,  // measure 39
1000
0000
0001
0000
0100
0000
0000
0110
0000
0000
0000
0000
0020
0000
0000
0000
,  // measure 40
0230
0000
0000
0000
,  // measure 41
0302
0000
0000
0000
,  // measure 42
2003
0000
0000
0000
,  // measure 43
3000
0000
0000
0000
;
