#TITLE:WORLD END;
#SUBTITLE:;
#ARTIST:Ryo Ohnuki;
#TITLETRANSLIT:;
#SUBTITLETRANSLIT:;
#ARTISTTRANSLIT:;
#CREDIT:;
#BANNER:;
#BACKGROUND:;
#LYRICSPATH:;
#CDTITLE:;
#MUSIC:WORLD END.mp3;
#OFFSET:-10.100;
#SAMPLESTART:61.310;
#SAMPLELENGTH:12.000;
#SELECTABLE:YES;
#BPMS:0.000=95.000,79.000=47.500,80.000=95.000;
#STOPS:;
#BGCHANGES:;

//---------------dance-single - ----------------
#NOTES:
     dance-single:
     :
     Beginner:
     1:
     0.064,0.103,0.000,0.019,0.000:
1000
0000
0000
0000
,
0010
0000
0000
0000
,
0100
0000
0000
0000
,
0001
0000
0000
0000
,
0010
0000
0000
0010
,
0010
0000
0000
0000
,
0100
0000
0000
0100
,
0100
0000
0000
1000
,
1000
0000
0000
1000
,
1000
0000
0000
0000
,
0001
0000
0000
0001
,
0001
0000
0000
0100
,
0100
0000
0000
0000
,
0010
0000
0000
0000
,
1000
0000
0000
0000
,
0001
0000
0000
0000
,
0010
0000
0000
0000
,
0100
0000
0000
0000
,
1000
0000
0000
0002
,
0000
0000
0000
0003
,
0010
0010
0010
0000
,
0010
0000
0010
0000
,
0100
0000
0100
0000
,
0100
0100
0100
0000
,
0001
0000
0001
0000
,
0001
0000
0001
0000
,
1000
0000
1000
0000
,
1000
0000
1000
0000
,
0002
0000
0000
0000
,
0000
0000
0000
0000
,
0000
0000
0000
0000
,
0000
0000
0000
0000
,
0000
0000
0000
0000
,
0000
0000
0000
0000
,
0000
0000
0000
0000
,
0000
0000
0000
0000
,
0003
0000
0000
0000
;

//---------------dance-single - ----------------
#NOTES:
     dance-single:
     :
     Easy:
     2:
     0.107,0.153,0.000,0.086,0.000:
1000
0000
0100
0000
,
0010
0000
0001
0000
,
0100
0000
0010
0000
,
1000
0000
0001
0000
,
0010
0000
0001
0010
,
0001
0000
0100
0010
,
0100
0000
0010
1000
,
0010
0000
1000
0100
,
1000
0000
0010
0100
,
0001
0000
0010
0001
,
1000
0000
0010
0100
,
0001
0000
0010
0100
,
2000
0000
0000
0000
,
3020
0000
0000
0000
,
0230
0000
0000
0000
,
0302
0000
0000
0000
,
0023
0000
0000
0000
,
0032
0000
0000
0000
,
0203
0000
0000
0000
,
0020
0000
0000
0330
,
0010
0010
1000
1000
,
0010
1000
0010
0000
,
0100
0001
0100
0001
,
0010
0001
0010
0010
,
0100
1000
0010
0000
,
0010
1000
0100
0010
,
0001
0100
0001
0000
,
0010
0100
1000
0001
,
0020
0000
0000
0000
,
0000
0000
0000
0000
,
0000
0000
0000
0000
,
0000
0000
0000
0000
,
0000
0000
0000
0000
,
0000
0000
0000
0000
,
0000
0000
0000
0000
,
0000
0000
0000
0030
;

//---------------dance-single - ----------------
#NOTES:
     dance-single:
     :
     Medium:
     4:
     0.159,0.274,0.000,0.086,0.000:
1000
0010
0100
0001
,
0010
0001
0100
0010
,
1000
0010
0001
0100
,
0010
1000
0001
0010
,
0100
1000
0100
1000
,
1000
0010
0100
0010
,
0100
0001
0100
0001
,
0001
0010
0001
0010
,
0010
0100
1000
0010
,
1000
0100
0010
0001
,
0001
0100
0010
1000
,
0010
0100
0001
0010
,
0020
0000
0000
0000
,
0032
0000
0000
0000
,
0203
0000
0000
0000
,
0320
0000
0000
0000
,
2030
0000
0000
0000
,
3200
0000
0000
0000
,
0320
0000
0000
0000
,
0002
0000
0000
0033
,
0001
0010
0001
0000
0100
0000
0010
0000
,
1000
0100
1000
0000
0010
0000
0100
0000
,
0001
0010
0001
0000
0100
0010
1000
0000
,
0010
0000
0100
0000
0001
0000
1000
0001
,
1000
0010
1000
0001
0100
0001
0010
0000
,
0001
0100
0010
1000
0001
0010
0100
0100
,
0010
0001
0100
0010
1000
0001
0010
0000
,
0001
0100
0010
1000
0100
1000
0010
0100
,
0002
0000
0000
0000
,
0000
0000
0000
0000
,
0000
0000
0000
0000
,
0000
0000
0000
0000
,
0000
0000
0000
0000
,
0000
0000
0000
0000
,
0000
0000
0000
0000
,
0000
0000
0000
0000
,
0003
0000
0000
0000
;

//---------------dance-single - ----------------
#NOTES:
     dance-single:
     :
     Hard:
     7:
     0.358,0.428,0.038,0.105,0.238: // measure 1
0011
0001
0100
0010
1000
0100
1000
0010
,  // measure 2
1010
0010
0100
0001
0010
0100
1000
0010
,  // measure 3
0110
0100
0001
0010
0001
0100
1000
0100
,  // measure 4
0110
0001
0010
0001
0100
0010
1000
0100
,  // measure 5
1000
0010
1000
1000
0001
0100
0001
0010
,  // measure 6
0001
0100
0010
0010
1000
0100
1000
0010
,  // measure 7
0010
0100
0001
0010
0100
1000
0010
1000
,  // measure 8
0010
0100
0001
0010
0100
1000
0001
0001
,  // measure 9
0001
0100
0010
1000
0100
0010
0100
1000
,  // measure 10
0100
0010
0001
0100
0010
1000
0001
0010
,  // measure 11
0010
0001
0100
0010
1000
0100
0001
0100
,  // measure 12
0001
0010
0100
1000
0010
0100
0001
1000
,  // measure 13
0020
0000
0000
0000
0000
0000
0000
0000
0000
0000
0000
0000
0000
0000
0000
1000
,  // measure 14
2000
0000
0000
0000
0000
0000
0000
0000
0000
0000
0000
0000
0030
0000
0000
0100
,  // measure 15
0200
0000
0000
0000
0000
0000
0000
0000
0000
0000
0000
0000
3000
0000
0000
0010
,  // measure 16
0020
0000
0000
0000
0000
0000
0000
0000
0000
0000
0000
0000
0300
0000
0000
0001
,  // measure 17
0002
0000
0000
0000
0000
0000
0000
0000
0000
0000
0000
0000
0030
0000
0000
0100
,  // measure 18
0200
0000
0000
0000
0000
0000
0000
0000
0000
0000
0000
0000
0003
0000
0000
0010
,  // measure 19
0020
0000
0000
0300
,  // measure 20
2000
0000
0000
3030
,  // measure 21
1000
0000
0100
0000
0010
0000
0001
0000
0010
0100
1000
0000
0100
0010
0000
0001
,  // measure 22
1000
1000
0010
0000
0100
0000
0001
0000
0100
0010
1000
0000
0010
0100
0001
0010
,  // measure 23
0100
1000
0100
0000
0010
0000
0001
1000
0001
0000
0100
0000
0010
1000
0010
0000
,  // measure 24
0100
0001
0000
0010
0100
0000
1000
0010
0000
0100
0001
0000
0010
0100
1000
0100
,  // measure 25
0010
0001
1000
0010
0100
0000
0001
0100
0010
0000
1000
0000
0001
0010
0100
0000
,  // measure 26
0100
0010
0001
1000
0010
0000
0100
0001
0100
0000
0010
1000
0001
0000
0010
0000
,  // measure 27
0100
1000
0100
0000
0010
0000
0100
0001
1000
0000
0010
0000
0100
0001
0010
0000
,  // measure 28
0001
0010
0000
0010
0001
0000
0001
0100
0000
0100
0010
0000
1000
0001
1000
0001
,  // measure 29
2000
0010
0100
0001
,  // measure 30
0010
0001
0100
0010
,  // measure 31
0100
0000
0000
0001
0001
0000
0000
0010
0010
0000
0000
0000
0001
0000
0000
0000
,  // measure 32
0100
0000
0000
0010
0010
0000
0000
0100
0100
0000
0000
0001
3001
0000
0000
0000
,  // measure 33
0002
0100
0010
1000
,  // measure 34
0010
0000
0000
0100
0100
0000
0000
0010
0010
0000
0000
0100
0100
0000
0000
0000
,  // measure 35
1000
0100
0000
0100
1000
0010
0010
0010
,  // measure 36
0100
0000
0000
0010
0010
0000
0000
1000
1000
0000
0000
0010
0020
0000
0000
0000
,  // measure 37
0033
0000
0000
0000
;

//---------------dance-single - ----------------
#NOTES:
     dance-single:
     :
     Challenge:
     9:
     0.527,0.731,0.381,0.019,0.523: // measure 1
0010
0000
1000
0001
0010
0000
0001
0000
0100
0000
0010
0000
1000
0000
0001
0000
,  // measure 2
0010
0100
1000
0100
0010
0001
0100
0010
,  // measure 3
0110
0010
1000
0001
0010
0001
0100
0010
,  // measure 4
1010
0000
1000
0000
0100
0000
0010
0000
0100
0000
1000
0000
0001
0000
0100
0001
,  // measure 5
0100
0010
1000
0100
1000
0010
0110
0100
,  // measure 6
0101
0001
0010
0100
1000
0100
0010
0011
,  // measure 7
0101
0100
0010
1000
0001
0010
0110
0100
,  // measure 8
1100
1000
0010
0100
0001
0010
0011
0110
,  // measure 9
1100
1000
0010
1000
0100
0010
0011
0001
,  // measure 10
0101
0100
0010
1000
0001
0010
0100
1100
,  // measure 11
1010
0010
0100
0001
0010
0100
1100
1000
,  // measure 12
1010
0010
0100
0001
0010
0100
1100
0011
,  // measure 13
0002
0003
0000
0000
0000
0000
0000
0000
0000
0000
0000
0000
0000
0000
0000
0000
0000
0000
0000
0000
0000
0000
0000
0000
0000
0000
0000
0000
0000
0000
0000
0000
0000
0000
0000
0000
0000
0000
0000
0000
0000
0000
0000
0000
0000
0000
0000
0000
0000
0000
0000
0000
0000
0000
0000
0000
0000
0000
0000
0000
0000
0000
0000
0000
0000
0000
0000
0000
0000
0000
0000
0000
0000
0000
0000
0000
0000
0000
0000
0000
0000
0000
0000
0000
0000
0000
0000
0000
0000
0000
0000
0000
0000
0000
0000
0000
0000
0000
0000
0000
0000
0000
0000
0000
0000
0000
0000
0000
0000
0000
0000
0000
0000
0000
0000
0000
0000
0000
0000
0000
0000
0000
0000
0000
0000
0000
0000
0000
0000
0000
0000
0000
0000
0000
0000
0000
0000
0000
0000
0000
0000
0000
0000
0000
0000
0000
0000
0000
0000
0000
0000
0000
0000
0000
0000
0000
0000
0000
0000
0000
0000
0000
0000
0000
0000
0000
0000
0000
0000
0000
0000
0000
0000
0000
0000
0000
0100
0000
0000
0000
0000
0000
0000
0000
0000
0000
0000
0000
0000
0000
0000
0000
,  // measure 14
0010
0000
0000
0000
0000
0000
1000
0000
0000
0010
0000
0000
0000
0000
0000
1000
0000
0000
0000
0000
0000
0000
1000
0000
,  // measure 15
0100
0000
0000
0000
0000
0000
0100
0000
0000
1000
0000
0000
0100
0000
0000
0010
0000
0000
0000
0000
0000
0000
0010
0000
,  // measure 16
0001
0000
0000
0000
0000
0000
0000
0000
0000
0000
0000
0000
0100
0000
0000
0000
0000
0000
0010
0000
0000
0000
0000
0000
1000
0000
0000
0001
0000
0000
1000
0000
0000
0001
0000
0000
1000
0000
0000
0000
0000
0000
0001
0000
0100
0000
0000
0000
,  // measure 17
0010
0000
0000
0000
0000
0000
0000
0000
0000
0000
0000
0000
0100
0000
0000
0000
0000
0000
0010
0000
0000
1000
0000
0000
0000
0000
0000
1000
0000
0000
0010
0000
0000
0000
0000
0000
0100
0000
0000
0000
0000
0000
0000
0000
0001
0000
0000
0000
,  // measure 18
0010
0000
0000
0000
0000
0000
0010
0000
0000
0100
0000
0000
0010
0000
0000
0001
0000
0000
0100
0000
0000
0000
0100
0000
,  // measure 19
0001
0000
0000
0000
0000
0000
0000
0000
0000
0000
0000
0000
0100
0000
0000
0010
0000
0000
0000
0000
0000
0010
0000
0000
1000
0000
0000
0000
0000
0000
0010
0000
0000
0000
0000
0000
0100
0000
0000
0000
0000
0000
0001
0000
0000
0000
0020
0000
,  // measure 20
0000
0000
0000
0000
0000
0000
0000
0000
0000
0000
0000
0000
0000
0000
0000
0000
0000
0100
0030
0000
0000
0000
0000
0000
,  // measure 21
1000
0010
0100
0001
0011
0000
0010
0100
1000
0010
0110
0000
0100
0101
0000
0001
,  // measure 22
0011
0011
0000
0010
0000
0100
1100
0000
1000
0010
1010
0000
1000
0100
0010
0001
,  // measure 23
0101
0101
0100
0010
1000
0100
0110
0110
0010
0001
0100
0010
1010
1010
1000
0100
,  // measure 24
1000
0000
1010
0000
0000
0000
0010
0000
0110
0000
0000
0000
0100
0000
0101
0000
0000
0000
0001
0000
0011
0000
0000
0000
0001
0010
0001
0010
0100
1000
0100
1000
,  // measure 25
0010
0000
0100
0000
0001
0000
0010
0000
0100
1000
0100
1000
0100
0000
0010
0000
0001
0000
0100
0000
0010
1000
0010
1000
0010
0000
0100
0000
0000
0000
0100
0000
,  // measure 26
0001
0100
0001
0100
0001
0000
0010
0000
0100
0000
1000
0000
0010
1000
0010
1000
0010
0000
0100
0000
0001
0100
0001
0100
0001
0000
0010
0000
0100
0000
0010
0000
,  // measure 27
0001
0100
0001
0100
0001
0000
0010
0000
0100
0000
1000
0000
0010
0100
0010
0100
0010
0000
0100
0000
0001
0000
0010
0000
0100
1000
0100
1000
0100
0000
0010
0000
,  // measure 28
0001
0000
0101
0000
0000
0000
0100
0000
0110
0000
0000
0000
0010
0000
1010
0000
0000
0000
1000
0000
1100
0000
0000
0000
1000
0010
1000
0010
0100
0001
0000
0001
,  // measure 29
0100
0010
1000
0100
1000
0010
0100
0001
,  // measure 30
0010
0000
0000
0001
0100
0000
0100
0001
0000
0001
0010
0000
0100
0000
1000
0000
,  // measure 31
0010
0000
0000
0010
1000
0000
0000
1000
0100
0000
0010
0000
0100
0000
1000
0000
,  // measure 32
0001
0000
0000
0001
0100
0000
0000
0100
0010
0000
0100
0000
0001
0000
0010
0000
,  // measure 33
0100
0000
0000
0100
1000
0000
0000
1000
0010
0000
0100
0000
0001
0000
0010
0000
,  // measure 34
0001
0000
0000
0001
0100
0000
0000
0100
0010
0000
1000
0000
0001
0000
0010
0000
,  // measure 35
0100
0000
1000
0000
0100
1000
0100
0000
0010
0000
0001
0000
0100
0000
0001
0000
,  // measure 36
0010
0000
0000
0010
0100
0000
0000
0100
1000
0000
0000
1000
0001
0000
0000
0000
;
