#TITLE:UNIGURI;
#SUBTITLE:;
#ARTIST:SHiNKA;
#TITLETRANSLIT:;
#SUBTITLETRANSLIT:;
#ARTISTTRANSLIT:;
#CREDIT:;
#BANNER:;
#BACKGROUND:;
#LYRICSPATH:;
#CDTITLE:;
#MUSIC:UNIGURI.mp3;
#OFFSET:-4.940;
#SAMPLESTART:58.390;
#SAMPLELENGTH:12.000;
#SELECTABLE:YES;
#BPMS:0.000=100.000,8.000=200.000,71.500=100.000,88.000=200.000,120.000=100.000,136.000=200.000;
#STOPS:71.500=0.460
;
#BGCHANGES:;

//---------------dance-single - ----------------
#NOTES:
     dance-single:
     :
     Beginner:
     2:
     0.145,0.161,0.000,0.000,0.000: // measure 1
0000
0000
0000
0000
,  // measure 2
0000
0000
0000
0000
,  // measure 3
1000
0000
1000
0000
,  // measure 4
1000
0000
0000
0000
,  // measure 5
0010
0000
0010
0000
,  // measure 6
0010
0000
0010
0000
,  // measure 7
0100
0000
0100
0000
,  // measure 8
0100
0000
0000
0000
,  // measure 9
0001
0000
0001
0000
,  // measure 10
0001
0000
0001
0000
,  // measure 11
0010
0000
0010
0000
,  // measure 12
0010
0000
0000
0000
,  // measure 13
0100
0000
0100
0000
,  // measure 14
0100
0000
0100
0000
,  // measure 15
1000
0000
1000
0000
,  // measure 16
1000
0000
0000
0000
,  // measure 17
0001
0000
0001
0000
,  // measure 18
0001
0000
0001
0000
,  // measure 19
0001
0000
0000
0100
,  // measure 20
0100
0000
0010
0010
,  // measure 21
0010
0000
0000
1000
,  // measure 22
1000
0000
0000
0100
,  // measure 23
0100
0000
0100
0000
,  // measure 24
0100
0000
0100
0000
,  // measure 25
0010
0000
0010
0000
,  // measure 26
0010
0000
0010
0000
,  // measure 27
1000
0000
1000
0000
,  // measure 28
1000
0000
1000
0000
,  // measure 29
0001
0000
0001
0000
,  // measure 30
0001
0000
0001
0000
,  // measure 31
1000
0000
0010
0000
,  // measure 32
1000
0000
0010
0000
,  // measure 33
0100
0000
0001
0000
,  // measure 34
0100
0000
0001
0000
,  // measure 35
0010
0000
0010
0000
,  // measure 36
0010
0000
0010
0000
,  // measure 37
1000
0000
1000
0000
,  // measure 38
1000
0000
1000
0000
,  // measure 39
0100
0000
0100
0000
,  // measure 40
0100
0000
0100
0000
,  // measure 41
0001
0000
0001
0000
,  // measure 42
0001
0000
0001
0000
,  // measure 43
0010
0000
0010
0000
,  // measure 44
0010
0000
0010
0000
,  // measure 45
0001
0000
0001
0000
,  // measure 46
0001
0000
0001
0000
,  // measure 47
0100
0000
0100
0000
,  // measure 48
0100
0000
0100
0000
,  // measure 49
1000
0000
1000
0000
,  // measure 50
1000
0000
1000
0000
,  // measure 51
1000
0000
0000
0000
;

//---------------dance-single - ----------------
#NOTES:
     dance-single:
     :
     Easy:
     4:
     0.306,0.320,0.000,0.011,0.000: // measure 1
1000
0100
0010
0001
,  // measure 2
0001
0010
0100
1000
,  // measure 3
0001
0100
0001
0100
,  // measure 4
0010
1000
0010
1000
,  // measure 5
0001
0010
0100
1000
,  // measure 6
0010
0100
0001
1000
,  // measure 7
0010
1000
0010
1000
,  // measure 8
0001
0100
0001
0100
,  // measure 9
1000
0100
1000
0100
,  // measure 10
0010
0000
0010
0001
,  // measure 11
0100
0010
1000
0010
,  // measure 12
0100
0001
0100
0001
,  // measure 13
0010
0001
0010
0001
,  // measure 14
1000
0010
0100
0001
,  // measure 15
0100
0010
0100
0010
,  // measure 16
1000
0001
1000
0001
,  // measure 17
0010
0100
1000
0001
,  // measure 18
0100
0000
0010
0000
1000
0000
0001
0001
,  // measure 19
0001
0000
0010
0000
0100
1000
0010
0000
,  // measure 20
1000
0000
0010
0000
0100
0001
0010
0000
,  // measure 21
0001
0000
0100
0000
0010
1000
0001
0000
,  // measure 22
0010
0000
0100
0000
1000
0001
0100
0000
,  // measure 23
0010
1000
0010
1000
,  // measure 24
0001
0100
0001
0100
,  // measure 25
0010
1000
0001
0010
,  // measure 26
0100
1000
0010
0100
,  // measure 27
0001
1000
0001
1000
,  // measure 28
0010
0100
0010
0100
,  // measure 29
0001
0010
0001
0100
,  // measure 30
0010
1000
0001
0010
,  // measure 31
0100
0000
0100
0000
,  // measure 32
0001
0000
0001
0000
,  // measure 33
1000
0000
1000
0000
,  // measure 34
0010
0000
0010
0010
,  // measure 35
0010
1000
0010
1000
,  // measure 36
0001
0100
0001
0100
,  // measure 37
0001
0010
0001
0010
,  // measure 38
0001
0100
0010
1000
,  // measure 39
0001
0010
0001
0010
,  // measure 40
0100
1000
0100
1000
,  // measure 41
0010
1000
0010
1000
,  // measure 42
0010
0100
0001
0010
,  // measure 43
0100
1000
0100
1000
,  // measure 44
0001
0010
0001
0010
,  // measure 45
0100
1000
0010
0100
,  // measure 46
0001
0010
0100
1000
,  // measure 47
0010
1000
0010
1000
,  // measure 48
0001
0100
0001
0100
,  // measure 49
0001
0010
0001
0010
,  // measure 50
0100
1000
0010
0100
,  // measure 51
0002
0000
0000
0000
,  // measure 52
0000
0000
0000
0000
,  // measure 53
0000
0000
0000
0000
,  // measure 54
0000
0000
0000
0000
,  // measure 55
0003
0000
0000
0000
;

//---------------dance-single - ----------------
#NOTES:
     dance-single:
     :
     Medium:
     6:
     0.389,0.355,0.000,0.011,0.048: // measure 1
0010
0000
1000
0000
0010
1000
0010
0000
,  // measure 2
0100
0000
0001
0000
0100
0001
0100
0000
,  // measure 3
0001
0000
0010
0001
0000
0001
0010
0000
,  // measure 4
0100
0000
1000
0100
0000
0100
1000
0000
,  // measure 5
0010
0000
1000
0010
0000
0010
1000
0000
,  // measure 6
0010
0000
0100
0010
0000
0010
1000
0001
,  // measure 7
0010
0000
0001
0100
0000
0100
0010
0000
,  // measure 8
1000
0000
0001
0010
0000
0010
0001
0000
,  // measure 9
0100
0000
0010
1000
0000
1000
0010
0000
,  // measure 10
0100
0000
0000
0010
0000
0000
0001
0000
0000
0000
0010
0000
0100
0000
1000
0000
,  // measure 11
0001
0000
0100
0001
0000
0001
0100
0000
,  // measure 12
0010
0000
1000
0010
0000
0010
1000
0000
,  // measure 13
0100
0000
1000
0100
0000
0100
1000
0000
,  // measure 14
0001
0000
0001
0100
0000
0100
0001
0010
,  // measure 15
0100
0000
1000
0010
0000
0010
1000
0000
,  // measure 16
0001
0000
0100
0001
0000
0001
0100
0000
,  // measure 17
0010
0000
1000
0010
0000
0010
1000
0000
,  // measure 18
0100
0000
0000
0001
0000
0000
0010
0000
0000
0000
0100
0000
1000
0000
0001
0000
,  // measure 19
0010
0000
0000
0000
1000
0000
0000
0000
0100
0000
0000
0000
1000
0010
0000
0000
,  // measure 20
0010
0000
0000
0100
0000
0000
0001
0000
0100
0000
0000
0000
0010
0000
1000
0000
,  // measure 21
0001
0000
0000
0010
0000
0000
0001
0000
0100
0000
0000
0010
0000
0000
1000
0000
,  // measure 22
0001
0000
0000
0000
0010
0000
0000
0001
0000
0000
0000
0000
0100
0000
0010
0000
,  // measure 23
1000
0010
1000
0001
,  // measure 24
0100
0000
0010
0000
1000
0001
0000
0001
,  // measure 25
1000
0000
0010
0100
0000
0001
0010
0000
,  // measure 26
0001
0000
0100
0000
0010
0000
1000
0001
,  // measure 27
1000
0000
0001
0010
0000
0010
0001
0000
,  // measure 28
1000
0000
0100
1000
0000
1000
0100
0000
,  // measure 29
0010
0000
0001
0000
1000
0010
0000
0010
,  // measure 30
1000
0001
0100
0010
,  // measure 31
1000
0000
0000
0001
0000
0000
0100
0000
,  // measure 32
0000
0010
0000
0000
1000
0000
0010
0000
,  // measure 33
0100
0000
0000
0001
0000
0000
0010
0000
,  // measure 34
0000
0100
0000
0000
1000
0000
0001
1000
,  // measure 35
0001
0000
0010
0001
0000
0001
0010
0000
,  // measure 36
0100
0000
1000
0100
0000
0100
1000
0000
,  // measure 37
0010
0000
1000
0010
0000
0010
1000
0000
,  // measure 38
0001
0000
0100
0001
0000
0001
0010
0100
,  // measure 39
1000
0000
0010
1000
0000
1000
0010
0000
,  // measure 40
0100
0000
0001
0100
0000
0100
0001
0000
,  // measure 41
0010
0000
0100
1000
0000
1000
0010
0000
,  // measure 42
1000
0000
0000
0010
0000
0000
0100
0000
0000
0000
0001
0000
0010
0000
0100
0000
,  // measure 43
1000
0000
1000
0100
0000
0010
0001
0000
,  // measure 44
0100
0000
0010
1000
0000
0001
0010
0000
,  // measure 45
0100
0000
1000
0100
0000
0010
0001
0000
,  // measure 46
1000
0000
0010
0100
0000
0001
0100
0010
,  // measure 47
1000
0000
0001
0010
0000
0100
1000
0000
,  // measure 48
0100
0000
0010
0001
0000
1000
0010
0000
,  // measure 49
0100
0000
0001
1000
0000
0010
0100
0000
,  // measure 50
0001
0000
0000
0010
0000
0000
0001
0000
0000
0000
0010
0000
0100
0000
0001
0000
,  // measure 51
2000
0000
0000
0000
,  // measure 52
0000
0000
0000
0000
,  // measure 53
0000
0000
0000
0000
,  // measure 54
0000
0000
0000
0000
,  // measure 55
0000
0000
0000
0000
,  // measure 56
3000
0000
0000
0000
;

//---------------dance-single - ----------------
#NOTES:
     dance-single:
     :
     Hard:
     9:
     0.626,0.769,0.022,0.011,0.264: // measure 1
1000
0000
0010
1000
0000
1000
0010
0000
0100
0000
0001
0100
0000
0100
0001
0000
,  // measure 2
0010
0000
0001
0010
0000
0010
0001
0000
0100
0000
0010
1000
0000
1000
0010
0000
,  // measure 3
0100
0001
0010
0100
1000
0100
0010
0000
,  // measure 4
0001
0010
0001
0100
0010
1000
0001
0000
,  // measure 5
0010
0001
0100
0010
1000
0001
0010
0000
,  // measure 6
0010
0000
0100
0000
1000
0000
0001
0000
0100
0000
0010
1000
0010
0000
1000
0000
,  // measure 7
0001
0010
0100
1000
0100
0010
0001
0000
,  // measure 8
0001
0100
0010
1000
0001
0010
0100
0000
,  // measure 9
1000
0100
0010
0001
1000
0010
0100
0000
,  // measure 10
0001
0000
0000
1000
0000
0000
0001
0000
0000
0000
0100
0000
0010
0000
1000
0000
,  // measure 11
0001
0010
0100
1000
0100
0010
0001
0000
,  // measure 12
0001
0100
0010
1000
0001
0010
0001
0000
,  // measure 13
0010
0001
0100
1000
0100
0001
0010
0000
,  // measure 14
0100
0000
1000
0000
0010
0000
0100
0000
0001
0000
0010
0100
0010
0000
0001
0000
,  // measure 15
0100
0010
1000
0001
0010
0100
1000
0000
,  // measure 16
1000
0100
0010
0001
1000
0010
0100
0000
,  // measure 17
0001
0100
0010
1000
0001
0010
0100
0000
,  // measure 18
1000
0000
0000
0010
0000
0000
0100
0000
0000
0000
0001
0000
0100
0000
0010
0000
,  // measure 19
1000
0000
0010
1000
0000
1000
0010
0000
0100
0000
0001
0000
0010
0001
0100
0010
,  // measure 20
1000
0000
0001
0010
0000
0010
0001
0000
0100
0000
0010
0000
1000
0000
0001
1000
,  // measure 21
0001
0000
0001
0100
0000
0100
0010
0000
1000
0000
0100
1000
0000
1000
0001
0000
,  // measure 22
0100
0000
0010
0000
1000
0100
0000
0010
0000
0000
0001
0000
0010
0000
0100
1000
,  // measure 23
0100
1000
0100
1000
0100
0010
0001
0010
,  // measure 24
0001
0100
0010
1000
0001
0010
0100
1000
,  // measure 25
0001
0010
0001
0010
0100
1000
0100
1000
,  // measure 26
0010
0000
0100
0000
0001
0000
1000
0000
0001
0000
0010
0000
0001
0100
0001
0000
,  // measure 27
0100
0010
1000
0001
0010
0100
1000
0100
,  // measure 28
0010
0001
1000
0010
0100
0001
0100
0010
,  // measure 29
1000
0001
0010
0001
0100
0010
1000
0001
,  // measure 30
0010
0000
0100
0000
1000
0000
0100
0000
0010
0000
0001
0100
0001
0000
0010
0000
,  // measure 31
0100
0000
0000
0000
1000
0000
0000
0000
0010
0000
0000
0000
0100
0000
0000
0000
0001
0000
0100
0000
0010
0000
0000
0000
1000
0000
0010
1000
0010
0000
0100
0000
,  // measure 32
0001
0000
0000
0000
0010
0000
0001
0000
0100
0000
0000
0000
0010
0000
0000
0000
1000
0000
0100
0000
1000
0000
0000
0000
0010
0000
0100
0001
0100
0000
0010
0000
,  // measure 33
1000
0000
0000
0000
0100
0000
0001
0000
0100
0000
0000
0000
0010
0000
0000
0000
1000
0000
0100
0000
0010
0000
0000
0000
0001
0000
0010
0100
0010
0000
0001
0000
,  // measure 34
0100
0000
0010
1000
0100
0000
0010
0000
0001
0000
0100
0000
0001
1000
0010
0100
,  // measure 35
0001
0100
0010
1000
0001
0010
0100
0000
,  // measure 36
0010
0001
0100
0010
1000
0001
0010
0000
,  // measure 37
0001
0100
0010
1000
0001
0010
0100
0000
,  // measure 38
1000
0000
0100
0000
0010
0000
0001
0000
1000
0000
0010
0100
0010
0000
1000
0000
,  // measure 39
0001
0010
0100
1000
0100
0010
0001
0000
,  // measure 40
0001
0100
0010
1000
0001
0010
0001
0000
,  // measure 41
0100
1000
0100
0001
0010
0001
0100
0000
,  // measure 42
0010
0000
0000
1000
0000
0000
0001
0000
0000
0000
0100
0000
0010
0000
1000
0000
,  // measure 43
0010
0100
0001
0010
0100
1000
0100
0000
,  // measure 44
0010
0001
0100
1000
0100
0001
0010
0000
,  // measure 45
0010
1000
0100
0001
0100
1000
0010
0000
,  // measure 46
0010
0000
0100
0000
0001
0000
0010
0000
0100
0000
1000
0010
1000
0000
0010
0000
,  // measure 47
0100
0001
0010
0001
0100
0010
1000
0000
,  // measure 48
0001
0010
0001
0100
0010
1000
0001
0000
,  // measure 49
0100
1000
0010
0100
0001
0010
0100
0000
,  // measure 50
1000
0000
0000
1100
0000
0000
0011
0000
0000
0000
0100
0000
0010
0000
1000
0000
,  // measure 51
0002
0000
0000
0000
,  // measure 52
0000
0000
0000
0000
,  // measure 53
0000
0000
0000
0000
,  // measure 54
0000
0000
0000
0000
,  // measure 55
0000
0000
0000
0000
,  // measure 56
0003
0000
0000
0000
;
