#TITLE:SPECTRUM;
#SUBTITLE:;
#ARTIST:O-SE;
#TITLETRANSLIT:;
#SUBTITLETRANSLIT:;
#ARTISTTRANSLIT:;
#CREDIT:;
#BANNER:;
#BACKGROUND:;
#LYRICSPATH:;
#CDTITLE:;
#MUSIC:SPECTRUM (DDR EDIT).mp3;
#OFFSET:-10.360;
#SAMPLESTART:41.370;
#SAMPLELENGTH:20.600;
#SELECTABLE:YES;
#BPMS:0.000=93.000;
#STOPS:;
#BGCHANGES:;

//---------------dance-single - ----------------
#NOTES:
     dance-single:
     :
     Beginner:
     1:
     0.059,0.079,0.000,0.138,0.000:
1000
0000
0000
0000
,
0001
0000
0000
0000
,
1000
0000
0000
0000
,
0001
0000
0000
0000
,
1000
0000
0000
0000
,
0010
0000
0000
0000
,
0001
0000
0000
0000
,
0100
0000
0000
0000
,
0010
0000
0000
0000
,
1000
0000
0000
0000
,
0100
0000
0000
0000
,
0001
0000
0000
0000
,
0020
0000
0030
0000
,
0002
0000
0003
0000
,
0200
0000
0300
0000
,
2000
0000
3000
0000
,
0020
0000
0030
0000
,
2000
0000
3000
0000
,
0200
0000
0300
0000
,
0002
0000
0003
0000
,
0020
0000
0000
0000
,
0000
0000
0030
0000
,
0200
0000
0000
0000
,
0000
0000
0300
0000
,
0002
0000
0000
0000
,
0000
0000
0003
0000
,
2000
0000
0000
0000
,
0000
0000
3000
0000
;

//---------------dance-single - ----------------
#NOTES:
     dance-single:
     :
     Easy:
     2:
     0.137,0.160,0.000,0.184,0.000:
1000
0000
0100
0000
,
0010
0000
0001
0000
,
0010
0000
0001
0000
,
0100
0000
1000
0000
,
0010
1000
0010
0000
,
0100
0001
0100
0000
,
0001
0010
1000
0000
,
1000
0010
0001
0000
,
0001
0100
1000
0000
,
1000
0100
0001
0000
,
0001
0010
1000
0000
,
1000
0010
0001
0000
,
0200
0001
0301
0000
,
0002
0010
0013
0000
,
0020
1000
1030
0000
,
2000
0100
0100
3100
,
0200
0010
0310
0000
,
0020
0001
0031
0000
,
0002
1000
1003
0000
,
2000
0010
0010
0000
,
0002
0000
0003
0000
,
0020
0000
0030
0000
,
0200
0000
0300
0000
,
0020
0000
3030
0000
,
0002
0100
0100
0000
,
2000
0000
3000
0000
,
0020
0000
0030
0000
,
2000
0000
0000
3003
;

//---------------dance-single - ----------------
#NOTES:
     dance-single:
     :
     Hard:
     6:
     0.357,0.361,0.069,0.069,0.207:
0010
1000
0100
0001
0100
0000
0010
0000
,
0100
0000
0001
0000
0010
0000
0000
1000
0010
0000
0000
0000
0001
0000
0000
0000
,
0100
0001
1000
0100
0010
0000
0100
0000
,
1000
0000
0001
0000
0100
0000
0010
0000
1000
0000
0000
0000
0010
0100
0010
0000
,
0100
0000
0001
0000
0010
0000
0100
1000
0100
0000
0000
0000
0010
0000
0001
0000
,
0100
0010
1000
0100
1000
0000
0010
0000
,
0100
0000
0001
0000
0010
0000
0100
1000
0100
0000
0010
0000
0001
0000
0100
0000
,
0010
1000
0001
0010
0100
0000
1000
0000
,
0001
0100
0000
0000
0100
0010
0000
0000
0010
1000
0000
0000
0100
0000
1000
0000
,
0001
0010
0000
0000
0010
0001
0000
0000
0001
0100
0000
0000
0010
0000
1000
0000
,
0100
0010
0000
0000
0001
0100
0000
0000
0010
1000
0000
0000
0100
0000
0010
0100
,
0010
0001
0100
0001
0010
0100
1000
0010
,
1000
0010
0000
0010
1000
0000
0100
0000
0010
0000
0001
0000
0100
0000
0010
0000
,
1000
0100
0000
0100
1000
0000
0010
0000
0100
0000
0001
0000
0010
0000
0100
0000
,
0010
0001
0000
0001
0010
0000
0001
0000
0100
0000
0010
0000
1000
0000
0100
0000
,
0010
0000
0000
0100
0000
0000
0000
0000
0000
0100
0000
0000
0010
0000
0000
0000
0000
0000
0001
0000
0000
0000
1000
0000
0100
0000
0000
0000
0000
0000
1000
0000
0000
0000
0001
0000
0100
0000
0000
0000
0000
0000
0110
0000
0000
0000
0000
0000
,
0100
0001
0000
0001
0100
0000
0010
0000
1000
0000
0100
0000
0010
0000
0001
0000
,
0100
0010
0000
0010
0100
0000
0001
0000
0010
0000
0100
0000
1000
0000
0010
0000
,
0001
0100
0000
0100
0001
0000
1000
0000
0010
0000
0001
0000
0100
0000
0010
0000
,
1000
0010
0000
0010
1000
0000
0100
0000
0010
0000
0001
0000
0010
0000
0011
0000
,
0021
0000
0001
0000
0100
0000
0001
0031
,
2100
0000
0100
0000
0001
0000
0100
3100
,
0210
0000
0010
0000
1000
0000
0010
0310
,
1002
0000
1000
0000
0010
0000
1000
1003
,
0100
0000
0000
1000
0000
0000
0010
0000
0000
0100
0000
0000
0001
0000
0100
0000
,
0010
0000
1000
0000
0100
0010
0001
0100
,
0010
0000
0000
1000
0000
0000
0010
0000
0000
0100
0000
0000
0001
0000
0100
0000
,
0010
0000
1000
0000
0002
0000
1000
2000
,
0000
0000
3003
0000
;

//---------------dance-single - ----------------
#NOTES:
     dance-single:
     :
     Medium:
     5:
     0.306,0.312,0.000,0.334,0.000:
1000
0100
1000
0000
0010
0000
0100
0000
,
0001
0010
0001
0000
0100
0000
0010
0000
,
1000
0100
0001
0100
1000
0000
0010
0000
,
0100
0001
0100
0010
1000
0000
0010
0000
,
1000
0100
0010
0000
0100
0000
1000
0000
,
0001
0010
0100
0000
0010
0000
0001
0000
,
1000
0010
0001
0010
1000
0000
0010
0000
,
0001
0100
1000
0100
0001
0000
0100
0000
,
0010
1000
0010
0000
0100
0001
0100
0000
,
0001
0010
0001
0000
1000
0100
1000
0000
,
0010
0100
0010
0000
1000
0001
1000
0000
,
0001
0010
0100
1000
0100
0010
0001
0000
,
2000
0000
3200
0000
0301
0100
0010
0000
,
0020
0000
0032
0000
0103
0001
1000
0000
,
0002
0000
2003
0000
3010
1000
0100
0000
,
0200
0000
0320
0000
1030
0010
0001
0010
,
1000
0100
1000
0001
0200
0000
0320
1000
,
0030
0001
0010
0100
0002
0000
2003
0010
,
3010
1000
0001
0010
2000
0000
3200
0001
,
0301
0010
0100
1000
0020
0000
0032
0100
,
0203
0000
0001
0000
0001
0001
0301
0000
,
0002
0000
1000
0000
1000
1000
1000
0000
,
2003
0000
0010
0000
0010
0010
0010
0000
,
3020
0000
0100
0000
0100
0100
0100
0000
,
0230
0000
0302
0000
0100
0100
0103
0000
,
2000
0000
3020
0000
1000
1000
1030
0000
,
0002
0000
0203
0000
0001
0001
0301
0000
,
0020
0000
2030
0000
0010
0010
0020
0000
,
0000
0000
3030
0000
;

//---------------dance-single - ----------------
#NOTES:
     dance-single:
     :
     Challenge:
     8:
     0.469,0.476,0.115,0.058,0.461:
1000
0000
0010
0000
0100
0000
0001
0100
0001
0000
0000
0000
0010
0000
0001
0000
,
1000
0000
0100
0000
0010
0000
0000
0010
0001
0000
0000
0000
0100
0000
0010
0000
,
1000
0000
0100
0000
0001
0000
0100
0010
1000
0000
0000
0000
0010
0000
0100
0000
,
0001
0000
0010
0100
1000
0100
0010
0000
0001
0000
0000
0010
0100
0010
0100
0000
,
0001
0000
0100
0000
0010
0000
1000
0001
0010
0000
0100
0000
1000
0000
0100
0000
,
0010
0000
0001
0100
0010
1000
0001
0000
0010
0000
0100
0000
1000
0000
0100
0000
,
0010
0000
0001
0000
0100
0000
0010
1000
0010
0000
0100
0000
0001
0000
0010
0100
,
1000
0000
0100
0000
0010
0000
0001
0000
0000
0100
0000
0000
0010
0000
0000
0010
0000
0000
1000
0000
0000
1000
0000
0000
0001
0000
0000
0000
0000
0000
0010
0000
0000
0000
0000
0000
0100
0000
0000
0000
0000
0000
1000
0000
0000
0000
0000
0000
,
0001
0010
0000
0100
1000
0100
0000
0010
0001
0100
0000
0010
1000
0000
0010
0000
,
0100
0001
0000
0010
0100
1000
0000
0100
0010
0001
0000
0100
0010
0000
1000
0000
,
0001
0100
0000
0001
0010
0100
0000
1000
0100
0010
0000
0001
0100
0000
0010
1000
,
0010
0000
0100
0001
0010
0000
0001
0100
0010
0000
1000
0100
0010
0100
1000
0001
,
0100
0010
1000
0100
0010
0001
1000
0010
0100
0000
0001
0000
0010
0000
0100
0000
,
1000
0100
0010
0001
1000
0010
0100
0001
0010
0000
0100
0000
1000
0000
0100
0000
,
0010
0001
0100
0010
1000
0001
0010
0001
0100
0000
0010
0000
1000
0000
0100
0000
,
0010
0000
0000
0100
0000
0000
1000
0000
0000
0001
0000
0000
0100
0000
0000
0010
0000
0000
1000
0000
0100
0000
1000
0000
0010
0000
0000
0000
0000
0000
0100
0000
0001
0000
0100
0000
0010
0000
0000
0000
0000
0000
1001
0000
0000
0000
0000
0000
,
1000
0010
0100
0001
0010
0100
1000
0100
0010
0000
0001
0000
0100
0000
0010
0000
,
1000
0010
0100
0001
0010
0001
0100
0010
1000
0000
0001
0000
0010
0000
0100
0000
,
1000
0100
0001
0100
1000
0010
0001
0010
1000
0000
0010
0000
0100
0000
0001
0000
,
0010
0100
1000
0100
0010
0001
1000
0010
0100
0000
0001
0000
0100
0000
0110
0000
,
1002
0000
1000
0000
0010
0010
0100
0103
,
0201
0000
0001
0000
0010
0010
0001
0301
,
1020
0000
1000
0000
0100
0100
0001
0031
,
1002
0000
1000
0000
0100
0100
0010
0010
,
0013
0000
0000
0101
0000
0000
0010
0000
0000
1100
0000
0000
0010
0000
0100
0000
,
0001
0000
0100
0000
0010
1000
0100
0001
,
0100
0000
0000
1010
0000
0000
0100
0000
0000
0011
0000
0000
0001
0000
0100
0000
,
0010
0000
1000
0000
0001
0100
0010
2000
,
0000
0000
3000
0000
;
