#TITLE:Red-rize -B172 mix-;
#SUBTITLE:;
#ARTIST:wint;
#TITLETRANSLIT:;
#SUBTITLETRANSLIT:;
#ARTISTTRANSLIT:;
#CREDIT:;
#BANNER:;
#BACKGROUND:;
#LYRICSPATH:;
#CDTITLE:;
#MUSIC:Red-rize -B172 mix- (DDR Edit).mp3;
#OFFSET:-0.020;
#SAMPLESTART:11.230;
#SAMPLELENGTH:12.000;
#SELECTABLE:YES;
#BPMS:0.000=172.000;
#STOPS:;
#BGCHANGES:;

//---------------dance-single - ----------------
#NOTES:
     dance-single:
     :
     Beginner:
     2:
     0.121,0.116,0.095,0.059,0.000:
0000
0000
0000
0000
,
0000
0000
0000
0000
,
0000
0000
0000
0000
,
0000
0000
0000
0000
,
0000
0000
0000
0000
,
0000
0000
0000
0000
,
0000
0000
0000
0000
,
0000
0000
0000
0000
,
1000
0000
1000
0000
,
1000
0000
0000
0000
,
0010
0000
0010
0000
,
0010
0000
0000
0000
,
0001
0000
0001
0000
,
0001
0000
0000
0000
,
0100
0000
0100
0000
,
0100
0000
0000
0000
,
0020
0000
0000
0000
,
0000
0000
0000
0000
,
0000
0000
0000
0000
,
0000
0000
0030
0000
,
0010
0000
0000
0000
,
1000
0000
0000
0000
,
0100
0000
0001
0000
,
1001
0000
1001
0000
,
0010
0000
0100
0000
,
0010
0000
0000
0000
,
1000
0000
0001
0000
,
1000
0000
0000
0000
,
0010
0000
0001
0000
,
0100
0000
0000
0000
,
0010
0000
1000
0000
,
0100
0000
0000
0000
,
0010
0000
0000
0000
,
0010
0000
0000
0000
,
0001
0000
0000
0000
,
0001
0000
0000
0000
,
1000
0000
0000
0000
,
0100
0000
0000
0000
,
0010
0000
0001
0000
,
2002
0000
3003
0000
,
0010
0000
0010
0000
,
0010
0000
0000
0000
,
1000
0000
1000
0000
,
1000
0000
0000
0000
,
0100
0000
0100
0000
,
0100
0000
0000
0000
,
0001
0000
0001
0000
,
0001
0000
0000
0000
,
0010
0010
0010
0010
,
0010
0000
0010
0000
,
0001
0001
0001
0001
,
0001
0000
0001
0000
,
1000
1000
1000
1000
,
1000
0000
1000
0000
,
0100
0100
0100
0100
,
0100
0100
0100
0000
,
1001
0000
0000
0000
,
0110
0000
0000
0000
,
1001
0000
1001
0000
,
2002
0000
0000
3003
0000
0000
0000
0000
;

//---------------dance-single - ----------------
#NOTES:
     dance-single:
     :
     Easy:
     4:
     0.277,0.316,0.296,0.059,0.000: // measure 1
0000
0000
0000
0000
,  // measure 2
0000
0000
0000
0000
,  // measure 3
0000
0000
0000
0000
,  // measure 4
0000
0000
0000
0000
,  // measure 5
0000
0000
0000
0000
,  // measure 6
0000
0000
0000
0000
,  // measure 7
0000
0000
0000
0000
,  // measure 8
0000
0000
0000
0000
,  // measure 9
1000
0000
0100
0000
,  // measure 10
0010
0001
0010
0000
,  // measure 11
0001
0000
0100
0000
,  // measure 12
0010
1000
0010
0000
,  // measure 13
0010
0000
0001
0000
,  // measure 14
0100
1000
0100
0000
,  // measure 15
0010
0000
0001
0000
,  // measure 16
0100
0010
0100
0000
,  // measure 17
0210
0000
0010
0000
,  // measure 18
0010
0000
0010
0000
,  // measure 19
0010
0000
0010
0000
,  // measure 20
0010
0000
0310
0000
,  // measure 21
1001
0000
0000
0000
,  // measure 22
0110
0000
0000
0000
,  // measure 23
1001
0000
0110
0000
,  // measure 24
1001
1001
1001
0000
,  // measure 25
0001
0100
1000
0010
,  // measure 26
0001
0010
1000
0100
,  // measure 27
0001
0100
0010
1000
,  // measure 28
0002
0000
0003
0000
,  // measure 29
0100
0001
0010
1000
,  // measure 30
0100
1000
0010
0001
,  // measure 31
0100
0001
1000
0010
,  // measure 32
0200
0000
0000
0300
,  // measure 33
0010
0000
1000
0000
,  // measure 34
0100
0000
0001
0000
,  // measure 35
0110
0000
0001
0000
,  // measure 36
0100
0000
1000
0000
,  // measure 37
1001
0000
0100
0000
,  // measure 38
1001
0000
0010
0000
,  // measure 39
1001
0000
0110
0000
,  // measure 40
2002
0000
3003
0000
,  // measure 41
1000
0000
0010
0000
,  // measure 42
0100
0001
0100
0000
,  // measure 43
0010
0000
1000
0000
,  // measure 44
0100
0001
0100
0000
,  // measure 45
0010
0000
1000
0000
,  // measure 46
0010
0100
0001
0000
,  // measure 47
0010
0000
0100
0000
,  // measure 48
1000
0001
0100
0000
,  // measure 49
0010
1000
0001
0010
,  // measure 50
0100
1000
0100
0010
,  // measure 51
0001
0100
0010
1000
,  // measure 52
0100
0010
0100
1001
,  // measure 53
0010
1000
0100
0001
,  // measure 54
0101
0000
1010
0000
,  // measure 55
0010
1000
0100
0001
,  // measure 56
0100
0010
1000
0001
,  // measure 57
0110
0000
1001
0000
,  // measure 58
0110
0000
1001
0000
,  // measure 59
0110
0000
1001
0000
,  // measure 60
1001
0000
0000
0110
0000
0000
0000
0000
;

//---------------dance-single - ----------------
#NOTES:
     dance-single:
     :
     Medium:
     7:
     0.580,0.592,0.272,0.033,0.065: // measure 1
0000
0000
0000
0000
,  // measure 2
0000
0000
0000
0000
,  // measure 3
0000
0000
0000
0000
,  // measure 4
0000
0000
0000
0000
,  // measure 5
1001
0000
0000
0000
,  // measure 6
0110
0000
0000
0000
,  // measure 7
1100
0000
0011
0000
,  // measure 8
0220
0000
0330
0000
,  // measure 9
1000
0000
0100
0000
1000
0010
0100
0000
,  // measure 10
0001
0000
0010
0000
0001
0100
0010
0000
,  // measure 11
1000
0000
0001
0000
0010
0100
1000
0000
,  // measure 12
0100
0010
0100
0010
0000
0001
1000
0000
,  // measure 13
0001
0000
0100
0000
0010
0100
1000
0100
,  // measure 14
0010
0000
0001
0000
0010
0001
0010
0000
,  // measure 15
0100
0000
1000
0000
0001
0100
0001
0000
,  // measure 16
1000
0010
1000
0010
0000
0100
0001
0100
,  // measure 17
0002
0000
0100
0000
,  // measure 18
0100
0000
0100
0000
,  // measure 19
0010
0000
0010
0000
,  // measure 20
1000
0000
1003
0000
,  // measure 21
1001
0001
0001
0001
,  // measure 22
1001
1000
1000
1000
,  // measure 23
1001
0000
0110
0000
,  // measure 24
2002
0000
3003
1001
,  // measure 25
1000
0000
0000
0100
0000
0000
1000
0000
0000
0000
0001
0000
0100
0000
0001
0000
,  // measure 26
0010
0000
0000
0100
0000
0000
0010
0000
0000
0000
0001
0000
0100
0000
0010
0000
,  // measure 27
1000
0000
0000
0010
0000
0000
0100
0000
0000
0000
0001
0000
0010
0000
0100
0000
,  // measure 28
1000
0010
0100
0001
0010
0100
1000
0000
,  // measure 29
0100
0000
0000
0010
0000
0000
0100
0000
0000
0000
1000
0000
0010
0000
1000
0000
,  // measure 30
0001
0000
0000
0010
0000
0000
0001
0000
0000
0000
1000
0000
0010
0000
0100
0000
,  // measure 31
0001
0000
0000
0100
0000
0000
0010
0000
0000
0000
1000
0000
0001
0000
0010
0000
,  // measure 32
0100
1000
0010
1000
0100
0010
0001
0000
,  // measure 33
1000
0000
0000
0000
0100
0000
0000
0000
1000
0000
0000
1000
0000
0000
1000
0000
,  // measure 34
0000
0000
0010
0000
0000
0000
0100
0000
0001
0000
0000
0001
0000
0000
0001
0000
,  // measure 35
0000
0000
0100
0000
0000
0000
0010
0000
1000
0000
0000
1000
0000
0000
1000
0000
,  // measure 36
0001
0000
0000
0010
0000
0000
0100
0000
0000
1000
0000
0000
0100
0000
0010
0000
,  // measure 37
0001
0000
0100
0000
0010
1000
0010
0000
,  // measure 38
0110
0000
0100
0000
0001
0010
0001
0000
,  // measure 39
0101
0000
1010
0000
,  // measure 40
2002
0000
3003
0000
,  // measure 41
0001
0000
1000
0000
0001
0100
1000
0000
,  // measure 42
0010
0000
0100
0000
0010
1000
0100
0000
,  // measure 43
0001
0000
0010
0000
0100
1000
0001
0000
,  // measure 44
1000
0100
1000
0100
0000
0010
0001
0000
,  // measure 45
0010
0000
0100
0000
1000
0100
0001
0100
,  // measure 46
1000
0000
0010
0000
0100
0001
0100
0000
,  // measure 47
1000
0000
0010
0000
0100
0001
0100
0000
,  // measure 48
0010
0100
0001
1000
0000
0010
0100
0001
,  // measure 49
0010
0001
0010
0000
0100
1000
0100
0000
,  // measure 50
0010
0001
0100
0000
0010
1000
0100
0000
,  // measure 51
0010
0001
0100
1000
0100
0001
0010
0000
,  // measure 52
0001
0100
0010
1000
0000
0010
0100
0000
,  // measure 53
0001
0010
0001
0100
0010
0000
1000
0000
,  // measure 54
0100
1000
0010
0100
0001
0000
0100
0000
,  // measure 55
0010
1000
0010
0000
0100
0001
0010
0000
,  // measure 56
0001
0100
0010
1000
0000
0010
0100
0000
,  // measure 57
1001
0000
0110
0000
,  // measure 58
1100
0000
0011
0000
,  // measure 59
0101
0000
1010
0000
,  // measure 60
0110
0000
0000
1001
0000
0000
0000
0000
;

//---------------dance-single - ----------------
#NOTES:
     dance-single:
     :
     Hard:
     9:
     0.634,0.608,0.379,0.066,0.390:
0000
0000
0000
0000
,
0000
0000
0000
0000
,
0000
0000
0000
0000
,
0000
0000
0000
0000
,
1001
0000
0000
0000
,
1100
0000
0000
0000
,
0011
0000
1001
0000
,
0220
0000
0330
0000
,
1000
0000
0000
0100
0000
0000
1000
0000
0000
0000
0001
0000
0010
0000
0100
0000
,
0010
0000
0000
0001
0000
0000
0100
0000
0000
0000
0010
0000
1000
0000
0100
0000
,
0001
0000
0000
0100
0000
0000
1000
0000
0000
0000
0010
0000
0100
0000
0001
0000
,
1000
0100
1000
0000
0010
0000
0100
0000
0000
0000
0100
0000
0001
0000
1000
0000
,
0010
0000
0000
0001
0000
0000
0010
0000
0000
0000
0100
0000
1000
0000
0001
0000
,
1000
0000
0000
0100
0000
0000
0001
0000
0000
0000
0100
0000
1000
0000
0010
0000
,
0100
0000
0000
0001
0000
0000
1000
0000
0000
0000
1000
0000
0001
0000
0100
0000
,
0010
1000
0010
0000
0100
0000
0001
0000
0000
0000
0001
0000
0100
0000
0010
0000
,
2000
0000
0100
0000
,
0100
0000
0100
0000
,
0010
0000
0010
0000
,
0001
0000
3001
0000
,
1002
1000
1000
1003
,
2001
0001
0001
3001
,
1002
1003
2001
3001
,
1001
0000
0000
0000
1001
0000
0000
1000
0000
0001
0000
0100
0010
0000
0000
0000
,
1000
0000
0000
0010
0000
0000
1000
0000
0000
0000
0001
0000
0010
0000
0001
0000
,
1000
0000
0000
0100
0000
0000
1000
0000
0000
0000
0001
0000
0100
0000
0001
0000
,
0010
0000
0000
1000
0000
0000
0001
0000
0000
0100
0000
0000
0001
0000
1000
0000
,
0010
0100
0001
0010
0100
1000
0010
0100
,
0001
0000
0000
0010
0000
0000
0100
0000
0000
0000
1000
0000
0001
0000
1000
0000
,
0100
0000
0000
0010
0000
0000
0100
0000
0000
0000
1000
0000
0010
0000
1000
0000
,
0001
0000
0000
0100
0000
0000
1000
0000
0000
0010
0000
0000
1000
0000
0100
0000
,
0001
0010
0100
1000
0010
0100
0001
0010
,
0001
0000
0100
0000
0010
1000
0010
0000
0100
0000
0000
0001
0000
0000
0100
0000
,
0010
0000
1000
0000
0100
1000
0100
0000
0010
0000
0000
0011
0000
0000
0001
0000
,
0100
0000
0001
0000
1000
0010
1000
0000
0001
0000
0000
0100
0000
0000
0001
0000
,
1000
0000
0000
1100
0000
0000
0100
0000
0000
0110
0000
0000
0001
0000
0100
0000
,
0010
0000
1000
0000
0100
1000
0100
0000
0010
0000
0000
0001
0000
0000
0100
0000
,
0010
0000
1000
0000
0001
0100
0010
0000
1000
0000
0000
0100
0000
0000
0010
0000
,
0001
0100
0010
1000
0100
0010
0001
0000
,
2002
0000
3003
0000
,
1000
0000
0000
0010
0000
0000
0100
0000
0000
0100
0001
0000
0010
0000
0100
0000
,
1000
0000
0000
0100
0000
0000
0010
0000
0000
0010
0001
0000
0100
0000
0010
0000
,
1000
0000
0000
0010
0000
0000
0100
0000
0000
0100
0001
0000
0010
0000
0001
0000
,
0100
0010
0100
0000
0010
0000
1000
0000
0000
0000
0001
0000
0010
0000
0001
0000
,
0100
0000
0000
0001
0000
0000
0010
0000
0000
0010
1000
0000
0001
0000
0010
0000
,
0100
0000
0000
0010
0000
0000
0001
0000
0000
0001
1000
0000
0010
0000
0100
0000
,
0001
0000
0000
0100
0000
0000
0010
0000
0000
0010
1000
0000
0001
0000
0100
0000
,
0010
1000
0010
0000
0100
0000
0001
0000
0000
0000
0010
0000
0100
0000
1000
0000
,
0001
0010
0001
0000
0100
0000
0010
1000
0010
0000
0100
0000
0001
0000
0010
0001
,
0010
0000
0100
1000
0100
0000
0010
0000
0001
0010
0001
0000
1000
0000
0100
0000
,
1100
0000
1000
0000
0010
0000
0100
0001
0000
0001
0100
0000
0010
0000
1000
0100
,
1000
0010
0100
0001
0010
0110
1001
0000
,
1000
0100
1000
0000
0001
0010
0001
0000
0100
0000
0010
0000
1000
0000
0100
0000
,
1000
0000
0000
0000
1100
0000
0000
0000
0001
0000
0000
0101
0000
0000
0000
0000
,
1000
0000
0000
0010
0000
0000
0100
0000
0001
0000
0000
0010
0000
0000
0001
0000
,
0100
0010
0100
0000
0010
0000
1001
0000
0000
0000
0100
0000
0010
0000
0001
0000
,
1000
0000
0000
0100
0000
0000
1100
0000
0000
0010
0000
0000
0100
0000
0001
0000
,
0010
0000
0000
0001
0000
0000
0101
0000
0000
0100
0000
0000
0010
0000
1000
0000
,
1100
0000
0000
0011
0000
0000
0101
0000
0000
1010
0000
0000
1001
0000
1001
0000
,
1001
0000
0000
0110
0000
0000
1001
0000
0000
0000
0000
0000
0000
0000
0000
0000
;
