#TITLE:RAY;
#SUBTITLE:;
#ARTIST:MILK;
#TITLETRANSLIT:;
#SUBTITLETRANSLIT:;
#ARTISTTRANSLIT:;
#CREDIT:;
#BANNER:;
#BACKGROUND:;
#LYRICSPATH:;
#CDTITLE:;
#MUSIC:RAY.mp3;
#OFFSET:-8.260;
#SAMPLESTART:41.130;
#SAMPLELENGTH:12.000;
#SELECTABLE:YES;
#BPMS:0.000=146.000;
#STOPS:;
#BGCHANGES:;

//---------------dance-single - ----------------
#NOTES:
     dance-single:
     :
     Beginner:
     2:
     0.117,0.207,0.012,0.012,0.000:
1000
0000
1000
0000
,
1000
0000
1000
0000
,
0001
0000
0001
0000
,
0001
0000
0000
0000
,
0001
0000
0001
0000
,
0001
0000
0000
0000
,
0100
0000
0100
0000
,
0100
0000
0000
0000
,
0010
0000
0010
0000
,
0010
0000
0000
0000
,
1000
0000
1000
0000
,
1000
0000
0000
0000
,
0001
0000
0001
0000
,
0001
0000
0000
0000
,
0100
0000
0100
0000
,
0100
0000
0000
0000
,
0010
0000
0010
0000
,
0010
0000
0000
0000
,
1000
0000
1000
0000
,
1000
0000
0000
0000
,
0001
0001
0001
0001
,
0001
0001
0001
0000
,
0010
0000
0010
0000
,
0010
0000
0010
0000
,
0100
0100
0100
0100
,
0100
0100
0100
0000
,
1000
0000
1000
0000
,
1000
0000
0000
0000
,
0010
0000
0000
0000
,
1000
0000
0000
0000
,
0001
0000
0000
0000
,
0100
0000
0000
0000
,
0010
0000
0000
0000
,
0100
0000
0000
0000
,
0020
0000
0000
0000
,
0000
0000
0030
0000
,
0100
0000
0000
0000
,
0100
0000
0000
0000
,
0001
0000
0000
0000
,
0001
0000
0000
0000
,
1000
0000
0000
0000
,
1000
0000
0000
0000
,
0010
0000
0000
0000
,
0010
0000
0000
0000
,
1001
0000
0000
0000
;

//---------------dance-single - ----------------
#NOTES:
     dance-single:
     :
     Easy:
     4:
     0.269,0.336,0.059,0.035,0.000:
1000
0000
1000
0000
,
0010
0000
0010
0000
,
0100
0000
0100
0000
,
0001
0000
0000
0000
,
0001
0010
0001
0100
,
0010
1000
0001
0001
,
0010
0100
1000
0010
,
0100
0010
1000
0000
,
0010
0100
0001
0010
,
0100
1000
0010
0010
,
1000
0001
0010
0100
,
1000
0000
0000
0000
,
1000
0001
1000
0001
,
0100
0010
0100
0010
,
1000
0100
0010
0001
,
0001
0010
0100
0000
,
0100
1000
0010
0100
,
0001
0100
0010
1000
,
0001
0010
0100
1000
,
0010
0010
0010
0010
,
1000
0100
0010
0001
,
1000
0010
0100
0100
,
0010
1000
0001
0010
,
0100
1000
0010
0010
,
1000
0100
0010
0001
,
0100
0010
1000
1000
,
0001
0010
0100
1000
,
0010
0100
0001
0000
,
0001
0010
0001
0010
,
0100
1000
0100
1000
,
0001
0100
0001
0100
,
0010
1000
0010
1000
,
0001
1000
0001
1000
,
0010
0100
0010
0100
,
0002
0000
2003
0000
,
0002
0000
3003
0000
,
0001
0100
0001
0000
,
1000
0010
1000
1000
,
0010
1000
0010
0000
,
0100
0001
0100
0100
,
0001
0100
0001
0000
,
0010
0001
0010
0000
,
0100
1000
0100
0000
,
0110
0110
1001
0110
,
1001
0000
0000
0000
;

//---------------dance-single - ----------------
#NOTES:
     dance-single:
     :
     Medium:
     7:
     0.415,0.447,0.117,0.082,0.000:
1000
0001
0100
0010
,
0100
0001
0010
0000
,
0010
0001
0100
0010
,
1000
0000
0000
0000
,
1000
0000
0001
0000
1000
0001
1000
0000
,
0001
0000
0100
0000
0001
0100
0001
0000
,
1000
0000
0010
0000
1000
0010
1000
0000
,
0010
0000
0100
0000
0010
0100
0010
0000
,
1000
0000
0001
0000
1000
0001
1000
0000
,
0010
0000
0100
0000
0010
0100
0010
0000
,
1000
0000
0100
0000
1000
0100
1000
0000
,
0001
0001
0001
0001
,
0010
0000
0100
0000
0010
0001
0100
0010
,
1000
0000
0001
0000
0010
0100
1000
0100
,
0010
0000
0001
0000
0100
0010
1000
0001
,
0010
0000
0001
0000
0100
0010
1000
0001
,
0010
0000
0001
0000
0100
0010
1000
0001
,
0010
0000
0100
0000
1000
0010
0100
0001
,
0010
0000
0001
0000
0100
0010
1000
0001
,
0010
1100
0010
0101
,
0010
1000
0001
0010
0100
1000
0100
0000
,
0010
0001
0100
0010
1000
0001
0010
0000
,
0001
0100
0010
1000
0001
0010
0100
0000
,
0010
0001
0100
0010
1000
0000
1100
0000
,
1000
0010
0100
0001
0010
0100
0010
0000
,
0001
0100
0010
1000
0001
0010
0001
0000
,
0100
0010
1000
0001
0010
0100
1000
0000
,
1001
1001
0110
0110
,
1000
0100
0000
0100
0000
1000
0000
0010
,
0100
0001
0000
0001
0000
0010
0000
0100
,
0010
0001
0000
0100
0000
0010
0000
1000
,
0010
0100
0000
0001
0000
0010
0000
0100
,
1000
0100
1000
0100
0010
0001
0010
0001
,
0100
0001
0100
0001
1000
0010
1000
0010
,
2000
3020
0230
0302
,
2003
0000
0000
0000
,
3001
0000
0100
0000
0010
1000
0010
0000
,
0100
0000
0001
0000
0010
0100
0010
0000
,
0001
0000
0100
0000
0010
1000
0001
0000
,
0010
0000
0001
0000
1000
0010
0100
0000
,
0001
0000
0100
0000
0010
1000
0001
0000
,
0010
0000
0100
0000
0010
0001
1000
0000
,
0010
0000
0100
0000
0001
0100
0010
0000
,
1000
1100
0010
0011
,
2002
0000
0000
3003
;

//---------------dance-single - ----------------
#NOTES:
     dance-single:
     :
     Hard:
     8:
     0.571,0.793,0.258,0.223,0.247: // measure 1
1000
0000
0001
0000
0100
0010
0100
0000
,  // measure 2
0001
0000
0010
0000
0100
1000
0100
0000
,  // measure 3
0010
0000
0001
0000
0100
0010
0100
0000
,  // measure 4
2002
0000
0000
3003
,  // measure 5
0001
0000
0100
0000
0010
0000
0000
0100
0000
0000
0001
0000
0010
0000
0000
0100
,  // measure 6
0000
0000
1000
0000
0100
0000
0000
0010
0000
0000
0001
0000
0100
0000
0000
0010
,  // measure 7
0000
0000
0100
0000
0001
0000
0000
0010
0000
0000
0100
0000
1000
0000
0000
0001
,  // measure 8
0000
0000
0100
0000
0010
0000
0000
0100
0000
0000
0001
0000
0010
0000
0001
0000
,  // measure 9
0010
0000
0100
0000
1000
0000
0000
0001
0000
0000
0100
0000
0010
0000
0000
0100
,  // measure 10
0000
0000
0001
0000
0010
0000
0000
0100
0000
0000
1000
0000
0100
0000
0000
0010
,  // measure 11
0000
0000
0001
0000
0100
0000
0000
0010
0000
0000
0100
0000
0001
0000
0010
0000
,  // measure 12
0100
0110
0001
1001
,  // measure 13
1000
0100
0001
0100
1000
0010
0001
0010
,  // measure 14
1000
0100
0010
0100
0001
0100
0010
0100
,  // measure 15
0001
0010
1000
0010
0001
0100
1000
0100
,  // measure 16
0001
0010
0100
0010
1000
0100
0010
0100
,  // measure 17
1000
0010
0100
0001
0010
0100
1000
0100
,  // measure 18
0010
0001
0100
0001
0010
1000
0100
1000
,  // measure 19
0010
0100
0001
0010
0100
1000
0010
0100
,  // measure 20
0001
0101
1000
1100
,  // measure 21
1000
0000
0100
0000
0010
0000
0001
0000
1000
0000
0010
0000
0100
0001
0100
0000
,  // measure 22
0001
0000
0010
0000
0001
0000
0100
0000
0010
0000
1000
0000
0001
0010
0001
0000
,  // measure 23
0010
0000
0100
0000
1000
0000
0010
0000
0100
0000
0001
0000
0010
0100
0010
0000
,  // measure 24
0001
0000
0100
0000
0010
0000
1000
0000
0001
0000
0010
0000
0100
1000
0000
1000
,  // measure 25
0100
0000
1000
0000
0010
0000
0100
0000
0001
0000
0010
0000
0100
1000
0100
0000
,  // measure 26
0010
0000
0001
0000
0100
0000
0010
0000
1000
0000
0001
0000
0010
0001
0010
0000
,  // measure 27
0001
0000
0100
0000
0010
0000
1000
0000
0001
0000
0010
0000
0100
1000
0100
0000
,  // measure 28
1000
0010
0100
0001
1000
0010
0100
0001
,  // measure 29
0000
0101
0000
0201
0300
0011
0000
0012
,  // measure 30
0003
1100
0000
1200
0300
1010
0000
1020
,  // measure 31
0030
0201
0300
0021
0030
0102
0003
1020
,  // measure 32
0030
1200
0300
1020
0030
2001
3000
0110
,  // measure 33
0010
1000
0100
0010
0001
1000
0010
0100
,  // measure 34
0001
0010
0100
1000
0100
0010
0001
1000
,  // measure 35
0010
1000
0010
1000
0020
0000
0130
0000
0001
0010
0001
0010
0002
0000
0103
0000
,  // measure 36
0010
1000
0020
0000
0130
0001
0200
0000
0310
1000
0001
0000
0100
0010
0100
0010
,  // measure 37
0100
0000
1000
0000
0001
0000
0000
0100
0000
0000
0010
0000
1000
0000
0000
0001
,  // measure 38
0000
0000
0010
0000
0001
0000
0000
0100
0000
0000
0010
0000
1000
0000
0000
0001
,  // measure 39
0000
0000
0010
0000
0001
0000
0000
0100
0000
0000
0010
0000
1000
0000
0000
0001
,  // measure 40
0000
0000
0010
0000
0001
0000
0000
0100
0000
0000
0010
0000
1000
0000
0000
0001
,  // measure 41
0000
0000
0010
0000
0001
0000
0000
0100
0000
0000
0010
0000
1000
0000
0000
0001
,  // measure 42
0000
0000
0010
0000
0100
0000
0000
1000
0000
0000
0100
0000
0010
0000
0000
0001
,  // measure 43
0000
0000
0100
0000
0010
0000
0000
1000
0000
0000
0001
0000
0000
0000
1000
0000
,  // measure 44
0001
0100
0010
1000
,  // measure 45
2002
0000
0000
0000
,  // measure 46
3003
0000
0000
0000
;
