#TITLE:Pure Ruby;
#SUBTITLE:;
#ARTIST:SHIKI;
#TITLETRANSLIT:;
#SUBTITLETRANSLIT:;
#ARTISTTRANSLIT:;
#CREDIT:;
#BANNER:banner.png;
#BACKGROUND:background.jpg;
#LYRICSPATH:;
#CDTITLE:;
#MUSIC:Pure Ruby.mp3;
#OFFSET:-5.400;
#SAMPLESTART:18.930;
#SAMPLELENGTH:12.000;
#SELECTABLE:YES;
#BPMS:0.000=178.000,32.000=180.481,40.000=178.001;
#STOPS:;
#BGCHANGES:;

//---------------dance-single - ----------------
#NOTES:
     dance-single:
     :
     Beginner:
     1:
     0.131,0.166,0.010,0.010,0.000: // measure 1
1000
0000
1000
0000
,  // measure 2
0001
0000
0001
0000
,  // measure 3
0100
0000
0100
0000
,  // measure 4
0010
0000
0010
0000
,  // measure 5
1000
0000
0100
0000
,  // measure 6
1000
0000
0000
0000
,  // measure 7
0001
0000
0010
0000
,  // measure 8
0001
0000
0000
0000
,  // measure 9
1001
0000
0000
0000
,  // measure 10
0000
0000
0000
0000
,  // measure 11
0010
0000
0010
0000
,  // measure 12
0010
0000
0000
0000
,  // measure 13
1000
0000
1000
0000
,  // measure 14
1000
0000
0000
0000
,  // measure 15
0001
0000
0001
0000
,  // measure 16
0001
0000
0000
0000
,  // measure 17
0100
0000
0100
0000
,  // measure 18
0100
0000
0000
0000
,  // measure 19
0010
0000
0000
0000
,  // measure 20
0010
0000
0000
0000
,  // measure 21
1000
0000
0000
0000
,  // measure 22
1000
0000
0000
0000
,  // measure 23
0001
0000
0001
0000
,  // measure 24
0001
0000
0000
0000
,  // measure 25
1000
0000
1000
0000
,  // measure 26
1000
0000
0000
0000
,  // measure 27
0010
0000
0000
0000
,  // measure 28
0000
0000
0000
0000
,  // measure 29
1000
0000
0000
0000
,  // measure 30
0000
0000
0000
0000
,  // measure 31
0001
0000
0000
0000
,  // measure 32
0000
0000
0000
0000
,  // measure 33
0100
0000
0000
0000
,  // measure 34
0000
0000
0000
0000
,  // measure 35
0010
0000
0000
0000
,  // measure 36
0010
0000
0000
0000
,  // measure 37
1000
0000
0000
0000
,  // measure 38
1000
0000
0000
0000
,  // measure 39
0001
0000
0000
0000
,  // measure 40
0001
0000
0000
0000
,  // measure 41
0100
0000
0000
0000
,  // measure 42
0200
0000
0300
0000
,  // measure 43
0100
0000
0100
0000
,  // measure 44
0100
0000
0000
0000
,  // measure 45
0010
0000
0010
0000
,  // measure 46
0010
0000
0000
0000
,  // measure 47
1000
0000
1000
0000
,  // measure 48
1000
0000
0000
0000
,  // measure 49
0001
0000
0001
0000
,  // measure 50
0001
0000
0000
0000
,  // measure 51
1000
0000
1000
0000
,  // measure 52
1000
0000
1000
0000
,  // measure 53
0001
0000
0001
0000
,  // measure 54
0001
0000
0001
0000
,  // measure 55
1000
0000
0000
0000
,  // measure 56
0001
0000
0000
0000
,  // measure 57
1000
0000
0001
0000
,  // measure 58
1000
0000
0000
0000
,  // measure 59
0010
0000
0010
0000
,  // measure 60
0010
0000
0010
0000
,  // measure 61
0100
0000
0100
0000
,  // measure 62
0100
0000
0100
0000
,  // measure 63
0010
0000
0100
0000
,  // measure 64
0010
0000
0100
0000
,  // measure 65
0010
0000
0000
0000
,  // measure 66
0100
0000
0000
0000
,  // measure 67
0010
0000
0000
0000
;

//---------------dance-single - ----------------
#NOTES:
     dance-single:
     :
     Easy:
     4:
     0.283,0.298,0.000,0.020,0.000: // measure 1
1000
0000
0010
0000
,  // measure 2
1000
0010
1000
0000
,  // measure 3
0001
0000
0100
0000
,  // measure 4
0001
0100
0001
0000
,  // measure 5
0010
0000
0001
0000
,  // measure 6
0010
0001
0010
0000
,  // measure 7
0100
1000
0010
0000
,  // measure 8
0100
0001
0010
0100
,  // measure 9
2000
0000
0000
0000
,  // measure 10
0000
0000
0000
0000
,  // measure 11
3001
0010
0100
1000
,  // measure 12
0100
0010
0001
0100
,  // measure 13
0010
1000
0001
0010
,  // measure 14
0100
1000
0100
0000
,  // measure 15
0010
0010
0001
0100
,  // measure 16
0001
0001
0100
1000
,  // measure 17
0100
0100
1000
1000
,  // measure 18
0010
0010
0100
0100
,  // measure 19
0001
0010
0001
0100
,  // measure 20
0010
1000
0001
0010
,  // measure 21
0100
1000
0100
0010
,  // measure 22
0001
1000
0010
0000
,  // measure 23
1000
0100
0010
0010
,  // measure 24
0100
1000
0001
0001
,  // measure 25
0100
0100
0010
0010
,  // measure 26
1000
1000
0001
0001
,  // measure 27
0010
0000
0010
0000
,  // measure 28
0010
0000
0010
0000
,  // measure 29
0001
0000
0001
0000
,  // measure 30
0001
0000
0001
0000
,  // measure 31
1000
0000
1000
0000
,  // measure 32
1000
0000
1000
0000
,  // measure 33
0100
0000
0100
0000
,  // measure 34
0100
0000
0100
0000
,  // measure 35
0010
0001
0010
0000
,  // measure 36
0001
0010
0001
0000
,  // measure 37
1000
0100
1000
0000
,  // measure 38
0100
1000
0100
0000
,  // measure 39
0001
0100
0001
0000
,  // measure 40
0100
0001
0100
0000
,  // measure 41
1000
0010
1000
0000
,  // measure 42
0020
0000
0000
0030
,  // measure 43
1000
0100
0000
0100
,  // measure 44
0000
0001
0000
0001
,  // measure 45
0000
0010
0000
0010
,  // measure 46
0000
0001
0000
0001
,  // measure 47
0000
1000
0000
1000
,  // measure 48
0000
0010
0000
0010
,  // measure 49
0000
0100
0000
0100
,  // measure 50
0000
0001
0000
0001
,  // measure 51
0001
0100
0010
1000
,  // measure 52
0001
0010
0100
1000
,  // measure 53
0100
0010
0001
1000
,  // measure 54
0010
0100
0001
0000
,  // measure 55
0010
0010
0001
0100
,  // measure 56
0001
0001
0100
0010
,  // measure 57
1000
0000
0010
0000
,  // measure 58
0100
0000
0001
0000
,  // measure 59
0010
0001
1000
0010
,  // measure 60
0100
0001
0100
0010
,  // measure 61
1000
0001
0010
0100
,  // measure 62
1000
0100
0010
0000
,  // measure 63
0001
0100
0010
0010
,  // measure 64
1000
0100
0001
0001
,  // measure 65
0100
0000
0010
0000
,  // measure 66
1000
0000
0001
0000
,  // measure 67
0010
0000
0000
0000
;

//---------------dance-single - ----------------
#NOTES:
     dance-single:
     :
     Medium:
     6:
     0.405,0.431,0.000,0.020,0.000: // measure 1
1000
0010
1000
0010
,  // measure 2
0100
0001
0100
0001
,  // measure 3
0010
0001
0010
0001
,  // measure 4
1000
0100
1000
0100
,  // measure 5
1000
0010
1000
0001
,  // measure 6
0100
0010
0100
0001
,  // measure 7
0010
0100
1000
0010
,  // measure 8
0100
0001
0010
0100
,  // measure 9
2000
0000
0000
0000
,  // measure 10
0000
0000
0000
0000
,  // measure 11
3010
0000
0100
0000
0001
0100
0010
0000
,  // measure 12
1000
0000
0001
0000
0010
0100
1000
0000
,  // measure 13
0100
0000
0010
0000
0001
1000
0010
0000
,  // measure 14
0100
0000
0001
0000
0100
0010
1000
0001
,  // measure 15
0010
0000
0001
0000
0100
0001
0100
0000
,  // measure 16
0010
0000
1000
0000
0100
1000
0100
0000
,  // measure 17
0010
0001
0100
0000
0010
1000
0100
0000
,  // measure 18
0010
0100
1000
0001
,  // measure 19
0100
0000
0010
0000
1000
0001
0010
0000
,  // measure 20
0100
0000
1000
0000
0100
0010
0001
0000
,  // measure 21
1000
0000
0010
0000
0100
0001
0100
0010
,  // measure 22
1000
0000
0001
0000
0010
0100
1000
0100
,  // measure 23
0010
0000
0001
0000
0100
0000
0010
1000
,  // measure 24
0001
0000
0010
0000
0100
0000
1000
0100
,  // measure 25
0010
0000
0001
1000
0010
0000
0100
0001
,  // measure 26
0100
0000
0010
1000
0001
0000
0010
0000
,  // measure 27
0100
0000
0010
0000
,  // measure 28
0100
0000
0010
0000
,  // measure 29
1000
0000
0001
0000
,  // measure 30
1000
0000
0000
0100
0000
0000
0010
0000
,  // measure 31
0001
0000
0100
0000
,  // measure 32
0010
0000
0000
1000
0000
0000
0001
0000
,  // measure 33
0010
0000
0000
0100
0000
0000
0000
0000
,  // measure 34
1000
0000
0100
0000
,  // measure 35
0010
0000
0001
0000
,  // measure 36
0010
0000
0100
0000
,  // measure 37
1000
0000
0001
0000
,  // measure 38
0100
0000
0000
0010
0000
0000
1000
0000
,  // measure 39
0001
0010
0001
0010
,  // measure 40
0100
0000
0000
1000
0000
0000
0010
0000
,  // measure 41
0100
0000
0000
0001
0000
0000
0010
0000
,  // measure 42
0200
0000
0000
0000
,  // measure 43
1300
0000
0010
1000
0000
1000
0010
0000
,  // measure 44
0100
0000
0001
0100
0000
0100
0001
0000
,  // measure 45
0010
0000
0001
0010
0000
0010
0001
0000
,  // measure 46
1000
0000
0010
1000
0000
1000
0010
0000
,  // measure 47
0100
0000
0001
0100
0000
0100
0010
0000
,  // measure 48
1000
0000
0100
0010
0000
0010
0001
0000
,  // measure 49
1000
0000
0010
0100
0000
0100
0001
0000
,  // measure 50
1000
0000
0100
0010
0000
0010
0100
0000
,  // measure 51
0001
0000
0010
0000
0100
1000
0010
0000
,  // measure 52
0100
0000
0001
0000
0010
0001
0100
0000
,  // measure 53
0010
0000
1000
0000
0001
0010
0100
0000
,  // measure 54
1000
0000
0100
0000
0010
0001
1000
0000
,  // measure 55
0010
0000
0100
0000
0001
0100
0010
0000
,  // measure 56
1000
0000
0100
0000
0010
0100
1000
0000
,  // measure 57
0001
0100
0010
0000
1000
0100
0010
0000
,  // measure 58
0100
1000
0001
0000
0100
0010
1000
0000
,  // measure 59
0001
0000
0100
0000
0010
1000
0001
0000
,  // measure 60
0010
0000
0100
0000
1000
0100
0010
0000
,  // measure 61
0001
0000
1000
0000
0010
0100
0001
0000
,  // measure 62
0100
0000
0010
0000
1000
0001
0010
0000
,  // measure 63
0100
0000
1000
0000
0100
0010
0001
0000
,  // measure 64
1000
0000
0010
0000
0100
0001
0100
0000
,  // measure 65
0010
1000
0001
0000
0010
0100
1000
0000
,  // measure 66
0010
0100
0001
0000
0010
0000
0100
1000
,  // measure 67
0001
0000
0000
0000
;

//---------------dance-single - ----------------
#NOTES:
     dance-single:
     :
     Hard:
     9:
     0.597,0.630,0.000,0.020,0.236: // measure 1
1000
0010
0100
0010
1000
0001
0010
0100
,  // measure 2
1000
0000
1000
0010
0000
0010
0100
0001
,  // measure 3
0010
0001
0100
0010
1000
0001
0010
0100
,  // measure 4
1000
0000
1000
0010
0000
0010
0100
0001
,  // measure 5
0010
0001
0100
0010
1000
0001
0010
0001
,  // measure 6
0100
0000
1000
0010
0000
0010
1000
0000
,  // measure 7
0001
0010
0100
1000
0100
0010
0001
1000
,  // measure 8
0010
0100
0010
1000
0001
0010
0100
1000
,  // measure 9
0020
0000
0000
0000
,  // measure 10
0000
0000
0000
0000
,  // measure 11
1030
0000
0000
0100
0000
0000
1000
0000
0000
0001
0000
0000
0100
0000
0010
0000
,  // measure 12
1000
0000
0000
0001
0000
0000
0010
0000
0001
0000
1000
0000
0100
0000
0010
0000
,  // measure 13
0100
0000
0000
1000
0000
0000
0001
0000
0100
0000
0000
0000
0010
0000
1000
0000
,  // measure 14
0001
0000
0000
0010
0000
0000
0001
0000
0100
0000
0000
0010
0000
0000
1000
0000
,  // measure 15
0001
0000
0010
0000
0100
0000
1000
0000
0100
0000
0000
0100
0010
0000
0000
0010
,  // measure 16
0001
0000
0100
0000
0010
0000
1000
0000
0001
0000
0000
0001
0100
0000
0000
0100
,  // measure 17
0010
1000
0001
0010
0100
1000
0100
0010
,  // measure 18
0001
0000
1000
0000
0010
0000
0100
0000
0001
0100
0001
0000
0010
0000
0100
0000
,  // measure 19
1000
0000
0000
0001
0000
0000
0100
0000
0000
0010
0000
0000
1000
0000
0010
0000
,  // measure 20
0100
0000
0000
0001
0000
0000
0010
0000
0100
0000
1000
0000
0100
0000
0010
0000
,  // measure 21
0001
0000
0000
1000
0000
0000
0010
0000
0100
0000
0000
0000
0001
0000
0010
0000
,  // measure 22
0100
0000
0000
1000
0000
0000
0100
0000
0010
0000
0000
0001
0000
0000
1000
0000
,  // measure 23
0010
0000
0100
0000
0001
0000
0010
0000
0100
0000
0000
0100
1000
0000
0000
1000
,  // measure 24
0010
0000
0100
0000
0001
0000
0010
0000
0001
0000
0000
0001
0100
0000
0000
0100
,  // measure 25
0010
1000
0001
0010
0100
1000
0100
0010
,  // measure 26
0001
0000
1000
0000
0010
0000
0100
0000
0001
0010
0001
0000
0100
0000
0010
0000
,  // measure 27
1000
0000
0100
0000
,  // measure 28
0010
0000
0000
0001
0000
0000
0100
0000
0010
0000
1000
0000
,  // measure 29
0001
0000
0010
0000
,  // measure 30
0100
0000
0000
1000
0000
0000
0001
0000
,  // measure 31
0100
0000
0010
0000
,  // measure 32
1000
0000
0000
0100
0000
0000
0010
0000
,  // measure 33
0001
0000
0000
0100
0000
0000
0010
0000
,  // measure 34
1000
0100
0000
0100
1000
0000
0001
0000
,  // measure 35
0010
0001
0100
0010
,  // measure 36
1000
0000
0100
0000
1000
0010
0000
0010
,  // measure 37
1000
0100
0010
0001
,  // measure 38
0100
0000
0100
0001
0000
0001
0010
0000
,  // measure 39
0100
1000
0010
0100
,  // measure 40
0001
0000
0010
0100
0000
1000
0100
0000
,  // measure 41
0010
0000
0001
1000
0000
1000
0010
0000
,  // measure 42
0200
0000
0000
0300
,  // measure 43
0001
0100
0001
1000
0100
1000
0001
0100
,  // measure 44
1000
0010
1000
0001
0010
0001
1000
0010
,  // measure 45
0100
0001
0010
0100
1000
0010
0100
0001
,  // measure 46
0100
0010
1000
0100
0010
0001
0100
0010
,  // measure 47
0100
0001
0100
0010
1000
0010
0100
0001
,  // measure 48
1000
0010
1000
0001
0010
0001
0100
0010
,  // measure 49
0100
0001
0100
0010
1000
0010
1000
0001
,  // measure 50
0100
0010
0100
0001
1000
0001
0100
0010
,  // measure 51
1000
0000
0000
0100
0000
0000
0010
0000
0000
0001
0000
0000
0100
0000
0010
0000
,  // measure 52
1000
0000
0000
0010
0000
0000
0100
0000
0001
0000
0100
0000
0010
0000
1000
0000
,  // measure 53
0001
0000
0000
0010
0000
0000
0100
0000
1000
0000
0000
0000
0100
0000
0010
0000
,  // measure 54
0001
0000
0000
0100
0000
0000
0010
0000
1000
0000
0000
0001
0000
0000
0010
0000
,  // measure 55
0100
0000
1000
0000
0010
0000
0100
0000
0001
0000
0000
0001
0100
0000
0000
0100
,  // measure 56
0010
0000
1000
0000
0001
0000
0100
0000
0010
0000
0000
0010
0100
0000
0000
0100
,  // measure 57
1000
0010
0100
0001
0010
0100
1000
0100
,  // measure 58
0010
0000
0001
0000
0010
0000
0100
0000
1000
0100
1000
0000
0010
0000
0100
0000
,  // measure 59
0001
0000
0000
0010
0000
0000
0001
0000
0000
0100
0000
0000
0010
0000
1000
0000
,  // measure 60
0001
0000
0000
0010
0000
0000
0100
0000
1000
0000
0100
0000
0010
0000
0001
0000
,  // measure 61
0100
0000
0000
0010
0000
0000
1000
0000
0100
0000
0000
0000
0010
0000
0100
0000
,  // measure 62
1000
0000
0000
0001
0000
0000
0100
0000
0010
0000
0000
1000
0000
0000
0001
0000
,  // measure 63
0010
0000
0100
0000
1000
0000
0010
0000
0100
0000
0000
0100
0001
0000
0000
0001
,  // measure 64
0010
0000
0100
0000
1000
0000
0100
0000
0010
0000
0000
0010
0001
0000
0000
0001
,  // measure 65
0100
0010
1000
0001
0010
0100
1000
0100
,  // measure 66
0010
0000
0001
0000
1000
0000
0010
0000
0100
0001
0100
0001
0100
0000
0010
0000
,  // measure 67
1000
0000
0000
0000
;
