#TITLE:Punishment! -Boost Remix-;
#ARTIST:DJ obelisk;
#FILE:Punishment! -Boost Remix- (DDR Edit).mp3;
#BPM:184.000;
#GAP:2780;
#SAMPLESTART:34.110;
#SAMPLELENGTH:12.000;
#SINGLE:BEGINNER:2:
40000000
20000000
80000000
60000000
80000000
20000000
40000000
60000000
20002000
20000000
80008000
80000000
40004000
40000000
60006000
60000000
B0000000
A0000000
A0000000
B0000000
B0000000
A0000000
A0000000
B0000000
60006000
60000000
40004000
40000000
80008000
80000000
20002000
20000000
60008000
20000000
40002000
80000000
60002000
40000000
40008000
60000000
A0000000
B0000000
B0000000
A0000000
A0000000
B0000000
60004000
60000000
404!400000
00000000
00000000
40000000
60000000
40000000
60000000
40000000
80000000
20000000
80000000
20000000
A0000000
60000000
20000000
80000000
40000000
60000000
40000000
60000000
B0000000
;
#SINGLE:BASIC:5:
40204080
20602000
80402060
20408000
20608020
40208000
80602080
40002000
40204020
80208020
80608060
20602060
20802080
40804080
40204020
80208000
B00B00B0
00804020
10010010
00208060
90090090
00602080
A00A00A0
00620840
80402000
80602080
20608000
20402000
80602000
80402040
80206000
8020B000
80402000
80602000
20608000
20408000
40206000
60204000
40806000
60804000
40040040
20020020
80080080
60060060
20008000
40006000
60200800
40060020
80002000
8!80000000
A00900A0
01!1000010
40602060
40208000
60208040
20802000
40802060
80204000
20806020
80408000
40002000
80006000
80002000
40006000
B000A000
B000A000
10009000
30007000
B0000000
;
#SINGLE:ANOTHER:7:
80408480
20602620
60806860
40204240
80408480
20608280
6040B0A0
84048020
60204262
40802628
40608242
80602848
20608628
40608024
20806020
84040820
B00A00B0
00628420
10090030
00624260
30090010
00842620
100300A0
00620264
80424080
26062080
40608062
60820420
80626020
84048020
60868006
40280820
60304010
68086020
80402004
80260620
60304010
68086020
80424008
20620840
20020020
80080080
60060060
40040040
80802020
60604040
80B00406
2!2008!800A0
28284646
4!40B!603!20A0
70010030
09!9000090
40208680
20408280
40208620
80406820
40208620
80402462
80406860
20804246
28040208
06040608
02040208
62804082
60206020
80408040
60406040
82060B0A
;
#SINGLE:MANIAC:9:
84682428
64828468
24286462
84682428
64826242
68628428
24862030
(4020008068608020)
42624868
42624868
42684268
62486248
42824628
(4060806020804242)
48268242
(8060406000282080)
B0010030
00624268
70010090
00628428
A0090030
00628428
A0010090
(0000602000262080)
40246020
84048020
60301062
80480826
80242080
62026080
60424082
62080428
60426062
48084080
20602084
80260824
20868060
28084082
80468024
28060482
62026062
84048084
24042024
68086068
24042802
86086802
407!80A602
80420868
42864826
46462828
A0010090
0B!B0000B0
84846262
68682828
24248484
82826262
68242864
82648262
84682428
64826284
60828024
20828068
60626048
48206028
20802080
40208060
80204060
28040B0A
;
