#TITLE:PrayStation;
#SUBTITLE:;
#ARTIST:Ras;
#TITLETRANSLIT:;
#SUBTITLETRANSLIT:;
#ARTISTTRANSLIT:;
#CREDIT:;
#BANNER:banner.png;
#BACKGROUND:bgblack.PNG;
#LYRICSPATH:;
#CDTITLE:;
#MUSIC:PrayStation.mp3;
#OFFSET:-0.040;
#SAMPLESTART:38.970;
#SAMPLELENGTH:13.500;
#SELECTABLE:YES;
#BPMS:0.000=142.000;
#STOPS:;
#BGCHANGES:0.000=praystation_bga.avi=1.000=0=0=0,
192.000=bgblack.PNG=1.000=1=0=1,
99999=-nosongbg-=1.000=0=0=0 // don't automatically add -songbackground-
;

//---------------dance-single - ----------------
#NOTES:
     dance-single:
     :
     Beginner:
     1:
     0.114,0.171,0.000,0.012,0.000:
0000
0000
0000
0000
,
0000
0000
0000
0000
,
0000
0000
0000
0000
,
0000
0000
0000
0000
,
1000
0000
1000
0000
,
1000
0000
0000
0000
,
0001
0000
0001
0000
,
0001
0000
0000
0000
,
0100
0000
0100
0000
,
0100
0000
0000
0000
,
0010
0000
0010
0000
,
0010
0000
0000
0000
,
1000
0000
0001
0000
,
1000
0000
0000
0000
,
0001
0000
1000
0000
,
0001
0000
0000
0000
,
0100
0000
0010
0000
,
0100
0000
0000
0000
,
0010
0000
0100
0000
,
0020
0000
0000
0000
,
0000
0000
0000
0000
,
0000
0000
0000
0000
,
0000
0000
0030
0000
,
0010
0010
0010
0000
,
0010
0000
0010
0000
,
0100
0100
0100
0000
,
0100
0000
0100
0000
,
0001
0001
0001
0000
,
0001
0000
0001
0000
,
1000
1000
1000
0000
,
1000
0000
1000
0000
,
0010
0000
1000
0000
,
0010
0000
0000
0000
,
0100
0000
0001
0000
,
0100
0000
0000
0000
,
0001
0000
0010
0000
,
0001
0000
0000
0000
,
1000
0000
0100
0000
,
1000
0000
0000
0000
,
0010
0000
0000
0000
,
0100
0000
0000
0000
,
0001
0000
0000
0000
,
1000
0000
0000
0000
,
0001
0000
0000
0000
,
0010
0000
0000
0000
,
0100
0000
0000
0000
,
1000
0000
0000
0000
,
0010
0000
0000
0000
;

//---------------dance-single - ----------------
#NOTES:
     dance-single:
     :
     Easy:
     5:
     0.346,0.314,0.000,0.024,0.030: // measure 1
0000
0000
0000
0000
,  // measure 2
0000
0000
0000
0000
,  // measure 3
0000
0000
0000
1000
,  // measure 4
0001
0100
0020
0000
,  // measure 5
1030
0000
0001
0000
0100
0010
0100
0000
,  // measure 6
0001
0000
0010
0000
0100
1000
0100
0000
,  // measure 7
0010
0000
0001
0000
0100
0001
0100
0000
,  // measure 8
0001
0000
0010
0000
0001
1000
0001
0000
,  // measure 9
1000
0000
0010
0000
1000
0100
1000
0000
,  // measure 10
0010
0000
0100
0000
0001
0010
0001
0000
,  // measure 11
0010
0000
0100
0000
1000
0001
0100
0000
,  // measure 12
0010
0000
0100
0000
0001
1000
0100
0000
,  // measure 13
0010
0000
0100
0000
1000
0100
0010
0000
,  // measure 14
0001
0000
0100
0000
0010
0100
0001
0000
,  // measure 15
0010
0000
0100
0000
1000
0001
0100
0000
,  // measure 16
0010
0000
1000
0000
0010
0100
0001
0000
,  // measure 17
0010
0000
0100
0000
1000
0001
0100
0000
,  // measure 18
0010
0000
1000
0000
0010
0100
0001
0000
,  // measure 19
0010
0000
0100
0000
1000
0001
1000
0000
,  // measure 20
0001
0000
0000
0001
0000
0000
0100
0000
0000
0100
0000
0000
0010
0000
0000
0010
,  // measure 21
0000
0000
1000
0000
0000
1000
0000
0000
0100
0000
0000
0001
0000
0000
0010
0000
,  // measure 22
0200
0000
0000
0000
,  // measure 23
0000
0000
0000
1300
,  // measure 24
1000
0010
0100
0001
,  // measure 25
0100
0000
0010
0000
1000
0100
1000
0000
,  // measure 26
0010
0100
0001
0010
,  // measure 27
0100
0000
0010
0000
0001
0100
0001
0000
,  // measure 28
0010
0001
0100
0010
,  // measure 29
1000
0000
0100
0000
0010
0001
0010
0000
,  // measure 30
0001
0100
0010
1000
,  // measure 31
0001
0000
0010
0000
1000
0010
1000
0000
,  // measure 32
0010
0000
0100
0000
0001
0100
0001
0000
,  // measure 33
0010
0100
1000
1000
,  // measure 34
0010
0000
0100
0000
0001
0100
0001
0000
,  // measure 35
0010
0001
0010
0010
,  // measure 36
0100
0000
1000
0000
0010
1000
0010
0000
,  // measure 37
0100
0001
0010
0010
,  // measure 38
0001
0000
0100
0000
0010
1000
0001
0000
,  // measure 39
0010
0100
1000
0100
,  // measure 40
0010
0001
0100
0010
,  // measure 41
1000
0100
1000
0000
0100
0000
0010
0000
,  // measure 42
0001
0100
0001
0010
,  // measure 43
0100
0000
1000
0000
0001
0000
0000
0100
,  // measure 44
0000
0100
0010
1000
,  // measure 45
0001
0010
0001
0000
0100
0000
0010
0000
,  // measure 46
1000
0000
0100
0000
1000
0000
0000
0001
,  // measure 47
0000
0100
0010
1000
,  // measure 48
0001
0001
0000
0000
0000
0000
0000
0000
;

//---------------dance-single - ----------------
#NOTES:
     dance-single:
     :
     Medium:
     6:
     0.438,0.400,0.061,0.036,0.036:
0000
0000
0000
0000
,
0000
0000
0000
0000
,
0000
0000
0000
1100
,
0011
0101
1010
1002
,
0013
0000
1000
0000
0100
0001
0100
1000
,
0010
0000
0100
0000
0001
0010
1000
0010
,
0001
0000
0010
0000
0100
1000
0010
1000
,
0100
0000
0010
0000
0001
0100
0001
0010
,
0100
0000
0010
0000
0001
0100
0010
1000
,
0001
0000
0010
0000
0100
0010
0001
0100
,
0010
0000
1000
0000
0001
0010
0100
1000
,
0010
0000
0100
0000
0010
1000
0001
0000
,
0010
0000
0100
0000
1000
0100
0010
0001
,
1000
0000
0010
0000
0100
0001
0100
1000
,
0100
0000
0010
0000
0001
0100
1000
0100
,
0001
0000
0010
0000
1000
0010
0001
0010
,
1000
0000
0100
0000
0010
0001
0100
0010
,
1000
0000
0010
0000
0100
0001
0010
0100
,
0010
0000
0001
0000
0100
0010
1000
0001
,
0010
0000
0000
0010
0000
0000
0001
0000
0000
0001
0000
0000
0100
0000
0000
0100
,
0000
0000
0010
0000
0000
0010
0000
0000
1000
0000
0000
1000
0000
0000
0001
0000
,
0200
0000
0000
0000
,
0000
0000
0000
0310
,
1000
0100
0010
0100
1000
0000
0001
0000
,
0100
0010
0100
0001
0010
0100
1000
0000
,
0010
0100
0001
0100
0010
0000
1000
0000
,
0001
0010
0001
0100
0010
0000
1000
0000
,
0100
1000
0001
0100
0010
0000
0100
0000
,
0001
0010
0100
1000
0100
0010
0001
0000
,
1000
0010
0100
0010
1000
0000
0001
0000
,
0010
0100
0010
0001
1000
0010
0100
0000
,
0001
0100
1000
0100
0001
0000
0100
0000
,
1000
0010
0001
0010
1000
0000
0010
0000
,
0001
0100
0010
0100
0001
0000
0100
0000
,
0010
1000
0100
1000
0010
0000
0000
0000
,
0100
0001
0010
0001
0100
0000
0010
0000
,
1000
0100
0010
0100
1000
0000
0010
0000
,
0001
0010
1000
0010
0001
0000
0001
0100
,
2000
0000
0000
0000
,
3001
0000
0100
0000
0001
0000
0010
0001
,
0010
0100
1000
0000
0100
0000
0010
0001
,
0100
0000
0010
0000
1000
0000
0010
0100
,
0000
0000
0100
0000
0010
0000
0000
0000
1000
0000
0000
0001
0000
0000
0100
0000
,
0010
0000
1000
0000
0100
0000
1000
0001
,
0100
0010
1000
0000
0010
0000
0100
0001
,
0010
0000
0100
0000
1000
0000
0001
0010
,
0000
0010
0001
1000
0010
0000
0100
0000
,
0001
0001
0000
0000
0000
0000
0000
0000
;

//---------------dance-single - ----------------
#NOTES:
     dance-single:
     :
     Hard:
     8:
     0.632,0.543,0.133,0.121,0.273:
0000
0000
0000
0000
,
0000
0000
0000
0000
,
0000
0000
0000
0000
0000
0000
1020
0030
,
0012
0003
0201
0300
2100
3000
0020
0000
,
1030
0100
0010
0100
1000
0001
0100
0010
,
1000
0000
0001
0000
0010
0000
0100
0000
1000
0100
1000
0000
0010
0000
0100
0000
,
0001
0010
0001
0100
0010
1000
0001
0010
,
0100
0000
1000
0010
0000
0100
0001
0000
0010
0000
0100
0000
1000
0000
0010
0000
,
0100
0001
0010
0001
0100
0010
1000
0001
,
0100
0000
0010
0000
1000
0000
0001
0000
0010
0001
0010
0000
0100
0000
1000
0000
,
0010
0100
0001
0010
0100
1000
0100
0010
,
0001
0000
1000
0010
0000
0010
1000
0000
0001
0000
0010
0000
0100
0000
1000
0000
,
0001
0100
1000
0100
0001
0010
1000
0010
,
0001
0000
0100
0000
0010
0000
1000
0000
0001
0010
0001
0000
0100
0000
0010
0000
,
1000
0001
0010
0100
1000
0100
0010
0001
,
1000
0000
0010
0100
0000
0100
0010
0000
1000
0000
0001
0000
0010
0000
0100
0000
,
1000
0100
0010
0001
1000
0010
0001
0010
,
1000
0000
0100
0000
0001
0000
0100
0000
0010
1000
0010
0000
1000
0000
0001
0000
,
0010
0100
1000
0100
0010
0001
1000
0010
,
0100
0000
0000
0101
0000
0000
0001
0000
0000
0011
0000
0000
0010
0000
0000
0110
,
0000
0000
0100
0000
0000
1100
0000
0000
1010
0000
0000
0101
0000
0000
0001
0000
,
0020
0000
0000
0000
,
0000
0000
0000
0130
,
1000
0010
0100
0001
0100
0010
1000
0001
,
0010
0000
0100
0000
1000
0000
0100
0000
0010
0001
0010
0001
0010
0000
0001
0000
,
0100
0010
1000
0001
0010
0100
1000
0010
,
0100
0000
0001
0010
0000
0010
0001
0000
0100
0000
0010
0000
1000
0010
1000
0000
,
0010
0100
0001
0010
0100
1000
0100
0010
,
0001
0000
1000
0000
0010
0000
0100
0000
0001
0100
0001
0100
0001
0000
0010
0000
,
0100
1000
0100
0010
0001
1000
0010
0100
,
0001
0000
0010
0001
0000
0001
0010
0000
0100
0000
1000
0100
1000
0000
0010
0000
,
0100
0001
0010
0100
1000
0100
0010
0001
,
1000
0000
0010
0000
0100
0000
0001
0000
0100
0010
0100
0000
0010
0000
1000
0000
,
0001
0010
0100
1000
0100
0010
0001
1000
,
0010
0000
0100
0010
0000
0010
0100
0000
0001
0000
0010
0000
0100
0000
1000
0000
,
0100
0010
0001
1000
0010
0100
0001
0100
,
0010
0000
1000
0000
0001
0000
0010
0000
0100
1000
0100
0000
0010
0000
0001
0000
,
1000
0010
0100
0010
1000
0001
0010
0100
,
1000
0010
0100
0001
0010
0100
1000
0001
,
0200
0000
0000
0000
0000
0000
0310
0000
1000
0000
0010
0000
1000
0000
0000
1000
0000
0000
0100
0000
0000
0100
0000
0000
,
0010
0010
0001
0000
0002
0000
0103
0010
,
1000
0000
0000
0000
0100
0000
0000
0000
0000
1000
0000
0000
0000
0000
0000
0000
0010
0000
0000
0000
0000
0000
0000
0000
0100
0000
0000
0000
0000
0000
0000
0000
0000
0000
0000
0000
0001
0000
0000
0000
0000
0000
0010
0000
0000
0000
0000
0000
,
0000
0000
0010
0000
0001
0000
0100
0000
0010
0000
0000
1000
0000
0000
0100
0000
,
0020
0000
0000
0000
0000
0000
0031
0000
1000
0000
0001
0000
1000
0000
0000
0001
0000
0000
0100
0000
0000
0100
0000
0000
,
0010
0010
1000
0000
2000
0000
3100
0010
,
0001
0000
0000
0000
0000
0000
0000
0000
0000
0100
0000
0000
0000
0000
0000
0000
0000
0000
0010
0000
0000
0000
0000
0000
1000
0000
0000
0000
0000
0000
0001
0000
0000
0000
0000
0000
0100
0000
0000
0000
0010
0000
0000
0000
0100
0000
0000
0000
,
0010
0000
0000
0000
0000
0000
0000
0000
0000
1000
0000
0000
0000
0000
0000
0000
0000
0000
0001
0000
0000
0000
0000
0000
0100
0000
0000
0000
0001
0000
0000
0000
0100
0000
0000
0000
0010
0000
0000
0000
1000
0000
0000
0000
0010
0000
0000
0000
,
0100
0110
0000
0000
0000
0000
0000
0000
;
