#TITLE:Parousia;
#SUBTITLE:;
#ARTIST:xi;
#TITLETRANSLIT:;
#SUBTITLETRANSLIT:;
#ARTISTTRANSLIT:;
#CREDIT:;
#BANNER:banner.png;
#BACKGROUND:background.png;
#LYRICSPATH:;
#CDTITLE:;
#MUSIC:Parousia.mp3;
#OFFSET:-9.100;
#SAMPLESTART:53.540;
#SAMPLELENGTH:12.000;
#SELECTABLE:YES;
#BPMS:0.000=158.000,220.000=154.000,224.000=150.000,228.000=146.000,232.000=142.000,234.000=132.000;
#STOPS:;
#BGCHANGES:;

//---------------dance-single - ----------------
#NOTES:
     dance-single:
     :
     Hard:
     8:
     0.547,0.630,0.204,0.194,0.257: // measure 1
0010
0000
0000
0000
0000
0000
0001
0000
0000
0010
0000
0000
0000
0000
0000
0000
0000
0000
0010
0000
0000
0000
0000
0000
0001
0000
0000
0000
0100
0000
0000
0000
0001
0000
0000
0000
1000
0000
0000
0000
0010
0000
0000
0000
1000
0000
0000
0000
,  // measure 2
0100
0000
0000
1000
0000
0000
0010
0000
0000
0100
0000
0000
0001
0000
0100
0000
0001
0000
0100
0000
0000
0010
0000
0000
,  // measure 3
1000
0100
1000
0100
1000
0000
0010
0000
0100
0001
0000
0000
0100
0000
0010
0000
,  // measure 4
1000
0100
0000
0010
0001
0000
0100
0010
,  // measure 5
0100
0001
0100
1010
,  // measure 6
1010
0000
0010
0100
0001
0000
0001
0100
,  // measure 7
0010
1000
0000
1000
0010
0000
0100
0001
,  // measure 8
0010
0000
0001
0100
0010
0000
1000
0001
,  // measure 9
0010
0100
1000
0100
,  // measure 10
0010
0000
0000
0000
0000
0000
0001
0000
0000
0010
0000
0000
0100
0000
0000
0000
1000
0000
0000
0000
0010
0000
0000
0000
,  // measure 11
0100
0000
0000
0000
0000
0000
0001
0000
0000
0010
0100
0010
,  // measure 12
0100
0000
0002
0000
,  // measure 13
2003
0000
3100
0010
,  // measure 14
0011
0001
0100
0010
,  // measure 15
1000
0100
1000
0001
,  // measure 16
0100
0010
1000
0001
,  // measure 17
0012
0000
0010
0103
,  // measure 18
1100
0000
0000
1000
0000
0000
0010
0000
0100
0000
0001
0000
,  // measure 19
1000
0010
0100
0001
,  // measure 20
0010
0001
0100
0010
,  // measure 21
1000
0000
0100
0000
1000
0100
1000
0000
,  // measure 22
0001
0000
0100
0000
0001
0100
0001
0000
,  // measure 23
0010
0000
0001
0000
0010
0001
0010
0000
,  // measure 24
1000
0000
0010
0000
1000
0010
1000
0000
,  // measure 25
0001
0010
0000
0010
0001
0100
0010
1000
,  // measure 26
0100
1000
0000
1000
0010
0100
0001
0010
,  // measure 27
0100
0000
0000
1000
0000
0000
0000
0000
0000
1000
0000
0000
0001
0000
0000
0100
0000
0000
0010
0000
1000
0000
0001
0000
,  // measure 28
0200
0000
0000
0000
,  // measure 29
0320
0000
0230
0000
,  // measure 30
0302
0023
0230
2300
,  // measure 31
3010
1000
0100
0010
0100
1000
0001
0100
,  // measure 32
0010
1010
1100
0011
,  // measure 33
0101
0000
0001
0010
0001
0100
0010
1000
,  // measure 34
0001
0000
0010
0001
0100
0010
1000
0100
,  // measure 35
0010
0000
0100
1000
0001
0100
0010
1000
,  // measure 36
0001
0000
0000
0010
0000
0000
0100
0000
0000
1000
0000
0000
0100
0000
0000
0000
0011
0000
0000
0000
1100
0000
0000
0000
,  // measure 37
0001
0000
0100
0000
0010
0000
1000
0100
1000
0000
0100
0000
0010
0000
0001
0010
,  // measure 38
0001
0100
0010
1000
0001
0010
0100
1000
,  // measure 39
0010
0100
0010
0100
0010
0000
0100
0000
0001
0000
0010
0000
0100
0000
1000
0000
,  // measure 40
0001
0100
0001
0100
0001
0000
0010
0000
0100
0000
1000
0000
0010
0000
0100
0000
,  // measure 41
0001
0010
0001
0000
0010
0000
0100
0000
1000
0010
1000
0000
0010
0000
0100
0000
,  // measure 42
0001
0000
0101
0000
1010
0000
1100
0000
0011
0000
1001
0000
,  // measure 43
0001
0000
0000
0001
0100
0000
0000
0100
0010
0000
1000
0000
0100
0000
1000
0000
,  // measure 44
0010
0000
0000
0010
0100
0000
0000
0100
0001
0000
0010
0000
0100
0000
0010
0000
,  // measure 45
0001
0100
0010
1000
0001
0010
0100
1000
,  // measure 46
0002
0000
0000
0000
0100
0000
0103
0001
,  // measure 47
1000
0000
0000
0000
0000
0000
0001
0000
0000
0000
0000
0000
0100
0000
0010
0000
0100
0000
0010
0000
0000
1000
0000
0000
,  // measure 48
0100
0000
0000
0000
0000
0000
1000
0000
0000
0010
0000
0000
0100
0000
0001
0000
0100
0000
0001
0000
0000
0010
0000
0000
,  // measure 49
0100
1000
0000
1000
0010
0000
0100
0001
,  // measure 50
0010
0000
0000
0000
0000
0000
0001
0000
0000
0100
0000
0000
0010
0000
1000
0000
0001
0000
0100
0000
0000
0010
0000
0000
,  // measure 51
0100
0000
0001
0000
0100
0001
0000
0001
1000
0000
0010
0000
1000
0010
0000
0010
,  // measure 52
1000
0000
0100
0000
1000
0100
0000
0100
1000
0000
0010
0000
0100
0000
0001
0000
,  // measure 53
0010
0001
0100
0010
1000
0001
0010
0100
,  // measure 54
1000
1010
0101
1001
,  // measure 55
0001
0000
0100
0010
0000
1000
0000
0001
0000
0010
0000
0100
1000
0000
0010
0000
,  // measure 56
0220
0030
0020
0030
,  // measure 57
0020
0030
0020
0030
,  // measure 58
0020
0030
0020
0030
,  // measure 59
0020
0030
0020
0330
,  // measure 60
0110
0000
0000
0000
;

//---------------dance-single - ----------------
#NOTES:
     dance-single:
     :
     Medium:
     6:
     0.389,0.401,0.107,0.087,0.068:
1000
0000
0000
0000
0000
0000
0001
0000
0000
0100
0001
0100
,
0001
0010
0100
1000
,
0010
0000
0000
1000
0000
0000
0010
0000
0000
0000
0000
0000
0100
0000
0000
0000
0000
0000
0001
0000
0010
0000
0001
0000
,
0010
0001
0000
0001
0100
0000
0010
1000
,
0010
1000
1100
0100
,
0010
0000
0001
0100
0010
0000
1000
0000
,
0100
1000
0000
1000
0001
0000
0100
0000
,
0010
0000
1000
0001
0010
0000
0100
1000
,
0100
0010
0001
0100
,
0010
0000
0000
1000
0000
0000
0001
0000
0010
0000
0100
0000
,
1000
0000
0000
0000
0010
0000
0100
0001
,
0200
0000
0320
0000
,
1030
0000
0100
0010
,
0001
0000
0100
0010
,
1000
0001
0010
0100
,
1000
0100
0010
0001
,
1000
0000
0010
0100
,
0001
0000
0000
0000
0000
0000
0010
0000
0001
0000
0100
0000
,
0010
0000
1000
0100
,
1000
0000
0010
0100
,
0001
0100
0001
0100
,
0010
1000
0010
1000
,
0100
1000
0100
1000
,
0001
0010
0001
0010
,
0001
0100
0000
0100
0001
0000
0010
0000
,
0100
1000
0000
1000
0100
0000
0010
0000
,
0001
0010
0000
0010
0001
0000
1000
0000
,
2002
0000
0000
3003
,
0001
1000
0001
1000
,
0010
0100
0001
0010
,
0100
0000
1000
0000
0010
0000
0100
0001
,
0100
1010
1100
0011
,
0101
0000
0001
0010
0100
0000
1000
0100
,
0010
0000
0001
0000
1000
0010
0100
0010
,
1000
0000
0001
0000
0010
0100
0010
0001
,
0100
0000
0000
0010
0000
0000
1000
0000
0010
0000
0100
0000
,
0001
0000
0010
0001
0010
0000
0100
1000
,
0100
0000
0010
0001
0100
0010
1000
0001
,
0010
0001
0010
0000
0100
0000
1000
0000
,
0010
1000
0010
0000
0100
0000
0001
0000
,
0010
0001
0000
0001
0010
0100
0000
0100
,
1000
0000
1000
0000
1000
0000
0001
0000
0001
0000
0001
0000
,
0100
0000
0010
1000
0001
0000
0010
0000
,
0100
0000
1000
0100
0010
0000
0001
0000
,
0000
1000
0010
0100
0001
0000
0100
0000
,
0220
0000
0000
0330
,
0002
0000
0000
0000
0103
0000
0010
1000
,
0020
0000
1030
0100
,
0010
0001
0000
0001
0010
0000
0100
0000
,
1000
0001
0100
0010
,
1000
0100
1000
0000
0001
0010
0001
0000
,
0100
0001
0100
0000
0010
1000
0010
0000
,
0001
0100
0000
0100
0001
0000
0010
0000
,
0110
1100
1010
0101
,
0001
0100
0010
1000
0001
0010
0100
1000
,
0020
0000
1000
0000
,
1000
0000
1000
0000
,
1000
0000
1000
0000
,
1000
0000
1000
0000
,
1030
0000
0000
0000
;

//---------------dance-single - ----------------
#NOTES:
     dance-single:
     :
     Easy:
     3:
     0.201,0.255,0.010,0.058,0.000:
1000
0000
0001
0000
,
0100
0000
0010
0000
,
0100
0100
0100
0000
,
0010
0000
1000
0000
,
0001
0000
0010
0000
,
0001
0000
0100
0000
,
0010
0000
1000
0000
,
0100
0000
1000
0000
,
0010
0000
0010
0000
,
0100
0000
0001
0000
,
1000
0000
0000
0000
,
0002
0000
0000
0000
,
1003
0000
0000
0000
,
0010
0000
0000
0000
,
0100
0000
0000
0000
,
0001
0000
0000
0000
,
0010
0000
0000
0000
,
0001
0000
0100
0000
,
1000
0000
0000
0000
,
0010
0000
0000
0000
,
1000
1000
1000
0000
,
1000
1000
1000
0000
,
0010
0010
0010
0000
,
0010
0010
0010
0000
,
0100
0100
0100
0000
,
0001
0001
0001
0000
,
1000
0000
0010
0000
,
0200
0000
0300
0000
,
0002
0000
0000
0000
,
0000
0000
0003
0000
,
0001
0010
0001
0010
,
0100
1000
0100
1000
,
0010
0100
0001
0010
,
0001
0100
0010
0000
,
0010
1000
0010
1000
,
0001
0100
0001
0000
,
0010
0001
0100
0010
,
1000
0001
0010
0100
,
1000
1000
0000
0010
,
0100
0100
0000
0100
,
0001
0001
0010
0010
,
0100
0000
1000
0000
,
0010
0100
0010
0100
,
0001
1000
0001
1000
,
0001
0010
0100
1000
,
0010
0000
0100
0000
,
0001
0000
0100
0000
,
0010
1000
0010
0000
,
0100
0000
0001
0000
,
0010
0001
0010
0000
,
0100
0100
1000
1000
,
0010
0010
0100
0100
,
0001
0001
0010
0010
,
0001
1000
0010
0100
,
0002
0000
0000
0003
,
2002
0000
0000
0000
,
0000
0000
0000
0000
,
0000
0000
0000
0000
,
0000
0000
3003
0000
;

//---------------dance-single - ----------------
#NOTES:
     dance-single:
     :
     Beginner:
     1:
     0.094,0.187,0.000,0.029,0.000:
1000
0000
0000
0000
,
0010
0000
0000
0000
,
0100
0000
0000
0000
,
0001
0000
0000
0000
,
0010
0000
0010
0000
,
0010
0000
0000
0000
,
0100
0000
0000
0000
,
0100
0000
0000
0000
,
0001
0000
0000
0000
,
0001
0000
0000
0000
,
2000
0000
0000
0000
,
3000
0000
0000
0000
,
1000
0000
0000
0000
,
0000
0000
0000
0000
,
0010
0000
0000
0000
,
0000
0000
0000
0000
,
0100
0000
0000
0000
,
0000
0000
0000
0000
,
0001
0000
0000
0000
,
0000
0000
0000
0000
,
0010
0000
0000
0000
,
0010
0000
0000
0000
,
0100
0000
0000
0000
,
0100
0000
0000
0000
,
0001
0000
0001
0000
,
0001
0000
0000
0000
,
1000
0000
1000
0000
,
1000
0000
0000
0000
,
0002
0000
0000
0000
,
0003
0000
0000
0000
,
0001
0000
0001
0000
,
0001
0000
0000
0000
,
0100
0000
0100
0000
,
0100
0000
0000
0000
,
0010
0000
0010
0000
,
0010
0000
0000
0000
,
1000
0000
1000
0000
,
1000
0000
0000
0000
,
0001
0001
0000
0000
,
0001
0001
0000
0000
,
1000
0000
0000
0000
,
1000
0000
0000
0000
,
0010
0000
0010
0000
,
0010
0000
0000
0000
,
0100
0000
0100
0000
,
0100
0000
0000
0000
,
0001
0000
0000
0000
,
1000
0000
0000
0000
,
0001
0000
0000
0000
,
1000
0000
0000
0000
,
0010
0000
0010
0000
,
0010
0000
0000
0000
,
0100
0000
0100
0000
,
0100
0100
0100
0100
,
0200
0000
0000
0000
,
0300
0000
0000
0000
;
